<?xml version="1.0" encoding="UTF-8" standalone="no"?>
<svg xmlns="http://www.w3.org/2000/svg">
<metadata>
This is a SVG font generated by Alphabet Type GmbH.
</metadata>
<defs>
<font id="CreditSuisseHeadlineWebRegular" horiz-adv-x="515" >
<font-face units-per-em="1000" ascent="1134" descent="-280" />
<missing-glyph horiz-adv-x="515" />
<glyph unicode="&#x20;" horiz-adv-x="230" />
<glyph unicode="&#x21;" horiz-adv-x="244" d="M147 178L167 327L167 680L77 680L77 327L97 178ZM177 110L67 110L67 0L177 0Z"/>
<glyph unicode="&#x22;" horiz-adv-x="354" d="M139 695L63 695L63 433L139 433ZM291 695L215 695L215 433L291 433Z"/>
<glyph unicode="&#x23;" horiz-adv-x="583" d="M521 240L408 240L437 439L545 439L545 510L447 510L472 680L397 680L372 510L257 510L282 680L207 680L182 510L61 510L61 439L172 439L143 240L39 240L39 168L132 168L108 0L183 0L207 168L322 168L298 0L373 0L397 168L521 168ZM246 439L361 439L334 240L219 240Z"/>
<glyph unicode="&#x24;" horiz-adv-x="549" d="M238 401C172 421 139 460 139 516C139 570 185 603 238 612ZM321 290C392 273 426 235 426 178C426 115 372 76 304 67L304 294ZM304 610C353 601 396 571 403 495L493 495C484 618 404 680 304 692L304 775L238 775L238 693C133 682 49 606 49 512C49 412 107 344 207 318L238 310L238 68C174 79 126 120 120 198L30 198C40 66 129 0 238 -12L238 -95L304 -95L304 -14C419 -5 518 66 518 180C518 294 444 349 345 374L304 384Z"/>
<glyph unicode="&#x25;" horiz-adv-x="776" d="M137 0L213 0L639 680L563 680ZM307 505C307 609 273 688 169 688C65 688 31 609 31 505C31 401 65 322 169 322C273 322 307 401 307 505ZM169 378C129 378 106 399 106 439L106 571C106 611 129 632 169 632C209 632 232 611 232 571L232 439C232 399 209 378 169 378ZM745 175C745 279 711 358 607 358C503 358 469 279 469 175C469 71 503 -8 607 -8C711 -8 745 71 745 175ZM607 48C567 48 544 69 544 109L544 241C544 281 567 302 607 302C647 302 670 281 670 241L670 109C670 69 647 48 607 48Z"/>
<glyph unicode="&#x26;" horiz-adv-x="574" d="M394 225L290 363C367 420 418 480 418 548C418 637 356 695 253 695C155 695 81 630 81 544C81 489 115 445 172 376L124 339C68 296 33 246 33 168C33 53 109 -12 234 -12C318 -12 372 11 423 55L466 0L573 0L483 115L483 363L396 363L396 225ZM128 203C128 233 144 250 165 266L223 311L373 117C335 76 291 63 233 63C182 63 128 89 128 144ZM240 429C202 474 171 511 171 550C171 590 204 620 251 620C300 620 328 594 328 554C328 503 292 469 240 429Z"/>
<glyph unicode="&#x27;" horiz-adv-x="202" d="M139 695L63 695L63 433L139 433Z"/>
<glyph unicode="&#x28;" horiz-adv-x="280" d="M135 378C135 488 184 594 274 716L194 716C104 599 45 471 45 273C45 75 104 -53 194 -170L274 -170C189 -57 135 58 135 168Z"/>
<glyph unicode="&#x29;" horiz-adv-x="280" d="M145 168C145 58 91 -57 6 -170L86 -170C176 -53 235 75 235 273C235 471 176 599 86 716L6 716C96 594 145 488 145 378Z"/>
<glyph unicode="&#x2a;" horiz-adv-x="412" d="M181 466L181 340L231 340L231 466L341 403L366 447L256 510L366 573L341 617L231 553L231 680L181 680L181 553L71 617L46 573L155 510L46 447L71 403Z"/>
<glyph unicode="&#x2b;" horiz-adv-x="575" d="M249 219L249 0L325 0L325 219L542 219L542 291L325 291L325 510L249 510L249 291L32 291L32 219Z"/>
<glyph unicode="&#x2c;" horiz-adv-x="238" d="M174 110L64 110L64 0L123 0L64 -110L112 -110L174 0Z"/>
<glyph unicode="&#x2d;" horiz-adv-x="406" d="M63 230L343 230L343 312L63 312Z"/>
<glyph unicode="&#x2e;" horiz-adv-x="234" d="M172 110L62 110L62 0L172 0Z"/>
<glyph unicode="&#x2f;" horiz-adv-x="446" d="M425 680L333 680L21 0L113 0Z"/>
<glyph unicode="&#x30;" horiz-adv-x="575" d="M529 340C529 544 479 695 288 695C97 695 47 544 47 340C47 136 97 -15 288 -15C479 -15 529 136 529 340ZM288 65C206 65 147 117 147 207L147 473C147 563 206 615 288 615C370 615 429 563 429 473L429 207C429 117 370 65 288 65Z"/>
<glyph unicode="&#x31;" horiz-adv-x="575" d="M97 0L522 0L522 79L362 79L362 680L272 680L272 601L97 601L97 522L272 522L272 79L97 79Z"/>
<glyph unicode="&#x32;" horiz-adv-x="575" d="M177 81L400 292C455 344 506 406 506 495C506 616 422 695 292 695C162 695 62 615 62 480L154 480C154 570 210 615 290 615C363 615 414 570 414 495C414 435 385 399 331 346L59 79L59 0L516 0L516 79L177 79Z"/>
<glyph unicode="&#x33;" horiz-adv-x="575" d="M347 309C395 309 422 277 422 235L422 167C422 113 364 65 281 65C201 65 143 103 136 198L44 198C44 54 149 -15 281 -15C420 -15 520 60 520 190C520 275 483 324 421 352C470 378 507 429 507 511C507 619 420 695 285 695C145 695 61 601 61 501L153 501C158 569 204 615 285 615C351 615 409 583 409 523L409 461C409 419 382 388 334 388L192 388L192 309Z"/>
<glyph unicode="&#x34;" horiz-adv-x="575" d="M431 0L431 164L529 164L529 243L431 243L431 680L340 680L41 243L41 164L341 164L341 0ZM341 551L341 243L131 243Z"/>
<glyph unicode="&#x35;" horiz-adv-x="575" d="M159 298C185 349 227 379 289 379C371 379 427 341 427 270L427 181C427 108 368 65 287 65C207 65 157 105 148 188L56 188C67 59 150 -15 290 -15C435 -15 527 80 527 225C527 365 441 457 305 457C247 457 191 432 160 390L176 601L486 601L486 680L93 680L67 298Z"/>
<glyph unicode="&#x36;" horiz-adv-x="575" d="M293 -15C456 -15 536 110 536 225C536 358 451 447 308 447C245 447 186 424 149 377L149 444C149 546 205 615 295 615C375 615 417 577 425 511L517 511C505 627 437 695 295 695C119 695 49 548 49 323C49 102 113 -15 293 -15ZM293 65C208 65 149 123 149 194L149 250C149 321 208 369 294 369C380 369 436 321 436 250L436 194C436 123 379 65 293 65Z"/>
<glyph unicode="&#x37;" horiz-adv-x="575" d="M515 602L515 680L62 680L62 601L418 601L132 0L234 0Z"/>
<glyph unicode="&#x38;" horiz-adv-x="575" d="M287 -15C422 -15 532 47 532 182C532 266 485 326 408 354C478 384 512 437 512 511C512 626 412 695 287 695C162 695 62 626 62 511C62 437 96 384 166 354C89 326 42 266 42 182C42 47 152 -15 287 -15ZM414 481C414 421 357 390 287 390C217 390 160 421 160 481L160 524C160 584 217 615 287 615C357 615 414 584 414 524ZM142 214C142 274 200 312 287 312C374 312 432 274 432 214L432 162C432 102 374 65 287 65C200 65 142 102 142 162Z"/>
<glyph unicode="&#x39;" horiz-adv-x="575" d="M282 695C119 695 39 570 39 455C39 322 124 233 267 233C330 233 389 256 426 303L426 236C426 134 370 65 280 65C200 65 158 103 150 169L58 169C70 53 138 -15 280 -15C456 -15 526 130 526 357C526 578 462 695 282 695ZM282 615C367 615 426 557 426 486L426 430C426 359 367 311 281 311C195 311 139 359 139 430L139 486C139 557 196 615 282 615Z"/>
<glyph unicode="&#x3a;" horiz-adv-x="236" d="M173 110L63 110L63 0L173 0ZM173 510L63 510L63 400L173 400Z"/>
<glyph unicode="&#x3b;" horiz-adv-x="236" d="M173 510L63 510L63 400L173 400ZM173 110L63 110L63 0L122 0L63 -110L111 -110L173 0Z"/>
<glyph unicode="&#x3c;" horiz-adv-x="575" d="M532 510L22 291L22 219L532 0L532 78L120 255L532 432Z"/>
<glyph unicode="&#x3d;" horiz-adv-x="575" d="M542 322L542 394L32 394L32 322ZM542 116L542 188L32 188L32 116Z"/>
<glyph unicode="&#x3e;" horiz-adv-x="575" d="M43 432L455 255L43 78L43 0L553 219L553 291L43 510Z"/>
<glyph unicode="&#x3f;" horiz-adv-x="483" d="M359 511C359 455 335 419 279 374C214 322 182 285 182 208L182 178L272 178L272 208C272 264 307 287 365 339C411 380 449 425 449 513C449 622 363 695 245 695C131 695 36 621 27 501L117 501C123 576 173 618 244 618C310 618 359 579 359 511ZM282 110L172 110L172 0L282 0Z"/>
<glyph unicode="&#x40;" horiz-adv-x="786" d="M348 356L438 356L438 154L348 154ZM708 77L708 587L78 587L78 -77L528 -77L528 0L168 0L168 510L618 510L618 154L528 154L528 433L258 433L258 77Z"/>
<glyph unicode="&#x41;" horiz-adv-x="612" d="M495 0L595 0L359 680L253 680L18 0L116 0L172 168L439 168ZM304 574L308 574L414 246L197 246Z"/>
<glyph unicode="&#x42;" horiz-adv-x="623" d="M384 595C432 595 458 573 458 527L458 466C458 424 434 394 384 394L175 394L175 595ZM455 354C519 378 558 438 558 515C558 572 537 618 499 645C460 673 412 680 345 680L80 680L80 0L350 0C425 0 483 16 521 51C556 83 573 132 573 198C573 280 526 334 455 354ZM473 159C473 109 439 85 389 85L175 85L175 309L395 309C443 309 473 286 473 241Z"/>
<glyph unicode="&#x43;" horiz-adv-x="613" d="M327 -15C466 -15 571 70 580 198L485 198C476 106 416 68 326 68C231 68 153 140 153 235L153 445C153 543 225 612 320 612C409 612 465 567 474 487L569 487C560 616 460 695 329 695C139 695 48 556 48 334C48 122 147 -15 327 -15Z"/>
<glyph unicode="&#x44;" horiz-adv-x="641" d="M80 680L80 0L300 0C505 0 592 112 592 340C592 568 505 680 300 680ZM300 595C427 595 487 540 487 440L487 240C487 140 427 85 300 85L175 85L175 595Z"/>
<glyph unicode="&#x45;" horiz-adv-x="581" d="M80 0L531 0L531 85L175 85L175 304L485 304L485 389L175 389L175 595L531 595L531 680L80 680Z"/>
<glyph unicode="&#x46;" horiz-adv-x="534" d="M80 0L175 0L175 304L473 304L473 389L175 389L175 595L497 595L497 680L80 680Z"/>
<glyph unicode="&#x47;" horiz-adv-x="647" d="M48 334C48 120 149 -15 322 -15C408 -15 460 20 495 72L499 0L590 0L590 363L341 363L341 278L495 278L495 232C495 126 435 68 330 68C228 68 153 140 153 235L153 445C153 543 225 612 325 612C419 612 475 567 484 487L579 487C570 616 470 695 334 695C139 695 48 560 48 334Z"/>
<glyph unicode="&#x48;" horiz-adv-x="671" d="M496 0L591 0L591 680L496 680L496 392L175 392L175 680L80 680L80 0L175 0L175 307L496 307Z"/>
<glyph unicode="&#x49;" horiz-adv-x="255" d="M80 0L175 0L175 680L80 680Z"/>
<glyph unicode="&#x4a;" horiz-adv-x="409" d="M329 680L234 680L234 85L15 85L15 0L329 0Z"/>
<glyph unicode="&#x4b;" horiz-adv-x="596" d="M175 680L80 680L80 0L175 0ZM484 0L600 0L288 363L575 680L459 680L177 363Z"/>
<glyph unicode="&#x4c;" horiz-adv-x="499" d="M80 0L483 0L483 85L175 85L175 680L80 680Z"/>
<glyph unicode="&#x4d;" horiz-adv-x="809" d="M404 155L230 680L80 680L80 0L169 0L169 579L173 579L367 0L443 0L636 579L640 579L640 0L729 0L729 680L581 680L408 155Z"/>
<glyph unicode="&#x4e;" horiz-adv-x="671" d="M495 115L214 680L80 680L80 0L172 0L172 568L176 568L457 0L591 0L591 680L499 680L499 115Z"/>
<glyph unicode="&#x4f;" horiz-adv-x="680" d="M632 340C632 553 545 695 340 695C135 695 48 553 48 340C48 127 135 -15 340 -15C545 -15 632 127 632 340ZM340 68C237 68 153 132 153 235L153 445C153 548 237 612 340 612C443 612 527 548 527 445L527 235C527 132 443 68 340 68Z"/>
<glyph unicode="&#x50;" horiz-adv-x="584" d="M338 259C404 259 456 277 494 314C533 352 550 411 550 473C550 537 537 593 502 629C466 666 418 680 337 680L80 680L80 0L175 0L175 259ZM175 344L175 595L374 595C422 595 450 566 450 521L450 422C450 377 419 344 374 344Z"/>
<glyph unicode="&#x51;" horiz-adv-x="693" d="M616 -62L678 0L575 100C615 162 632 245 632 340C632 556 545 695 340 695C135 695 48 556 48 340C48 124 135 -15 340 -15C413 -15 471 1 516 35ZM340 68C237 68 153 132 153 235L153 445C153 548 237 612 340 612C443 612 527 548 527 445L527 235C527 132 443 68 340 68Z"/>
<glyph unicode="&#x52;" horiz-adv-x="597" d="M287 287L446 0L555 0L387 290C440 296 474 315 500 341C535 376 549 425 549 485C549 548 534 598 498 631C462 664 406 680 336 680L80 680L80 0L175 0L175 287ZM175 368L175 595L371 595C419 595 449 567 449 521L449 446C449 404 421 368 371 368Z"/>
<glyph unicode="&#x53;" horiz-adv-x="595" d="M292 612C366 612 434 585 442 495L537 495C525 634 422 695 292 695C152 695 59 617 59 515C59 415 112 355 223 324L356 287C427 267 459 236 459 178C459 106 389 68 299 68C209 68 141 106 131 198L36 198C48 50 165 -15 301 -15C437 -15 554 60 554 180C554 292 488 343 370 375L261 405C185 426 152 451 152 515C152 575 206 612 292 612Z"/>
<glyph unicode="&#x54;" horiz-adv-x="531" d="M15 595L218 595L218 0L313 0L313 595L516 595L516 680L15 680Z"/>
<glyph unicode="&#x55;" horiz-adv-x="660" d="M492 235C492 131 434 68 330 68C227 68 169 132 169 235L169 680L74 680L74 242C74 83 175 -15 330 -15C485 -15 586 83 586 242L586 680L492 680Z"/>
<glyph unicode="&#x56;" horiz-adv-x="590" d="M293 112L124 680L22 680L242 0L348 0L568 680L466 680L297 112Z"/>
<glyph unicode="&#x57;" horiz-adv-x="896" d="M501 680L395 680L262 107L258 107L125 680L24 680L200 0L319 0L446 547L450 547L577 0L696 0L872 680L771 680L638 107L634 107Z"/>
<glyph unicode="&#x58;" horiz-adv-x="555" d="M10 0L115 0L277 266L437 0L543 0L328 349L535 680L431 680L277 429L126 680L22 680L227 349Z"/>
<glyph unicode="&#x59;" horiz-adv-x="591" d="M248 271L248 0L343 0L343 270L570 680L469 680L296 364L126 680L22 680Z"/>
<glyph unicode="&#x5a;" horiz-adv-x="559" d="M521 680L49 680L49 595L413 595L33 85L33 0L520 0L520 85L142 85L521 595Z"/>
<glyph unicode="&#x5b;" horiz-adv-x="313" d="M78 716L78 -170L288 -170L288 -96L163 -96L163 642L288 642L288 716Z"/>
<glyph unicode="&#x5c;" horiz-adv-x="446" d="M333 0L425 0L113 680L21 680Z"/>
<glyph unicode="&#x5d;" horiz-adv-x="313" d="M25 716L25 642L150 642L150 -96L25 -96L25 -170L235 -170L235 716Z"/>
<glyph unicode="&#x5e;" horiz-adv-x="575" d="M42 292L127 292L286 594L448 292L532 292L325 680L249 680Z"/>
<glyph unicode="&#x5f;" horiz-adv-x="462" d="M-4 -115L466 -115L466 -55L-4 -55Z"/>
<glyph unicode="&#x60;" horiz-adv-x="275" d="M100 695L-5 695L101 573L179 573Z"/>
<glyph unicode="&#x61;" horiz-adv-x="529" d="M446 77L446 348C446 468 363 522 253 522C144 522 57 454 57 358L147 358C147 423 189 450 252 450C315 450 358 428 358 349L358 308L192 293C91 284 40 220 40 140C40 100 56 61 82 34C111 4 154 -12 204 -12C280 -12 336 22 364 94L368 94L370 0L522 0L522 77ZM227 60C170 60 135 81 135 128L135 173C135 202 140 219 177 222L358 239L358 216C358 124 308 60 227 60Z"/>
<glyph unicode="&#x62;" horiz-adv-x="570" d="M161 298C161 386 211 450 301 450C376 450 431 403 431 334L431 176C431 107 376 60 301 60C211 60 161 124 161 212ZM161 0L161 83C193 22 247 -12 324 -12C461 -12 526 107 526 255C526 403 461 522 324 522C247 522 193 488 161 427L161 680L71 680L71 0Z"/>
<glyph unicode="&#x63;" horiz-adv-x="503" d="M43 251C43 99 112 -12 260 -12C364 -12 455 45 469 171L379 171C373 95 324 60 258 60C192 60 138 107 138 180L138 330C138 409 197 450 257 450C317 450 368 426 375 343L465 343C455 466 370 522 262 522C123 522 43 415 43 251Z"/>
<glyph unicode="&#x64;" horiz-adv-x="569" d="M408 212C408 124 358 60 268 60C194 60 138 107 138 176L138 334C138 403 194 450 268 450C358 450 408 386 408 298ZM498 0L498 680L408 680L408 427C376 488 321 522 245 522C108 522 43 403 43 255C43 107 109 -12 247 -12C323 -12 376 22 408 83L408 0Z"/>
<glyph unicode="&#x65;" horiz-adv-x="526" d="M138 330C138 405 196 450 263 450C330 450 388 405 388 330L388 302L138 302ZM43 255C43 99 116 -12 263 -12C372 -12 468 53 477 162L387 162C381 92 328 60 264 60C200 60 138 102 138 176L138 230L481 230L481 278C481 414 409 522 263 522C123 522 43 411 43 255Z"/>
<glyph unicode="&#x66;" horiz-adv-x="319" d="M195 603L312 603L312 680L106 680L106 510L20 510L20 433L106 433L106 0L195 0L195 433L302 433L302 510L195 510Z"/>
<glyph unicode="&#x67;" horiz-adv-x="569" d="M408 212C408 124 358 60 268 60C194 60 138 107 138 176L138 334C138 403 194 450 268 450C358 450 408 386 408 298ZM498 510L408 510L408 427C376 488 321 522 245 522C108 522 43 403 43 255C43 107 109 -12 247 -12C323 -12 376 22 408 83L408 14C408 -84 344 -123 274 -123C204 -123 158 -93 151 -35L61 -35C76 -157 172 -195 278 -195C387 -195 498 -131 498 10Z"/>
<glyph unicode="&#x68;" horiz-adv-x="546" d="M161 680L71 680L71 0L161 0L161 298C161 387 214 450 288 450C365 450 389 404 389 330L389 0L479 0L479 340C479 470 412 522 313 522C236 522 189 485 161 426Z"/>
<glyph unicode="&#x69;" horiz-adv-x="232" d="M161 0L161 510L71 510L71 0ZM163 680L69 680L69 586L163 586Z"/>
<glyph unicode="&#x6a;" horiz-adv-x="240" d="M79 -93L-39 -93L-39 -170L169 -170L169 510L79 510ZM171 680L77 680L77 586L171 586Z"/>
<glyph unicode="&#x6b;" horiz-adv-x="485" d="M382 0L485 0L266 285L471 510L362 510L162 285ZM161 680L71 680L71 0L161 0Z"/>
<glyph unicode="&#x6c;" horiz-adv-x="232" d="M161 0L161 680L71 680L71 0Z"/>
<glyph unicode="&#x6d;" horiz-adv-x="824" d="M449 417C427 489 371 522 303 522C231 522 184 482 161 426L161 510L71 510L71 0L161 0L161 298C161 387 213 450 276 450C342 450 369 404 369 330L369 0L459 0L459 298C459 387 511 450 574 450C640 450 667 404 667 330L667 0L757 0L757 340C757 471 688 522 599 522C523 522 470 477 449 417Z"/>
<glyph unicode="&#x6e;" horiz-adv-x="546" d="M161 510L71 510L71 0L161 0L161 298C161 387 214 450 288 450C365 450 389 404 389 330L389 0L479 0L479 340C479 470 412 522 313 522C236 522 189 485 161 426Z"/>
<glyph unicode="&#x6f;" horiz-adv-x="544" d="M406 176C406 106 344 60 272 60C200 60 138 106 138 176L138 334C138 404 200 450 272 450C344 450 406 404 406 334ZM501 255C501 411 427 522 272 522C117 522 43 411 43 255C43 99 117 -12 272 -12C427 -12 501 99 501 255Z"/>
<glyph unicode="&#x70;" horiz-adv-x="570" d="M161 298C161 386 211 450 301 450C376 450 431 403 431 334L431 176C431 107 376 60 301 60C211 60 161 124 161 212ZM161 -170L161 83C193 22 247 -12 324 -12C461 -12 526 107 526 255C526 403 461 522 324 522C247 522 193 488 161 427L161 510L71 510L71 -170Z"/>
<glyph unicode="&#x71;" horiz-adv-x="569" d="M408 212C408 124 358 60 268 60C194 60 138 107 138 176L138 334C138 403 194 450 268 450C358 450 408 386 408 298ZM498 -170L498 510L408 510L408 427C376 488 321 522 245 522C108 522 43 403 43 255C43 107 109 -12 247 -12C323 -12 376 22 408 83L408 -170Z"/>
<glyph unicode="&#x72;" horiz-adv-x="332" d="M71 0L161 0L161 432L316 432L316 510L71 510Z"/>
<glyph unicode="&#x73;" horiz-adv-x="483" d="M210 307C160 317 138 338 138 378C138 420 182 450 238 450C292 450 338 425 340 358L430 358C428 473 333 522 237 522C126 522 50 458 50 377C50 297 98 250 181 233L265 216C333 203 356 179 356 138C356 88 305 60 245 60C183 60 129 93 127 161L37 161C39 47 129 -12 244 -12C364 -12 446 55 446 139C446 221 397 268 296 289Z"/>
<glyph unicode="&#x74;" horiz-adv-x="341" d="M195 433L312 433L312 510L195 510L195 680L106 680L106 510L20 510L20 433L106 433L106 0L312 0L312 77L195 77Z"/>
<glyph unicode="&#x75;" horiz-adv-x="542" d="M381 0L471 0L471 510L381 510L381 212C381 123 333 60 257 60C181 60 157 107 157 180L157 510L67 510L67 170C67 39 138 -12 232 -12C309 -12 353 24 381 84Z"/>
<glyph unicode="&#x76;" horiz-adv-x="480" d="M239 107L111 510L14 510L197 0L283 0L466 510L373 510L243 107Z"/>
<glyph unicode="&#x77;" horiz-adv-x="715" d="M359 413L455 0L550 0L699 510L611 510L509 111L505 111L411 510L302 510L212 111L208 111L107 510L16 510L165 0L258 0L355 413Z"/>
<glyph unicode="&#x78;" horiz-adv-x="473" d="M9 0L109 0L236 202L364 0L465 0L288 270L448 510L350 510L236 332L124 510L24 510L184 264Z"/>
<glyph unicode="&#x79;" horiz-adv-x="490" d="M244 111L111 510L14 510L203 0L171 -93L54 -93L54 -170L228 -170L478 510L385 510L248 111Z"/>
<glyph unicode="&#x7a;" horiz-adv-x="454" d="M137 77L411 433L411 510L53 510L53 433L307 433L33 77L33 0L417 0L417 77Z"/>
<glyph unicode="&#x7b;" horiz-adv-x="345" d="M110 235L110 -170L320 -170L320 -96L195 -96L195 235ZM195 642L320 642L320 716L110 716L110 311L195 311ZM110 311L15 311L15 235L110 235Z"/>
<glyph unicode="&#x7c;" horiz-adv-x="241" d="M78 -170L163 -170L163 850L78 850Z"/>
<glyph unicode="&#x7d;" horiz-adv-x="345" d="M235 235L330 235L330 311L235 311L235 716L25 716L25 642L150 642L150 311L235 311ZM150 235L150 -96L25 -96L25 -170L235 -170L235 235Z"/>
<glyph unicode="&#x7e;" horiz-adv-x="575" d="M468 300C468 266 449 243 416 243C384 243 368 254 308 285C242 319 211 334 164 334C87 334 32 282 32 209L107 209C107 243 126 266 159 266C191 266 207 255 267 224C333 190 364 175 411 175C488 175 543 227 543 300Z"/>
<glyph unicode="&#xa0;" horiz-adv-x="230" />
<glyph unicode="&#xa1;" horiz-adv-x="236" d="M93 332L73 183L73 -170L163 -170L163 183L143 332ZM173 510L63 510L63 400L173 400Z"/>
<glyph unicode="&#xa2;" horiz-adv-x="575" d="M263 63C212 76 174 119 174 180L174 330C174 395 214 435 263 446ZM329 -10C418 1 492 58 505 171L415 171C410 109 377 74 329 63L329 446C372 437 405 408 411 343L501 343C492 454 422 510 329 520L329 602L263 602L263 519C145 503 79 401 79 251C79 111 137 5 263 -10L263 -92L329 -92Z"/>
<glyph unicode="&#xa3;" horiz-adv-x="575" d="M223 79L223 316L386 316L386 395L223 395L223 500C223 575 259 617 334 617C409 617 445 576 445 500L535 500C535 602 468 695 334 695C200 695 133 602 133 503L133 395L43 395L43 316L133 316L133 79L43 79L43 0L522 0L522 79Z"/>
<glyph unicode="&#xa4;" horiz-adv-x="575" d="M45 104L99 50L153 104C191 77 237 62 287 62C337 62 383 78 421 105L476 51L530 104L474 159C501 197 517 242 517 292C517 341 501 387 474 425L530 481L476 535L420 479C382 506 336 522 287 522C237 522 192 506 154 479L99 535L45 481L100 425C73 388 57 342 57 292C57 242 72 196 99 158ZM132 292C132 378 201 447 287 447C373 447 442 378 442 292C442 206 373 137 287 137C201 137 132 206 132 292Z"/>
<glyph unicode="&#xa5;" horiz-adv-x="575" d="M72 173L242 173L242 0L332 0L332 173L501 173L501 232L332 232L332 291L501 291L501 350L371 350L537 680L440 680L287 370L136 680L38 680L202 350L72 350L72 291L242 291L242 232L72 232Z"/>
<glyph unicode="&#xa6;" horiz-adv-x="241" d="M78 -170L163 -170L163 247L78 247ZM78 433L163 433L163 850L78 850Z"/>
<glyph unicode="&#xa7;" horiz-adv-x="551" d="M395 65L395 -91L79 -91L79 -169L485 -169L485 446L170 446L170 602L484 602L484 680L80 680L80 65ZM170 368L395 368L395 143L170 143Z"/>
<glyph unicode="&#xa8;" horiz-adv-x="307" d="M94 680L6 680L6 592L94 592ZM270 680L182 680L182 592L270 592Z"/>
<glyph unicode="&#xa9;" horiz-adv-x="796" d="M248 337C248 234 300 158 398 158C465 158 532 197 542 283L476 283C472 235 439 212 398 212C355 212 318 243 318 289L318 391C318 441 358 468 397 468C435 468 468 452 473 400L539 400C532 481 474 522 401 522C305 522 248 449 248 337ZM43 340C43 144 202 -15 398 -15C594 -15 753 144 753 340C753 536 594 695 398 695C202 695 43 536 43 340ZM108 340C108 502 236 630 398 630C560 630 688 502 688 340C688 178 560 50 398 50C236 50 108 178 108 340Z"/>
<glyph unicode="&#xaa;" horiz-adv-x="368" d="M153 375C130 375 120 382 120 396L120 419C120 433 126 439 140 440L209 446L209 439C209 398 187 375 153 375ZM137 487C80 481 51 450 51 404C51 357 85 324 135 324C169 324 193 340 209 369L212 369L213 330L320 330L320 382L275 382L275 509C275 568 236 600 172 600C109 600 62 570 60 512L127 512C127 538 145 549 170 549C194 549 209 538 209 511L209 494Z"/>
<glyph unicode="&#xab;" horiz-adv-x="453" d="M405 71L308 257L405 443L325 443L218 257L325 71ZM218 71L121 257L218 443L138 443L31 257L138 71Z"/>
<glyph unicode="&#xac;" horiz-adv-x="575" d="M461 120L535 120L535 394L25 394L25 322L461 322Z"/>
<glyph unicode="&#xad;" horiz-adv-x="406" d="M63 230L343 230L343 312L63 312Z"/>
<glyph unicode="&#xae;" horiz-adv-x="796" d="M43 340C43 144 202 -15 398 -15C594 -15 753 144 753 340C753 536 594 695 398 695C202 695 43 536 43 340ZM394 295L464 170L536 170L461 298C502 309 535 342 535 402C535 471 496 510 427 510L271 510L271 170L336 170L336 295ZM336 347L336 457L431 457C455 457 468 443 468 420L468 386C468 365 456 347 431 347ZM108 340C108 502 236 630 398 630C560 630 688 502 688 340C688 178 560 50 398 50C236 50 108 178 108 340Z"/>
<glyph unicode="&#xaf;" horiz-adv-x="275" d="M-7 611L282 611L282 670L-7 670Z"/>
<glyph unicode="&#xb0;" horiz-adv-x="360" d="M40 555C40 478 103 415 180 415C257 415 320 478 320 555C320 632 257 695 180 695C103 695 40 632 40 555ZM90 555C90 605 130 645 180 645C230 645 270 605 270 555C270 505 230 465 180 465C130 465 90 505 90 555Z"/>
<glyph unicode="&#xb1;" horiz-adv-x="575" d="M250 279L250 120L326 120L326 279L543 279L543 351L326 351L326 510L250 510L250 351L33 351L33 279ZM543 72L33 72L33 0L543 0Z"/>
<glyph unicode="&#xb2;" horiz-adv-x="319" d="M223 563C256 591 281 621 281 671C281 729 238 774 162 774C86 774 33 731 33 659L103 659C103 697 125 717 160 717C192 717 212 698 212 670C212 642 198 627 175 606L31 476L31 416L288 416L288 476L122 476L122 478Z"/>
<glyph unicode="&#xb3;" horiz-adv-x="325" d="M187 569C209 569 219 558 219 538L219 508C219 483 196 463 160 463C125 463 100 480 98 520L28 520C28 444 89 408 161 408C237 408 292 449 292 511C292 556 271 581 231 596C268 612 286 639 286 679C286 735 237 774 163 774C90 774 36 735 36 670L106 670C108 703 130 719 162 719C191 719 213 706 213 679L213 652C213 635 206 623 183 623L113 623L113 569Z"/>
<glyph unicode="&#xb4;" horiz-adv-x="275" d="M97 573L175 573L281 695L176 695Z"/>
<glyph unicode="&#xb5;" horiz-adv-x="554" d="M165 21C181 2 209 -12 245 -12C317 -12 361 24 389 84L389 0L479 0L479 510L389 510L389 212C389 123 341 60 265 60C193 60 165 102 165 169L165 510L75 510L75 -170L165 -170Z"/>
<glyph unicode="&#xb6;" horiz-adv-x="585" d="M38 680L38 340L208 340L208 -90L293 -90L293 608L420 608L420 -90L505 -90L505 680Z"/>
<glyph unicode="&#xb7;" horiz-adv-x="234" d="M172 311L62 311L62 201L172 201Z"/>
<glyph unicode="&#xb8;" horiz-adv-x="275" d="M68 -170L208 -170L208 -35L138 -35L138 -105L68 -105Z"/>
<glyph unicode="&#xb9;" horiz-adv-x="255" d="M203 766L133 766L133 706L22 706L22 650L133 650L133 416L203 416Z"/>
<glyph unicode="&#xba;" horiz-adv-x="342" d="M296 462C296 545 250 600 171 600C93 600 47 545 47 462C47 379 93 324 171 324C250 324 296 379 296 462ZM225 423C225 392 202 374 171 374C140 374 117 392 117 423L117 501C117 532 140 550 171 550C202 550 225 532 225 501Z"/>
<glyph unicode="&#xbb;" horiz-adv-x="453" d="M128 71L235 257L128 443L48 443L145 257L48 71ZM315 71L422 257L315 443L235 443L332 257L235 71Z"/>
<glyph unicode="&#xbc;" horiz-adv-x="726" d="M209 680L139 680L139 620L28 620L28 564L139 564L139 330L209 330ZM111 0L187 0L613 680L537 680ZM633 0L633 78L696 78L696 134L633 134L633 350L559 350L411 134L411 78L565 78L565 0ZM565 266L565 134L472 134L563 266Z"/>
<glyph unicode="&#xbd;" horiz-adv-x="752" d="M209 680L139 680L139 620L28 620L28 564L139 564L139 330L209 330ZM111 0L187 0L613 680L537 680ZM651 147C684 175 709 205 709 255C709 313 666 358 590 358C514 358 461 315 461 243L531 243C531 281 553 301 588 301C620 301 640 282 640 254C640 226 626 211 603 190L459 60L459 0L716 0L716 60L550 60L550 62Z"/>
<glyph unicode="&#xbe;" horiz-adv-x="758" d="M193 483C215 483 225 472 225 452L225 422C225 397 202 377 166 377C131 377 106 394 104 434L34 434C34 358 95 322 167 322C243 322 298 363 298 425C298 470 277 495 237 510C274 526 292 553 292 593C292 649 243 688 169 688C96 688 42 649 42 584L112 584C114 617 136 633 168 633C197 633 219 620 219 593L219 566C219 549 212 537 189 537L119 537L119 483ZM144 0L220 0L646 680L570 680ZM666 0L666 78L729 78L729 134L666 134L666 350L592 350L444 134L444 78L598 78L598 0ZM598 266L598 134L505 134L596 266Z"/>
<glyph unicode="&#xbf;" horiz-adv-x="478" d="M121 -1C121 55 145 91 201 136C266 188 298 225 298 302L298 332L208 332L208 302C208 246 173 223 115 171C69 130 31 85 31 -3C31 -112 117 -185 235 -185C349 -185 444 -111 453 9L363 9C357 -66 307 -108 236 -108C170 -108 121 -69 121 -1ZM198 400L308 400L308 510L198 510Z"/>
<glyph unicode="&#xc0;" horiz-adv-x="612" d="M495 0L595 0L359 680L253 680L18 0L116 0L172 168L439 168ZM304 574L308 574L414 246L197 246ZM310 869L205 869L311 747L389 747Z"/>
<glyph unicode="&#xc1;" horiz-adv-x="612" d="M495 0L595 0L359 680L253 680L18 0L116 0L172 168L439 168ZM304 574L308 574L414 246L197 246ZM218 747L296 747L402 869L297 869Z"/>
<glyph unicode="&#xc2;" horiz-adv-x="612" d="M495 0L595 0L359 680L253 680L18 0L116 0L172 168L439 168ZM304 574L308 574L414 246L197 246ZM307 820L364 747L442 747L359 869L256 869L173 747L250 747Z"/>
<glyph unicode="&#xc3;" horiz-adv-x="612" d="M495 0L595 0L359 680L253 680L18 0L116 0L172 168L439 168ZM304 574L308 574L414 246L197 246ZM410 850C410 826 399 812 377 812C342 812 297 860 242 860C186 860 153 825 153 765L203 765C203 789 214 803 236 803C271 803 316 755 371 755C427 755 460 790 460 850Z"/>
<glyph unicode="&#xc4;" horiz-adv-x="612" d="M495 0L595 0L359 680L253 680L18 0L116 0L172 168L439 168ZM304 574L308 574L414 246L197 246ZM258 854L170 854L170 766L258 766ZM434 854L346 854L346 766L434 766Z"/>
<glyph unicode="&#xc5;" horiz-adv-x="612" d="M495 0L595 0L359 680L253 680L18 0L116 0L172 168L439 168ZM304 574L308 574L414 246L197 246ZM395 836C395 880 362 922 306 922C250 922 217 880 217 836C217 791 250 750 306 750C362 750 395 791 395 836ZM350 836C350 812 332 791 306 791C280 791 261 812 261 836C261 860 280 880 306 880C332 880 350 860 350 836Z"/>
<glyph unicode="&#xc6;" horiz-adv-x="920" d="M870 0L870 85L524 85L524 304L824 304L824 389L524 389L524 595L870 595L870 680L321 680L-14 0L92 0L174 169L429 169L429 0ZM381 595L429 595L429 247L212 247Z"/>
<glyph unicode="&#xc7;" horiz-adv-x="613" d="M222 -170L362 -170L362 -35L292 -35L292 -105L222 -105ZM327 -15C466 -15 571 70 580 198L485 198C476 106 416 68 326 68C231 68 153 140 153 235L153 445C153 543 225 612 320 612C409 612 465 567 474 487L569 487C560 616 460 695 329 695C139 695 48 556 48 334C48 122 147 -15 327 -15Z"/>
<glyph unicode="&#xc8;" horiz-adv-x="581" d="M80 0L531 0L531 85L175 85L175 304L485 304L485 389L175 389L175 595L531 595L531 680L80 680ZM288 869L183 869L289 747L367 747Z"/>
<glyph unicode="&#xc9;" horiz-adv-x="581" d="M80 0L531 0L531 85L175 85L175 304L485 304L485 389L175 389L175 595L531 595L531 680L80 680ZM232 747L310 747L416 869L311 869Z"/>
<glyph unicode="&#xca;" horiz-adv-x="581" d="M80 0L531 0L531 85L175 85L175 304L485 304L485 389L175 389L175 595L531 595L531 680L80 680ZM309 820L366 747L444 747L361 869L258 869L175 747L252 747Z"/>
<glyph unicode="&#xcb;" horiz-adv-x="581" d="M80 0L531 0L531 85L175 85L175 304L485 304L485 389L175 389L175 595L531 595L531 680L80 680ZM266 854L178 854L178 766L266 766ZM442 854L354 854L354 766L442 766Z"/>
<glyph unicode="&#xcc;" horiz-adv-x="255" d="M110 869L5 869L111 747L189 747ZM80 0L175 0L175 680L80 680Z"/>
<glyph unicode="&#xcd;" horiz-adv-x="255" d="M80 0L175 0L175 680L80 680ZM66 747L144 747L250 869L145 869Z"/>
<glyph unicode="&#xce;" horiz-adv-x="255" d="M80 0L175 0L175 680L80 680ZM127 820L184 747L262 747L179 869L76 869L-7 747L70 747Z"/>
<glyph unicode="&#xcf;" horiz-adv-x="255" d="M80 0L175 0L175 680L80 680ZM83 854L-5 854L-5 766L83 766ZM259 854L171 854L171 766L259 766Z"/>
<glyph unicode="&#xd0;" horiz-adv-x="654" d="M93 680L93 376L21 376L21 304L93 304L93 0L313 0C518 0 605 112 605 340C605 568 518 680 313 680ZM344 376L188 376L188 595L313 595C440 595 500 540 500 440L500 240C500 140 440 85 313 85L188 85L188 304L344 304Z"/>
<glyph unicode="&#xd1;" horiz-adv-x="671" d="M495 115L214 680L80 680L80 0L172 0L172 568L176 568L457 0L591 0L591 680L499 680L499 115ZM439 850C439 826 428 812 406 812C371 812 326 860 271 860C215 860 182 825 182 765L232 765C232 789 243 803 265 803C300 803 345 755 400 755C456 755 489 790 489 850Z"/>
<glyph unicode="&#xd2;" horiz-adv-x="680" d="M632 340C632 553 545 695 340 695C135 695 48 553 48 340C48 127 135 -15 340 -15C545 -15 632 127 632 340ZM340 68C237 68 153 132 153 235L153 445C153 548 237 612 340 612C443 612 527 548 527 445L527 235C527 132 443 68 340 68ZM314 880L209 880L315 758L393 758Z"/>
<glyph unicode="&#xd3;" horiz-adv-x="680" d="M632 340C632 553 545 695 340 695C135 695 48 553 48 340C48 127 135 -15 340 -15C545 -15 632 127 632 340ZM340 68C237 68 153 132 153 235L153 445C153 548 237 612 340 612C443 612 527 548 527 445L527 235C527 132 443 68 340 68ZM283 758L361 758L467 880L362 880Z"/>
<glyph unicode="&#xd4;" horiz-adv-x="680" d="M632 340C632 553 545 695 340 695C135 695 48 553 48 340C48 127 135 -15 340 -15C545 -15 632 127 632 340ZM340 68C237 68 153 132 153 235L153 445C153 548 237 612 340 612C443 612 527 548 527 445L527 235C527 132 443 68 340 68ZM340 831L397 758L475 758L392 880L289 880L206 758L283 758Z"/>
<glyph unicode="&#xd5;" horiz-adv-x="680" d="M632 340C632 553 545 695 340 695C135 695 48 553 48 340C48 127 135 -15 340 -15C545 -15 632 127 632 340ZM340 68C237 68 153 132 153 235L153 445C153 548 237 612 340 612C443 612 527 548 527 445L527 235C527 132 443 68 340 68ZM444 850C444 826 433 812 411 812C376 812 331 860 276 860C220 860 187 825 187 765L237 765C237 789 248 803 270 803C305 803 350 755 405 755C461 755 494 790 494 850Z"/>
<glyph unicode="&#xd6;" horiz-adv-x="680" d="M632 340C632 553 545 695 340 695C135 695 48 553 48 340C48 127 135 -15 340 -15C545 -15 632 127 632 340ZM340 68C237 68 153 132 153 235L153 445C153 548 237 612 340 612C443 612 527 548 527 445L527 235C527 132 443 68 340 68ZM295 865L207 865L207 777L295 777ZM471 865L383 865L383 777L471 777Z"/>
<glyph unicode="&#xd7;" horiz-adv-x="575" d="M288 201L489 0L543 54L342 254L543 455L488 510L287 309L87 510L32 455L233 254L32 54L87 -1Z"/>
<glyph unicode="&#xd8;" horiz-adv-x="680" d="M632 340C632 470 599 574 527 635L570 721L514 748L474 668C436 685 392 695 340 695C135 695 48 553 48 340C48 205 83 98 160 38L121 -41L177 -68L214 7C250 -7 292 -15 340 -15C545 -15 632 127 632 340ZM153 235L153 445C153 548 237 612 340 612C375 612 407 604 435 591L201 119C171 148 153 187 153 235ZM340 68C308 68 279 74 253 85L486 553C512 525 527 489 527 445L527 235C527 132 443 68 340 68Z"/>
<glyph unicode="&#xd9;" horiz-adv-x="660" d="M492 235C492 131 434 68 330 68C227 68 169 132 169 235L169 680L74 680L74 242C74 83 175 -15 330 -15C485 -15 586 83 586 242L586 680L492 680ZM318 869L213 869L319 747L397 747Z"/>
<glyph unicode="&#xda;" horiz-adv-x="660" d="M492 235C492 131 434 68 330 68C227 68 169 132 169 235L169 680L74 680L74 242C74 83 175 -15 330 -15C485 -15 586 83 586 242L586 680L492 680ZM266 747L344 747L450 869L345 869Z"/>
<glyph unicode="&#xdb;" horiz-adv-x="660" d="M492 235C492 131 434 68 330 68C227 68 169 132 169 235L169 680L74 680L74 242C74 83 175 -15 330 -15C485 -15 586 83 586 242L586 680L492 680ZM330 820L387 747L465 747L382 869L279 869L196 747L273 747Z"/>
<glyph unicode="&#xdc;" horiz-adv-x="660" d="M492 235C492 131 434 68 330 68C227 68 169 132 169 235L169 680L74 680L74 242C74 83 175 -15 330 -15C485 -15 586 83 586 242L586 680L492 680ZM286 854L198 854L198 766L286 766ZM462 854L374 854L374 766L462 766Z"/>
<glyph unicode="&#xdd;" horiz-adv-x="591" d="M248 271L248 0L343 0L343 270L570 680L469 680L296 364L126 680L22 680ZM253 727L331 727L437 849L332 849Z"/>
<glyph unicode="&#xde;" horiz-adv-x="590" d="M338 132C404 132 456 150 494 187C533 225 550 284 550 346C550 410 537 466 502 502C466 539 418 553 337 553L175 553L175 680L80 680L80 0L175 0L175 132ZM175 217L175 468L374 468C422 468 450 439 450 394L450 295C450 250 419 217 374 217Z"/>
<glyph unicode="&#xdf;" horiz-adv-x="528" d="M241 -15L251 -15C391 -15 483 64 483 190C483 289 441 338 374 358C440 388 473 431 473 521C473 615 403 695 277 695C151 695 71 604 71 510L71 0L161 0L161 510C161 584 214 618 277 618C330 618 379 596 379 543L379 467C379 426 359 397 310 397L241 397L241 320L320 320C369 320 389 290 389 249L389 162C389 101 331 63 248 63L241 63Z"/>
<glyph unicode="&#xe0;" horiz-adv-x="529" d="M446 77L446 348C446 468 363 522 253 522C144 522 57 454 57 358L147 358C147 423 189 450 252 450C315 450 358 428 358 349L358 308L192 293C91 284 40 220 40 140C40 100 56 61 82 34C111 4 154 -12 204 -12C280 -12 336 22 364 94L368 94L370 0L522 0L522 77ZM227 60C170 60 135 81 135 128L135 173C135 202 140 219 177 222L358 239L358 216C358 124 308 60 227 60ZM208 695L103 695L209 573L287 573Z"/>
<glyph unicode="&#xe1;" horiz-adv-x="529" d="M446 77L446 348C446 468 363 522 253 522C144 522 57 454 57 358L147 358C147 423 189 450 252 450C315 450 358 428 358 349L358 308L192 293C91 284 40 220 40 140C40 100 56 61 82 34C111 4 154 -12 204 -12C280 -12 336 22 364 94L368 94L370 0L522 0L522 77ZM227 60C170 60 135 81 135 128L135 173C135 202 140 219 177 222L358 239L358 216C358 124 308 60 227 60ZM206 573L284 573L390 695L285 695Z"/>
<glyph unicode="&#xe2;" horiz-adv-x="529" d="M446 77L446 348C446 468 363 522 253 522C144 522 57 454 57 358L147 358C147 423 189 450 252 450C315 450 358 428 358 349L358 308L192 293C91 284 40 220 40 140C40 100 56 61 82 34C111 4 154 -12 204 -12C280 -12 336 22 364 94L368 94L370 0L522 0L522 77ZM227 60C170 60 135 81 135 128L135 173C135 202 140 219 177 222L358 239L358 216C358 124 308 60 227 60ZM250 646L307 573L385 573L302 695L199 695L116 573L193 573Z"/>
<glyph unicode="&#xe3;" horiz-adv-x="529" d="M446 77L446 348C446 468 363 522 253 522C144 522 57 454 57 358L147 358C147 423 189 450 252 450C315 450 358 428 358 349L358 308L192 293C91 284 40 220 40 140C40 100 56 61 82 34C111 4 154 -12 204 -12C280 -12 336 22 364 94L368 94L370 0L522 0L522 77ZM227 60C170 60 135 81 135 128L135 173C135 202 140 219 177 222L358 239L358 216C358 124 308 60 227 60ZM363 680C363 656 352 642 330 642C295 642 250 690 195 690C139 690 106 655 106 595L156 595C156 619 167 633 189 633C224 633 269 585 324 585C380 585 413 620 413 680Z"/>
<glyph unicode="&#xe4;" horiz-adv-x="529" d="M446 77L446 348C446 468 363 522 253 522C144 522 57 454 57 358L147 358C147 423 189 450 252 450C315 450 358 428 358 349L358 308L192 293C91 284 40 220 40 140C40 100 56 61 82 34C111 4 154 -12 204 -12C280 -12 336 22 364 94L368 94L370 0L522 0L522 77ZM227 60C170 60 135 81 135 128L135 173C135 202 140 219 177 222L358 239L358 216C358 124 308 60 227 60ZM205 680L117 680L117 592L205 592ZM381 680L293 680L293 592L381 592Z"/>
<glyph unicode="&#xe5;" horiz-adv-x="529" d="M446 77L446 348C446 468 363 522 253 522C144 522 57 454 57 358L147 358C147 423 189 450 252 450C315 450 358 428 358 349L358 308L192 293C91 284 40 220 40 140C40 100 56 61 82 34C111 4 154 -12 204 -12C280 -12 336 22 364 94L368 94L370 0L522 0L522 77ZM227 60C170 60 135 81 135 128L135 173C135 202 140 219 177 222L358 239L358 216C358 124 308 60 227 60ZM338 651C338 695 305 737 249 737C193 737 160 695 160 651C160 606 193 565 249 565C305 565 338 606 338 651ZM293 651C293 627 275 606 249 606C223 606 204 627 204 651C204 675 223 695 249 695C275 695 293 675 293 651Z"/>
<glyph unicode="&#xe6;" horiz-adv-x="827" d="M228 60C171 60 136 81 136 128L136 183C136 212 151 230 178 230L359 230L359 216C359 124 309 60 228 60ZM449 330C449 405 507 450 569 450C631 450 689 405 689 330L689 302L449 302ZM398 74C438 19 491 -12 569 -12C673 -12 769 53 778 162L688 162C682 92 629 60 570 60C511 60 449 102 449 176L449 230L782 230L782 278C782 414 704 522 569 522C506 522 454 497 417 454C383 500 325 522 254 522C145 522 58 454 58 358L148 358C148 423 190 450 253 450C316 450 359 428 359 349L359 302L188 302C100 302 41 230 41 150C41 100 57 61 83 34C112 4 150 -12 220 -12C296 -12 356 19 396 74Z"/>
<glyph unicode="&#xe7;" horiz-adv-x="503" d="M43 251C43 99 112 -12 260 -12C364 -12 455 45 469 171L379 171C373 95 324 60 258 60C192 60 138 107 138 180L138 330C138 409 197 450 257 450C317 450 368 426 375 343L465 343C455 466 370 522 262 522C123 522 43 415 43 251ZM156 -170L296 -170L296 -35L226 -35L226 -105L156 -105Z"/>
<glyph unicode="&#xe8;" horiz-adv-x="526" d="M138 330C138 405 196 450 263 450C330 450 388 405 388 330L388 302L138 302ZM43 255C43 99 116 -12 263 -12C372 -12 468 53 477 162L387 162C381 92 328 60 264 60C200 60 138 102 138 176L138 230L481 230L481 278C481 414 409 522 263 522C123 522 43 411 43 255ZM231 695L126 695L232 573L310 573Z"/>
<glyph unicode="&#xe9;" horiz-adv-x="526" d="M138 330C138 405 196 450 263 450C330 450 388 405 388 330L388 302L138 302ZM43 255C43 99 116 -12 263 -12C372 -12 468 53 477 162L387 162C381 92 328 60 264 60C200 60 138 102 138 176L138 230L481 230L481 278C481 414 409 522 263 522C123 522 43 411 43 255ZM219 573L297 573L403 695L298 695Z"/>
<glyph unicode="&#xea;" horiz-adv-x="526" d="M138 330C138 405 196 450 263 450C330 450 388 405 388 330L388 302L138 302ZM43 255C43 99 116 -12 263 -12C372 -12 468 53 477 162L387 162C381 92 328 60 264 60C200 60 138 102 138 176L138 230L481 230L481 278C481 414 409 522 263 522C123 522 43 411 43 255ZM262 646L319 573L397 573L314 695L211 695L128 573L205 573Z"/>
<glyph unicode="&#xeb;" horiz-adv-x="526" d="M138 330C138 405 196 450 263 450C330 450 388 405 388 330L388 302L138 302ZM43 255C43 99 116 -12 263 -12C372 -12 468 53 477 162L387 162C381 92 328 60 264 60C200 60 138 102 138 176L138 230L481 230L481 278C481 414 409 522 263 522C123 522 43 411 43 255ZM219 680L131 680L131 592L219 592ZM395 680L307 680L307 592L395 592Z"/>
<glyph unicode="&#xec;" horiz-adv-x="232" d="M99 695L-6 695L100 573L178 573ZM161 0L161 510L71 510L71 0Z"/>
<glyph unicode="&#xed;" horiz-adv-x="232" d="M54 573L132 573L238 695L133 695ZM161 0L161 510L71 510L71 0Z"/>
<glyph unicode="&#xee;" horiz-adv-x="232" d="M116 646L173 573L251 573L168 695L65 695L-18 573L59 573ZM161 0L161 510L71 510L71 0Z"/>
<glyph unicode="&#xef;" horiz-adv-x="232" d="M72 680L-16 680L-16 592L72 592ZM248 680L160 680L160 592L248 592ZM161 0L161 510L71 510L71 0Z"/>
<glyph unicode="&#xf0;" horiz-adv-x="543" d="M406 176C406 106 344 60 272 60C200 60 138 106 138 176L138 294C138 364 200 410 272 410C342 410 406 364 406 294ZM320 468C298 478 272 482 242 482C122 482 43 378 43 235C43 89 127 -12 272 -12C417 -12 501 89 501 235C501 344 450 422 423 463L370 542L464 542L464 604L329 604L280 680L183 680L232 604L138 604L138 542L272 542Z"/>
<glyph unicode="&#xf1;" horiz-adv-x="546" d="M161 510L71 510L71 0L161 0L161 298C161 387 214 450 288 450C365 450 389 404 389 330L389 0L479 0L479 340C479 470 412 522 313 522C236 522 189 485 161 426ZM377 680C377 656 366 642 344 642C309 642 264 690 209 690C153 690 120 655 120 595L170 595C170 619 181 633 203 633C238 633 283 585 338 585C394 585 427 620 427 680Z"/>
<glyph unicode="&#xf2;" horiz-adv-x="544" d="M406 176C406 106 344 60 272 60C200 60 138 106 138 176L138 334C138 404 200 450 272 450C344 450 406 404 406 334ZM501 255C501 411 427 522 272 522C117 522 43 411 43 255C43 99 117 -12 272 -12C427 -12 501 99 501 255ZM229 695L124 695L230 573L308 573Z"/>
<glyph unicode="&#xf3;" horiz-adv-x="544" d="M406 176C406 106 344 60 272 60C200 60 138 106 138 176L138 334C138 404 200 450 272 450C344 450 406 404 406 334ZM501 255C501 411 427 522 272 522C117 522 43 411 43 255C43 99 117 -12 272 -12C427 -12 501 99 501 255ZM227 573L305 573L411 695L306 695Z"/>
<glyph unicode="&#xf4;" horiz-adv-x="544" d="M406 176C406 106 344 60 272 60C200 60 138 106 138 176L138 334C138 404 200 450 272 450C344 450 406 404 406 334ZM501 255C501 411 427 522 272 522C117 522 43 411 43 255C43 99 117 -12 272 -12C427 -12 501 99 501 255ZM273 646L330 573L408 573L325 695L222 695L139 573L216 573Z"/>
<glyph unicode="&#xf5;" horiz-adv-x="544" d="M406 176C406 106 344 60 272 60C200 60 138 106 138 176L138 334C138 404 200 450 272 450C344 450 406 404 406 334ZM501 255C501 411 427 522 272 522C117 522 43 411 43 255C43 99 117 -12 272 -12C427 -12 501 99 501 255ZM376 680C376 656 365 642 343 642C308 642 263 690 208 690C152 690 119 655 119 595L169 595C169 619 180 633 202 633C237 633 282 585 337 585C393 585 426 620 426 680Z"/>
<glyph unicode="&#xf6;" horiz-adv-x="544" d="M406 176C406 106 344 60 272 60C200 60 138 106 138 176L138 334C138 404 200 450 272 450C344 450 406 404 406 334ZM501 255C501 411 427 522 272 522C117 522 43 411 43 255C43 99 117 -12 272 -12C427 -12 501 99 501 255ZM229 680L141 680L141 592L229 592ZM405 680L317 680L317 592L405 592Z"/>
<glyph unicode="&#xf7;" horiz-adv-x="575" d="M542 291L32 291L32 219L542 219ZM338 103L236 103L236 0L338 0ZM338 510L236 510L236 407L338 407Z"/>
<glyph unicode="&#xf8;" horiz-adv-x="544" d="M92 -44L148 -71L184 2C209 -7 239 -12 272 -12C427 -12 501 99 501 255C501 351 473 430 415 476L453 554L397 581L361 507C335 516 305 522 272 522C117 522 43 411 43 255C43 158 71 79 129 33ZM164 105C148 124 138 148 138 176L138 334C138 404 200 450 272 450C292 450 311 446 328 440ZM380 404C396 385 406 361 406 334L406 176C406 106 344 60 272 60C252 60 234 63 217 69Z"/>
<glyph unicode="&#xf9;" horiz-adv-x="542" d="M381 0L471 0L471 510L381 510L381 212C381 123 333 60 257 60C181 60 157 107 157 180L157 510L67 510L67 170C67 39 138 -12 232 -12C309 -12 353 24 381 84ZM260 695L155 695L261 573L339 573Z"/>
<glyph unicode="&#xfa;" horiz-adv-x="542" d="M381 0L471 0L471 510L381 510L381 212C381 123 333 60 257 60C181 60 157 107 157 180L157 510L67 510L67 170C67 39 138 -12 232 -12C309 -12 353 24 381 84ZM208 573L286 573L392 695L287 695Z"/>
<glyph unicode="&#xfb;" horiz-adv-x="542" d="M381 0L471 0L471 510L381 510L381 212C381 123 333 60 257 60C181 60 157 107 157 180L157 510L67 510L67 170C67 39 138 -12 232 -12C309 -12 353 24 381 84ZM272 646L329 573L407 573L324 695L221 695L138 573L215 573Z"/>
<glyph unicode="&#xfc;" horiz-adv-x="542" d="M381 0L471 0L471 510L381 510L381 212C381 123 333 60 257 60C181 60 157 107 157 180L157 510L67 510L67 170C67 39 138 -12 232 -12C309 -12 353 24 381 84ZM227 680L139 680L139 592L227 592ZM403 680L315 680L315 592L403 592Z"/>
<glyph unicode="&#xfd;" horiz-adv-x="490" d="M244 111L111 510L14 510L203 0L171 -93L54 -93L54 -170L228 -170L478 510L385 510L248 111ZM194 573L272 573L378 695L273 695Z"/>
<glyph unicode="&#xfe;" horiz-adv-x="570" d="M161 83C193 22 247 -12 324 -12C461 -12 526 107 526 255C526 403 461 522 324 522C247 522 193 488 161 427L161 680L71 680L71 -170L161 -170ZM161 298C161 386 211 450 301 450C376 450 431 403 431 334L431 176C431 107 376 60 301 60C211 60 161 124 161 212Z"/>
<glyph unicode="&#xff;" horiz-adv-x="490" d="M244 111L111 510L14 510L203 0L171 -93L54 -93L54 -170L228 -170L478 510L385 510L248 111ZM204 680L116 680L116 592L204 592ZM380 680L292 680L292 592L380 592Z"/>
<glyph unicode="&#x100;" horiz-adv-x="612" d="M495 0L595 0L359 680L253 680L18 0L116 0L172 168L439 168ZM304 574L308 574L414 246L197 246ZM162 781L451 781L451 840L162 840Z"/>
<glyph unicode="&#x101;" horiz-adv-x="529" d="M446 77L446 348C446 468 363 522 253 522C144 522 57 454 57 358L147 358C147 423 189 450 252 450C315 450 358 428 358 349L358 308L192 293C91 284 40 220 40 140C40 100 56 61 82 34C111 4 154 -12 204 -12C280 -12 336 22 364 94L368 94L370 0L522 0L522 77ZM227 60C170 60 135 81 135 128L135 173C135 202 140 219 177 222L358 239L358 216C358 124 308 60 227 60ZM105 611L394 611L394 670L105 670Z"/>
<glyph unicode="&#x102;" horiz-adv-x="612" d="M495 0L595 0L359 680L253 680L18 0L116 0L172 168L439 168ZM304 574L308 574L414 246L197 246ZM171 865C171 790 231 730 306 730C381 730 441 790 441 865L381 865C381 820 349 786 306 786C263 786 231 820 231 865Z"/>
<glyph unicode="&#x103;" horiz-adv-x="529" d="M446 77L446 348C446 468 363 522 253 522C144 522 57 454 57 358L147 358C147 423 189 450 252 450C315 450 358 428 358 349L358 308L192 293C91 284 40 220 40 140C40 100 56 61 82 34C111 4 154 -12 204 -12C280 -12 336 22 364 94L368 94L370 0L522 0L522 77ZM227 60C170 60 135 81 135 128L135 173C135 202 140 219 177 222L358 239L358 216C358 124 308 60 227 60ZM114 695C114 620 174 560 249 560C324 560 384 620 384 695L324 695C324 650 292 616 249 616C206 616 174 650 174 695Z"/>
<glyph unicode="&#x104;" horiz-adv-x="612" d="M495 0L595 0L359 680L253 680L18 0L116 0L172 168L439 168ZM304 574L308 574L414 246L197 246ZM564 -105L494 -105L559 -35L494 -35L424 -105L424 -170L564 -170Z"/>
<glyph unicode="&#x105;" horiz-adv-x="529" d="M446 77L446 348C446 468 363 522 253 522C144 522 57 454 57 358L147 358C147 423 189 450 252 450C315 450 358 428 358 349L358 308L192 293C91 284 40 220 40 140C40 100 56 61 82 34C111 4 154 -12 204 -12C280 -12 336 22 364 94L368 94L370 0L522 0L522 77ZM227 60C170 60 135 81 135 128L135 173C135 202 140 219 177 222L358 239L358 216C358 124 308 60 227 60ZM437 -105L367 -105L432 -35L367 -35L297 -105L297 -170L437 -170Z"/>
<glyph unicode="&#x106;" horiz-adv-x="613" d="M327 -15C466 -15 571 70 580 198L485 198C476 106 416 68 326 68C231 68 153 140 153 235L153 445C153 543 225 612 320 612C409 612 465 567 474 487L569 487C560 616 460 695 329 695C139 695 48 556 48 334C48 122 147 -15 327 -15ZM265 743L343 743L449 865L344 865Z"/>
<glyph unicode="&#x107;" horiz-adv-x="503" d="M43 251C43 99 112 -12 260 -12C364 -12 455 45 469 171L379 171C373 95 324 60 258 60C192 60 138 107 138 180L138 330C138 409 197 450 257 450C317 450 368 426 375 343L465 343C455 466 370 522 262 522C123 522 43 415 43 251ZM203 573L281 573L387 695L282 695Z"/>
<glyph unicode="&#x108;" horiz-adv-x="613" d="M327 -15C466 -15 571 70 580 198L485 198C476 106 416 68 326 68C231 68 153 140 153 235L153 445C153 543 225 612 320 612C409 612 465 567 474 487L569 487C560 616 460 695 329 695C139 695 48 556 48 334C48 122 147 -15 327 -15ZM317 816L374 743L452 743L369 865L266 865L183 743L260 743Z"/>
<glyph unicode="&#x109;" horiz-adv-x="503" d="M43 251C43 99 112 -12 260 -12C364 -12 455 45 469 171L379 171C373 95 324 60 258 60C192 60 138 107 138 180L138 330C138 409 197 450 257 450C317 450 368 426 375 343L465 343C455 466 370 522 262 522C123 522 43 415 43 251ZM256 646L313 573L391 573L308 695L205 695L122 573L199 573Z"/>
<glyph unicode="&#x10a;" horiz-adv-x="613" d="M327 -15C466 -15 571 70 580 198L485 198C476 106 416 68 326 68C231 68 153 140 153 235L153 445C153 543 225 612 320 612C409 612 465 567 474 487L569 487C560 616 460 695 329 695C139 695 48 556 48 334C48 122 147 -15 327 -15ZM361 850L273 850L273 762L361 762Z"/>
<glyph unicode="&#x10b;" horiz-adv-x="503" d="M43 251C43 99 112 -12 260 -12C364 -12 455 45 469 171L379 171C373 95 324 60 258 60C192 60 138 107 138 180L138 330C138 409 197 450 257 450C317 450 368 426 375 343L465 343C455 466 370 522 262 522C123 522 43 415 43 251ZM298 680L210 680L210 592L298 592Z"/>
<glyph unicode="&#x10c;" horiz-adv-x="613" d="M327 -15C466 -15 571 70 580 198L485 198C476 106 416 68 326 68C231 68 153 140 153 235L153 445C153 543 225 612 320 612C409 612 465 567 474 487L569 487C560 616 460 695 329 695C139 695 48 556 48 334C48 122 147 -15 327 -15ZM260 865L183 865L266 743L369 743L452 865L374 865L317 792Z"/>
<glyph unicode="&#x10d;" horiz-adv-x="503" d="M43 251C43 99 112 -12 260 -12C364 -12 455 45 469 171L379 171C373 95 324 60 258 60C192 60 138 107 138 180L138 330C138 409 197 450 257 450C317 450 368 426 375 343L465 343C455 466 370 522 262 522C123 522 43 415 43 251ZM196 695L119 695L202 573L305 573L388 695L310 695L253 622Z"/>
<glyph unicode="&#x10e;" horiz-adv-x="641" d="M80 680L80 0L300 0C505 0 592 112 592 340C592 568 505 680 300 680ZM300 595C427 595 487 540 487 440L487 240C487 140 427 85 300 85L175 85L175 595ZM246 865L169 865L252 743L355 743L438 865L360 865L303 792Z"/>
<glyph unicode="&#x10f;" horiz-adv-x="631" d="M408 212C408 124 358 60 268 60C194 60 138 107 138 176L138 334C138 403 194 450 268 450C358 450 408 386 408 298ZM498 0L498 680L408 680L408 427C376 488 321 522 245 522C108 522 43 403 43 255C43 107 109 -12 247 -12C323 -12 376 22 408 83L408 0ZM668 680L558 680L558 570L617 570L558 460L606 460L668 570Z"/>
<glyph unicode="&#x110;" horiz-adv-x="654" d="M93 680L93 376L21 376L21 304L93 304L93 0L313 0C518 0 605 112 605 340C605 568 518 680 313 680ZM344 376L188 376L188 595L313 595C440 595 500 540 500 440L500 240C500 140 440 85 313 85L188 85L188 304L344 304Z"/>
<glyph unicode="&#x111;" horiz-adv-x="569" d="M258 562L408 562L408 427C376 488 321 522 245 522C108 522 43 403 43 255C43 107 109 -12 247 -12C323 -12 376 22 408 83L408 0L498 0L498 562L591 562L591 622L498 622L498 680L408 680L408 622L258 622ZM408 212C408 124 358 60 268 60C194 60 138 107 138 176L138 334C138 403 194 450 268 450C358 450 408 386 408 298Z"/>
<glyph unicode="&#x112;" horiz-adv-x="581" d="M80 0L531 0L531 85L175 85L175 304L485 304L485 389L175 389L175 595L531 595L531 680L80 680ZM161 781L450 781L450 840L161 840Z"/>
<glyph unicode="&#x113;" horiz-adv-x="526" d="M138 330C138 405 196 450 263 450C330 450 388 405 388 330L388 302L138 302ZM43 255C43 99 116 -12 263 -12C372 -12 468 53 477 162L387 162C381 92 328 60 264 60C200 60 138 102 138 176L138 230L481 230L481 278C481 414 409 522 263 522C123 522 43 411 43 255ZM117 611L406 611L406 670L117 670Z"/>
<glyph unicode="&#x114;" horiz-adv-x="581" d="M80 0L531 0L531 85L175 85L175 304L485 304L485 389L175 389L175 595L531 595L531 680L80 680ZM170 865C170 790 230 730 305 730C380 730 440 790 440 865L380 865C380 820 348 786 305 786C262 786 230 820 230 865Z"/>
<glyph unicode="&#x115;" horiz-adv-x="526" d="M138 330C138 405 196 450 263 450C330 450 388 405 388 330L388 302L138 302ZM43 255C43 99 116 -12 263 -12C372 -12 468 53 477 162L387 162C381 92 328 60 264 60C200 60 138 102 138 176L138 230L481 230L481 278C481 414 409 522 263 522C123 522 43 411 43 255ZM127 695C127 620 187 560 262 560C337 560 397 620 397 695L337 695C337 650 305 616 262 616C219 616 187 650 187 695Z"/>
<glyph unicode="&#x116;" horiz-adv-x="581" d="M80 0L531 0L531 85L175 85L175 304L485 304L485 389L175 389L175 595L531 595L531 680L80 680ZM349 850L261 850L261 762L349 762Z"/>
<glyph unicode="&#x117;" horiz-adv-x="526" d="M138 330C138 405 196 450 263 450C330 450 388 405 388 330L388 302L138 302ZM43 255C43 99 116 -12 263 -12C372 -12 468 53 477 162L387 162C381 92 328 60 264 60C200 60 138 102 138 176L138 230L481 230L481 278C481 414 409 522 263 522C123 522 43 411 43 255ZM305 680L217 680L217 592L305 592Z"/>
<glyph unicode="&#x118;" horiz-adv-x="581" d="M80 0L531 0L531 85L175 85L175 304L485 304L485 389L175 389L175 595L531 595L531 680L80 680ZM350 -105L280 -105L345 -35L280 -35L210 -105L210 -170L350 -170Z"/>
<glyph unicode="&#x119;" horiz-adv-x="526" d="M138 330C138 405 196 450 263 450C330 450 388 405 388 330L388 302L138 302ZM43 255C43 99 116 -12 263 -12C372 -12 468 53 477 162L387 162C381 92 328 60 264 60C200 60 138 102 138 176L138 230L481 230L481 278C481 414 409 522 263 522C123 522 43 411 43 255ZM306 -105L236 -105L301 -35L236 -35L166 -105L166 -170L306 -170Z"/>
<glyph unicode="&#x11a;" horiz-adv-x="581" d="M80 0L531 0L531 85L175 85L175 304L485 304L485 389L175 389L175 595L531 595L531 680L80 680ZM248 865L171 865L254 743L357 743L440 865L362 865L305 792Z"/>
<glyph unicode="&#x11b;" horiz-adv-x="526" d="M138 330C138 405 196 450 263 450C330 450 388 405 388 330L388 302L138 302ZM43 255C43 99 116 -12 263 -12C372 -12 468 53 477 162L387 162C381 92 328 60 264 60C200 60 138 102 138 176L138 230L481 230L481 278C481 414 409 522 263 522C123 522 43 411 43 255ZM205 695L128 695L211 573L314 573L397 695L319 695L262 622Z"/>
<glyph unicode="&#x11c;" horiz-adv-x="647" d="M48 334C48 120 149 -15 322 -15C408 -15 460 20 495 72L499 0L590 0L590 363L341 363L341 278L495 278L495 232C495 126 435 68 330 68C228 68 153 140 153 235L153 445C153 543 225 612 325 612C419 612 475 567 484 487L579 487C570 616 470 695 334 695C139 695 48 560 48 334ZM326 816L383 743L461 743L378 865L275 865L192 743L269 743Z"/>
<glyph unicode="&#x11d;" horiz-adv-x="569" d="M408 212C408 124 358 60 268 60C194 60 138 107 138 176L138 334C138 403 194 450 268 450C358 450 408 386 408 298ZM498 510L408 510L408 427C376 488 321 522 245 522C108 522 43 403 43 255C43 107 109 -12 247 -12C323 -12 376 22 408 83L408 14C408 -84 344 -123 274 -123C204 -123 158 -93 151 -35L61 -35C76 -157 172 -195 278 -195C387 -195 498 -131 498 10ZM300 646L357 573L435 573L352 695L249 695L166 573L243 573Z"/>
<glyph unicode="&#x11e;" horiz-adv-x="647" d="M48 334C48 120 149 -15 322 -15C408 -15 460 20 495 72L499 0L590 0L590 363L341 363L341 278L495 278L495 232C495 126 435 68 330 68C228 68 153 140 153 235L153 445C153 543 225 612 325 612C419 612 475 567 484 487L579 487C570 616 470 695 334 695C139 695 48 560 48 334ZM187 865C187 790 247 730 322 730C397 730 457 790 457 865L397 865C397 820 365 786 322 786C279 786 247 820 247 865Z"/>
<glyph unicode="&#x11f;" horiz-adv-x="569" d="M408 212C408 124 358 60 268 60C194 60 138 107 138 176L138 334C138 403 194 450 268 450C358 450 408 386 408 298ZM498 510L408 510L408 427C376 488 321 522 245 522C108 522 43 403 43 255C43 107 109 -12 247 -12C323 -12 376 22 408 83L408 14C408 -84 344 -123 274 -123C204 -123 158 -93 151 -35L61 -35C76 -157 172 -195 278 -195C387 -195 498 -131 498 10ZM170 695C170 620 230 560 305 560C380 560 440 620 440 695L380 695C380 650 348 616 305 616C262 616 230 650 230 695Z"/>
<glyph unicode="&#x120;" horiz-adv-x="647" d="M48 334C48 120 149 -15 322 -15C408 -15 460 20 495 72L499 0L590 0L590 363L341 363L341 278L495 278L495 232C495 126 435 68 330 68C228 68 153 140 153 235L153 445C153 543 225 612 325 612C419 612 475 567 484 487L579 487C570 616 470 695 334 695C139 695 48 560 48 334ZM361 850L273 850L273 762L361 762Z"/>
<glyph unicode="&#x121;" horiz-adv-x="569" d="M408 212C408 124 358 60 268 60C194 60 138 107 138 176L138 334C138 403 194 450 268 450C358 450 408 386 408 298ZM498 510L408 510L408 427C376 488 321 522 245 522C108 522 43 403 43 255C43 107 109 -12 247 -12C323 -12 376 22 408 83L408 14C408 -84 344 -123 274 -123C204 -123 158 -93 151 -35L61 -35C76 -157 172 -195 278 -195C387 -195 498 -131 498 10ZM344 680L256 680L256 592L344 592Z"/>
<glyph unicode="&#x122;" horiz-adv-x="647" d="M48 334C48 120 149 -15 322 -15C408 -15 460 20 495 72L499 0L590 0L590 363L341 363L341 278L495 278L495 232C495 126 435 68 330 68C228 68 153 140 153 235L153 445C153 543 225 612 325 612C419 612 475 567 484 487L579 487C570 616 470 695 334 695C139 695 48 560 48 334ZM356 -62L268 -62L268 -150L315 -150L268 -238L306 -238L356 -150Z"/>
<glyph unicode="&#x123;" horiz-adv-x="569" d="M408 212C408 124 358 60 268 60C194 60 138 107 138 176L138 334C138 403 194 450 268 450C358 450 408 386 408 298ZM498 510L408 510L408 427C376 488 321 522 245 522C108 522 43 403 43 255C43 107 109 -12 247 -12C323 -12 376 22 408 83L408 14C408 -84 344 -123 274 -123C204 -123 158 -93 151 -35L61 -35C76 -157 172 -195 278 -195C387 -195 498 -131 498 10ZM245 630L355 630L355 740L296 740L355 850L307 850L245 740Z"/>
<glyph unicode="&#x124;" horiz-adv-x="671" d="M496 0L591 0L591 680L496 680L496 392L175 392L175 680L80 680L80 0L175 0L175 307L496 307ZM336 816L393 743L471 743L388 865L285 865L202 743L279 743Z"/>
<glyph unicode="&#x125;" horiz-adv-x="546" d="M161 680L71 680L71 0L161 0L161 298C161 387 214 450 288 450C365 450 389 404 389 330L389 0L479 0L479 340C479 470 412 522 313 522C236 522 189 485 161 426ZM116 816L173 743L251 743L168 865L65 865L-18 743L59 743Z"/>
<glyph unicode="&#x126;" horiz-adv-x="703" d="M24 477L96 477L96 0L191 0L191 307L512 307L512 0L607 0L607 477L679 477L679 549L607 549L607 680L512 680L512 549L191 549L191 680L96 680L96 549L24 549ZM191 392L191 477L512 477L512 392Z"/>
<glyph unicode="&#x127;" horiz-adv-x="546" d="M311 562L311 622L161 622L161 680L71 680L71 622L-22 622L-22 562L71 562L71 0L161 0L161 298C161 387 214 450 288 450C365 450 389 404 389 330L389 0L479 0L479 340C479 470 412 522 313 522C236 522 189 485 161 426L161 562Z"/>
<glyph unicode="&#x128;" horiz-adv-x="255" d="M80 0L175 0L175 680L80 680ZM231 850C231 826 220 812 198 812C163 812 118 860 63 860C7 860 -26 825 -26 765L24 765C24 789 35 803 57 803C92 803 137 755 192 755C248 755 281 790 281 850Z"/>
<glyph unicode="&#x129;" horiz-adv-x="232" d="M161 0L161 510L71 510L71 0ZM220 680C220 656 209 642 187 642C152 642 107 690 52 690C-4 690 -37 655 -37 595L13 595C13 619 24 633 46 633C81 633 126 585 181 585C237 585 270 620 270 680Z"/>
<glyph unicode="&#x12a;" horiz-adv-x="255" d="M80 0L175 0L175 680L80 680ZM-17 781L272 781L272 840L-17 840Z"/>
<glyph unicode="&#x12b;" horiz-adv-x="232" d="M161 0L161 510L71 510L71 0ZM-28 611L261 611L261 670L-28 670Z"/>
<glyph unicode="&#x12c;" horiz-adv-x="255" d="M80 0L175 0L175 680L80 680ZM-7 865C-7 790 53 730 128 730C203 730 263 790 263 865L203 865C203 820 171 786 128 786C85 786 53 820 53 865Z"/>
<glyph unicode="&#x12d;" horiz-adv-x="232" d="M161 0L161 510L71 510L71 0ZM-19 695C-19 620 41 560 116 560C191 560 251 620 251 695L191 695C191 650 159 616 116 616C73 616 41 650 41 695Z"/>
<glyph unicode="&#x12e;" horiz-adv-x="255" d="M80 0L175 0L175 680L80 680ZM165 -105L95 -105L160 -35L95 -35L25 -105L25 -170L165 -170Z"/>
<glyph unicode="&#x12f;" horiz-adv-x="232" d="M161 0L161 510L71 510L71 0ZM163 680L69 680L69 586L163 586ZM156 -105L86 -105L151 -35L86 -35L16 -105L16 -170L156 -170Z"/>
<glyph unicode="&#x130;" horiz-adv-x="255" d="M80 0L175 0L175 680L80 680ZM172 850L84 850L84 762L172 762Z"/>
<glyph unicode="&#x131;" horiz-adv-x="232" d="M161 0L161 510L71 510L71 0Z"/>
<glyph unicode="&#x132;" horiz-adv-x="680" d="M80 0L175 0L175 680L80 680ZM600 680L505 680L505 85L286 85L286 0L600 0Z"/>
<glyph unicode="&#x133;" horiz-adv-x="500" d="M161 0L161 510L71 510L71 0ZM163 680L69 680L69 586L163 586ZM339 -93L221 -93L221 -170L429 -170L429 510L339 510ZM431 680L337 680L337 586L431 586Z"/>
<glyph unicode="&#x134;" horiz-adv-x="409" d="M329 680L234 680L234 85L15 85L15 0L329 0ZM282 816L339 743L417 743L334 865L231 865L148 743L225 743Z"/>
<glyph unicode="&#x135;" horiz-adv-x="240" d="M79 -93L-39 -93L-39 -170L169 -170L169 510L79 510ZM124 646L181 573L259 573L176 695L73 695L-10 573L67 573Z"/>
<glyph unicode="&#x136;" horiz-adv-x="596" d="M175 680L80 680L80 0L175 0ZM484 0L600 0L288 363L575 680L459 680L177 363ZM332 -62L244 -62L244 -150L291 -150L244 -238L282 -238L332 -150Z"/>
<glyph unicode="&#x137;" horiz-adv-x="485" d="M382 0L485 0L266 285L471 510L362 510L162 285ZM161 680L71 680L71 0L161 0ZM287 -62L199 -62L199 -150L246 -150L199 -238L237 -238L287 -150Z"/>
<glyph unicode="&#x138;" horiz-adv-x="485" d="M382 0L485 0L266 285L471 510L358 510L162 285ZM161 510L71 510L71 0L161 0Z"/>
<glyph unicode="&#x139;" horiz-adv-x="499" d="M80 0L483 0L483 85L175 85L175 680L80 680ZM67 743L145 743L251 865L146 865Z"/>
<glyph unicode="&#x13a;" horiz-adv-x="232" d="M161 0L161 680L71 680L71 0ZM53 743L131 743L237 865L132 865Z"/>
<glyph unicode="&#x13b;" horiz-adv-x="499" d="M80 0L483 0L483 85L175 85L175 680L80 680ZM293 -62L205 -62L205 -150L252 -150L205 -238L243 -238L293 -150Z"/>
<glyph unicode="&#x13c;" horiz-adv-x="232" d="M161 0L161 680L71 680L71 0ZM160 -62L72 -62L72 -150L119 -150L72 -238L110 -238L160 -150Z"/>
<glyph unicode="&#x13d;" horiz-adv-x="501" d="M80 0L483 0L483 85L175 85L175 680L80 680ZM380 680L270 680L270 570L329 570L270 460L318 460L380 570Z"/>
<glyph unicode="&#x13e;" horiz-adv-x="294" d="M161 0L161 680L71 680L71 0ZM331 680L221 680L221 570L280 570L221 460L269 460L331 570Z"/>
<glyph unicode="&#x13f;" horiz-adv-x="501" d="M80 0L483 0L483 85L175 85L175 680L80 680ZM384 510L274 510L274 400L384 400Z"/>
<glyph unicode="&#x140;" horiz-adv-x="320" d="M161 0L161 680L71 680L71 0ZM331 510L221 510L221 400L331 400Z"/>
<glyph unicode="&#x141;" horiz-adv-x="523" d="M104 0L507 0L507 85L199 85L199 310L351 399L351 481L199 392L199 680L104 680L104 337L8 281L8 199L104 255Z"/>
<glyph unicode="&#x142;" horiz-adv-x="306" d="M277 395L277 477L201 433L201 680L111 680L111 380L35 336L35 254L111 298L111 0L201 0L201 351Z"/>
<glyph unicode="&#x143;" horiz-adv-x="671" d="M495 115L214 680L80 680L80 0L172 0L172 568L176 568L457 0L591 0L591 680L499 680L499 115ZM254 743L332 743L438 865L333 865Z"/>
<glyph unicode="&#x144;" horiz-adv-x="546" d="M161 510L71 510L71 0L161 0L161 298C161 387 214 450 288 450C365 450 389 404 389 330L389 0L479 0L479 340C479 470 412 522 313 522C236 522 189 485 161 426ZM202 573L280 573L386 695L281 695Z"/>
<glyph unicode="&#x145;" horiz-adv-x="671" d="M495 115L214 680L80 680L80 0L172 0L172 568L176 568L457 0L591 0L591 680L499 680L499 115ZM379 -62L291 -62L291 -150L338 -150L291 -238L329 -238L379 -150Z"/>
<glyph unicode="&#x146;" horiz-adv-x="546" d="M161 510L71 510L71 0L161 0L161 298C161 387 214 450 288 450C365 450 389 404 389 330L389 0L479 0L479 340C479 470 412 522 313 522C236 522 189 485 161 426ZM317 -62L229 -62L229 -150L276 -150L229 -238L267 -238L317 -150Z"/>
<glyph unicode="&#x147;" horiz-adv-x="671" d="M495 115L214 680L80 680L80 0L172 0L172 568L176 568L457 0L591 0L591 680L499 680L499 115ZM278 865L201 865L284 743L387 743L470 865L392 865L335 792Z"/>
<glyph unicode="&#x148;" horiz-adv-x="546" d="M161 510L71 510L71 0L161 0L161 298C161 387 214 450 288 450C365 450 389 404 389 330L389 0L479 0L479 340C479 470 412 522 313 522C236 522 189 485 161 426ZM226 695L149 695L232 573L335 573L418 695L340 695L283 622Z"/>
<glyph unicode="&#x149;" horiz-adv-x="546" d="M121 768L33 768L33 680L80 680L33 592L71 592L121 680ZM161 510L71 510L71 0L161 0L161 298C161 387 214 450 288 450C365 450 389 404 389 330L389 0L479 0L479 340C479 470 412 522 313 522C236 522 189 485 161 426Z"/>
<glyph unicode="&#x14a;" horiz-adv-x="671" d="M493 171L175 680L80 680L80 0L174 0L174 510L178 510L496 0L496 -85L277 -85L277 -170L591 -170L591 680L497 680L497 171Z"/>
<glyph unicode="&#x14b;" horiz-adv-x="546" d="M479 340C479 470 412 522 313 522C236 522 189 485 161 426L161 510L71 510L71 0L161 0L161 298C161 387 214 450 288 450C365 450 389 404 389 330L389 -93L271 -93L271 -170L479 -170Z"/>
<glyph unicode="&#x14c;" horiz-adv-x="680" d="M632 340C632 553 545 695 340 695C135 695 48 553 48 340C48 127 135 -15 340 -15C545 -15 632 127 632 340ZM340 68C237 68 153 132 153 235L153 445C153 548 237 612 340 612C443 612 527 548 527 445L527 235C527 132 443 68 340 68ZM196 781L485 781L485 840L196 840Z"/>
<glyph unicode="&#x14d;" horiz-adv-x="544" d="M406 176C406 106 344 60 272 60C200 60 138 106 138 176L138 334C138 404 200 450 272 450C344 450 406 404 406 334ZM501 255C501 411 427 522 272 522C117 522 43 411 43 255C43 99 117 -12 272 -12C427 -12 501 99 501 255ZM128 611L417 611L417 670L128 670Z"/>
<glyph unicode="&#x14e;" horiz-adv-x="680" d="M632 340C632 553 545 695 340 695C135 695 48 553 48 340C48 127 135 -15 340 -15C545 -15 632 127 632 340ZM340 68C237 68 153 132 153 235L153 445C153 548 237 612 340 612C443 612 527 548 527 445L527 235C527 132 443 68 340 68ZM205 865C205 790 265 730 340 730C415 730 475 790 475 865L415 865C415 820 383 786 340 786C297 786 265 820 265 865Z"/>
<glyph unicode="&#x14f;" horiz-adv-x="544" d="M406 176C406 106 344 60 272 60C200 60 138 106 138 176L138 334C138 404 200 450 272 450C344 450 406 404 406 334ZM501 255C501 411 427 522 272 522C117 522 43 411 43 255C43 99 117 -12 272 -12C427 -12 501 99 501 255ZM136 695C136 620 196 560 271 560C346 560 406 620 406 695L346 695C346 650 314 616 271 616C228 616 196 650 196 695Z"/>
<glyph unicode="&#x150;" horiz-adv-x="680" d="M632 340C632 553 545 695 340 695C135 695 48 553 48 340C48 127 135 -15 340 -15C545 -15 632 127 632 340ZM340 68C237 68 153 132 153 235L153 445C153 548 237 612 340 612C443 612 527 548 527 445L527 235C527 132 443 68 340 68ZM209 743L287 743L388 865L283 865ZM372 743L450 743L551 865L446 865Z"/>
<glyph unicode="&#x151;" horiz-adv-x="544" d="M406 176C406 106 344 60 272 60C200 60 138 106 138 176L138 334C138 404 200 450 272 450C344 450 406 404 406 334ZM501 255C501 411 427 522 272 522C117 522 43 411 43 255C43 99 117 -12 272 -12C427 -12 501 99 501 255ZM141 573L219 573L320 695L215 695ZM304 573L382 573L483 695L378 695Z"/>
<glyph unicode="&#x152;" horiz-adv-x="1028" d="M340 68C237 68 153 132 153 235L153 445C153 548 237 612 340 612C443 612 527 548 527 445L527 235C527 132 443 68 340 68ZM527 0L978 0L978 85L622 85L622 304L932 304L932 389L622 389L622 595L978 595L978 680L527 680L527 632C481 673 420 695 340 695C135 695 48 553 48 340C48 127 135 -15 340 -15C420 -15 481 7 527 48Z"/>
<glyph unicode="&#x153;" horiz-adv-x="884" d="M406 176C406 106 344 60 272 60C200 60 138 106 138 176L138 334C138 404 200 450 272 450C344 450 406 404 406 334ZM496 330C496 405 554 450 621 450C688 450 746 405 746 330L746 302L496 302ZM452 438C414 491 354 522 272 522C117 522 43 411 43 255C43 99 117 -12 272 -12C354 -12 412 19 450 70C487 18 544 -12 621 -12C730 -12 826 53 835 162L745 162C739 92 686 60 622 60C558 60 496 102 496 176L496 230L839 230L839 278C839 414 761 522 621 522C547 522 490 491 452 438Z"/>
<glyph unicode="&#x154;" horiz-adv-x="597" d="M287 287L446 0L555 0L387 290C440 296 474 315 500 341C535 376 549 425 549 485C549 548 534 598 498 631C462 664 406 680 336 680L80 680L80 0L175 0L175 287ZM175 368L175 595L371 595C419 595 449 567 449 521L449 446C449 404 421 368 371 368ZM244 743L322 743L428 865L323 865Z"/>
<glyph unicode="&#x155;" horiz-adv-x="332" d="M71 0L161 0L161 432L316 432L316 510L71 510ZM72 573L150 573L256 695L151 695Z"/>
<glyph unicode="&#x156;" horiz-adv-x="597" d="M287 287L446 0L555 0L387 290C440 296 474 315 500 341C535 376 549 425 549 485C549 548 534 598 498 631C462 664 406 680 336 680L80 680L80 0L175 0L175 287ZM175 368L175 595L371 595C419 595 449 567 449 521L449 446C449 404 421 368 371 368ZM339 -62L251 -62L251 -150L298 -150L251 -238L289 -238L339 -150Z"/>
<glyph unicode="&#x157;" horiz-adv-x="332" d="M71 0L161 0L161 432L316 432L316 510L71 510ZM160 -62L72 -62L72 -150L119 -150L72 -238L110 -238L160 -150Z"/>
<glyph unicode="&#x158;" horiz-adv-x="597" d="M287 287L446 0L555 0L387 290C440 296 474 315 500 341C535 376 549 425 549 485C549 548 534 598 498 631C462 664 406 680 336 680L80 680L80 0L175 0L175 287ZM175 368L175 595L371 595C419 595 449 567 449 521L449 446C449 404 421 368 371 368ZM238 865L161 865L244 743L347 743L430 865L352 865L295 792Z"/>
<glyph unicode="&#x159;" horiz-adv-x="332" d="M71 0L161 0L161 432L316 432L316 510L71 510ZM136 695L59 695L142 573L245 573L328 695L250 695L193 622Z"/>
<glyph unicode="&#x15a;" horiz-adv-x="595" d="M292 612C366 612 434 585 442 495L537 495C525 634 422 695 292 695C152 695 59 617 59 515C59 415 112 355 223 324L356 287C427 267 459 236 459 178C459 106 389 68 299 68C209 68 141 106 131 198L36 198C48 50 165 -15 301 -15C437 -15 554 60 554 180C554 292 488 343 370 375L261 405C185 426 152 451 152 515C152 575 206 612 292 612ZM233 743L311 743L417 865L312 865Z"/>
<glyph unicode="&#x15b;" horiz-adv-x="483" d="M210 307C160 317 138 338 138 378C138 420 182 450 238 450C292 450 338 425 340 358L430 358C428 473 333 522 237 522C126 522 50 458 50 377C50 297 98 250 181 233L265 216C333 203 356 179 356 138C356 88 305 60 245 60C183 60 129 93 127 161L37 161C39 47 129 -12 244 -12C364 -12 446 55 446 139C446 221 397 268 296 289ZM171 573L249 573L355 695L250 695Z"/>
<glyph unicode="&#x15c;" horiz-adv-x="595" d="M292 612C366 612 434 585 442 495L537 495C525 634 422 695 292 695C152 695 59 617 59 515C59 415 112 355 223 324L356 287C427 267 459 236 459 178C459 106 389 68 299 68C209 68 141 106 131 198L36 198C48 50 165 -15 301 -15C437 -15 554 60 554 180C554 292 488 343 370 375L261 405C185 426 152 451 152 515C152 575 206 612 292 612ZM295 816L352 743L430 743L347 865L244 865L161 743L238 743Z"/>
<glyph unicode="&#x15d;" horiz-adv-x="483" d="M210 307C160 317 138 338 138 378C138 420 182 450 238 450C292 450 338 425 340 358L430 358C428 473 333 522 237 522C126 522 50 458 50 377C50 297 98 250 181 233L265 216C333 203 356 179 356 138C356 88 305 60 245 60C183 60 129 93 127 161L37 161C39 47 129 -12 244 -12C364 -12 446 55 446 139C446 221 397 268 296 289ZM233 646L290 573L368 573L285 695L182 695L99 573L176 573Z"/>
<glyph unicode="&#x15e;" horiz-adv-x="595" d="M292 612C366 612 434 585 442 495L537 495C525 634 422 695 292 695C152 695 59 617 59 515C59 415 112 355 223 324L356 287C427 267 459 236 459 178C459 106 389 68 299 68C209 68 141 106 131 198L36 198C48 50 165 -15 301 -15C437 -15 554 60 554 180C554 292 488 343 370 375L261 405C185 426 152 451 152 515C152 575 206 612 292 612ZM195 -170L335 -170L335 -35L265 -35L265 -105L195 -105Z"/>
<glyph unicode="&#x15f;" horiz-adv-x="483" d="M210 307C160 317 138 338 138 378C138 420 182 450 238 450C292 450 338 425 340 358L430 358C428 473 333 522 237 522C126 522 50 458 50 377C50 297 98 250 181 233L265 216C333 203 356 179 356 138C356 88 305 60 245 60C183 60 129 93 127 161L37 161C39 47 129 -12 244 -12C364 -12 446 55 446 139C446 221 397 268 296 289ZM133 -170L273 -170L273 -35L203 -35L203 -105L133 -105Z"/>
<glyph unicode="&#x160;" horiz-adv-x="595" d="M292 612C366 612 434 585 442 495L537 495C525 634 422 695 292 695C152 695 59 617 59 515C59 415 112 355 223 324L356 287C427 267 459 236 459 178C459 106 389 68 299 68C209 68 141 106 131 198L36 198C48 50 165 -15 301 -15C437 -15 554 60 554 180C554 292 488 343 370 375L261 405C185 426 152 451 152 515C152 575 206 612 292 612ZM238 880L161 880L244 758L347 758L430 880L352 880L295 807Z"/>
<glyph unicode="&#x161;" horiz-adv-x="483" d="M210 307C160 317 138 338 138 378C138 420 182 450 238 450C292 450 338 425 340 358L430 358C428 473 333 522 237 522C126 522 50 458 50 377C50 297 98 250 181 233L265 216C333 203 356 179 356 138C356 88 305 60 245 60C183 60 129 93 127 161L37 161C39 47 129 -12 244 -12C364 -12 446 55 446 139C446 221 397 268 296 289ZM176 695L99 695L182 573L285 573L368 695L290 695L233 622Z"/>
<glyph unicode="&#x162;" horiz-adv-x="531" d="M15 595L218 595L218 0L313 0L313 595L516 595L516 680L15 680ZM160 -170L300 -170L300 -35L230 -35L230 -105L160 -105Z"/>
<glyph unicode="&#x163;" horiz-adv-x="341" d="M194 433L312 433L312 510L194 510L194 680L106 680L106 510L20 510L20 433L106 433L106 0L312 0L312 77L194 77ZM103 -170L243 -170L243 -35L173 -35L173 -105L103 -105Z"/>
<glyph unicode="&#x164;" horiz-adv-x="531" d="M15 595L218 595L218 0L313 0L313 595L516 595L516 680L15 680ZM208 865L131 865L214 743L317 743L400 865L322 865L265 792Z"/>
<glyph unicode="&#x165;" horiz-adv-x="430" d="M195 433L312 433L312 510L195 510L195 680L106 680L106 510L20 510L20 433L106 433L106 0L312 0L312 77L195 77ZM466 680L356 680L356 570L415 570L356 460L404 460L466 570Z"/>
<glyph unicode="&#x166;" horiz-adv-x="567" d="M80 304L236 304L236 0L331 0L331 304L487 304L487 376L331 376L331 595L534 595L534 680L33 680L33 595L236 595L236 376L80 376Z"/>
<glyph unicode="&#x167;" horiz-adv-x="354" d="M204 225L321 225L321 285L204 285L204 433L321 433L321 510L204 510L204 680L115 680L115 510L29 510L29 433L115 433L115 285L29 285L29 225L115 225L115 0L321 0L321 77L204 77Z"/>
<glyph unicode="&#x168;" horiz-adv-x="660" d="M492 235C492 131 434 68 330 68C227 68 169 132 169 235L169 680L74 680L74 242C74 83 175 -15 330 -15C485 -15 586 83 586 242L586 680L492 680ZM434 850C434 826 423 812 401 812C366 812 321 860 266 860C210 860 177 825 177 765L227 765C227 789 238 803 260 803C295 803 340 755 395 755C451 755 484 790 484 850Z"/>
<glyph unicode="&#x169;" horiz-adv-x="542" d="M381 0L471 0L471 510L381 510L381 212C381 123 333 60 257 60C181 60 157 107 157 180L157 510L67 510L67 170C67 39 138 -12 232 -12C309 -12 353 24 381 84ZM376 680C376 656 365 642 343 642C308 642 263 690 208 690C152 690 119 655 119 595L169 595C169 619 180 633 202 633C237 633 282 585 337 585C393 585 426 620 426 680Z"/>
<glyph unicode="&#x16a;" horiz-adv-x="660" d="M492 235C492 131 434 68 330 68C227 68 169 132 169 235L169 680L74 680L74 242C74 83 175 -15 330 -15C485 -15 586 83 586 242L586 680L492 680ZM186 781L475 781L475 840L186 840Z"/>
<glyph unicode="&#x16b;" horiz-adv-x="542" d="M381 0L471 0L471 510L381 510L381 212C381 123 333 60 257 60C181 60 157 107 157 180L157 510L67 510L67 170C67 39 138 -12 232 -12C309 -12 353 24 381 84ZM128 611L417 611L417 670L128 670Z"/>
<glyph unicode="&#x16c;" horiz-adv-x="660" d="M492 235C492 131 434 68 330 68C227 68 169 132 169 235L169 680L74 680L74 242C74 83 175 -15 330 -15C485 -15 586 83 586 242L586 680L492 680ZM195 865C195 790 255 730 330 730C405 730 465 790 465 865L405 865C405 820 373 786 330 786C287 786 255 820 255 865Z"/>
<glyph unicode="&#x16d;" horiz-adv-x="542" d="M381 0L471 0L471 510L381 510L381 212C381 123 333 60 257 60C181 60 157 107 157 180L157 510L67 510L67 170C67 39 138 -12 232 -12C309 -12 353 24 381 84ZM138 695C138 620 198 560 273 560C348 560 408 620 408 695L348 695C348 650 316 616 273 616C230 616 198 650 198 695Z"/>
<glyph unicode="&#x16e;" horiz-adv-x="660" d="M492 235C492 131 434 68 330 68C227 68 169 132 169 235L169 680L74 680L74 242C74 83 175 -15 330 -15C485 -15 586 83 586 242L586 680L492 680ZM419 821C419 865 386 907 330 907C274 907 241 865 241 821C241 776 274 735 330 735C386 735 419 776 419 821ZM374 821C374 797 356 776 330 776C304 776 285 797 285 821C285 845 304 865 330 865C356 865 374 845 374 821Z"/>
<glyph unicode="&#x16f;" horiz-adv-x="542" d="M381 0L471 0L471 510L381 510L381 212C381 123 333 60 257 60C181 60 157 107 157 180L157 510L67 510L67 170C67 39 138 -12 232 -12C309 -12 353 24 381 84ZM362 651C362 695 329 737 273 737C217 737 184 695 184 651C184 606 217 565 273 565C329 565 362 606 362 651ZM317 651C317 627 299 606 273 606C247 606 228 627 228 651C228 675 247 695 273 695C299 695 317 675 317 651Z"/>
<glyph unicode="&#x170;" horiz-adv-x="660" d="M492 235C492 131 434 68 330 68C227 68 169 132 169 235L169 680L74 680L74 242C74 83 175 -15 330 -15C485 -15 586 83 586 242L586 680L492 680ZM199 743L277 743L378 865L273 865ZM362 743L440 743L541 865L436 865Z"/>
<glyph unicode="&#x171;" horiz-adv-x="542" d="M381 0L471 0L471 510L381 510L381 212C381 123 333 60 257 60C181 60 157 107 157 180L157 510L67 510L67 170C67 39 138 -12 232 -12C309 -12 353 24 381 84ZM142 573L220 573L321 695L216 695ZM305 573L383 573L484 695L379 695Z"/>
<glyph unicode="&#x172;" horiz-adv-x="660" d="M492 235C492 131 434 68 330 68C227 68 169 132 169 235L169 680L74 680L74 242C74 83 175 -15 330 -15C485 -15 586 83 586 242L586 680L492 680ZM368 -105L298 -105L363 -35L298 -35L228 -105L228 -170L368 -170Z"/>
<glyph unicode="&#x173;" horiz-adv-x="542" d="M381 0L471 0L471 510L381 510L381 212C381 123 333 60 257 60C181 60 157 107 157 180L157 510L67 510L67 170C67 39 138 -12 232 -12C309 -12 353 24 381 84ZM463 -105L393 -105L458 -35L393 -35L323 -105L323 -170L463 -170Z"/>
<glyph unicode="&#x174;" horiz-adv-x="896" d="M501 680L395 680L262 107L258 107L125 680L24 680L200 0L319 0L446 547L450 547L577 0L696 0L872 680L771 680L638 107L634 107ZM450 816L507 743L585 743L502 865L399 865L316 743L393 743Z"/>
<glyph unicode="&#x175;" horiz-adv-x="715" d="M359 413L455 0L550 0L699 510L611 510L509 111L505 111L411 510L302 510L212 111L208 111L107 510L16 510L165 0L258 0L355 413ZM354 646L411 573L489 573L406 695L303 695L220 573L297 573Z"/>
<glyph unicode="&#x176;" horiz-adv-x="591" d="M248 271L248 0L343 0L343 270L570 680L469 680L296 364L126 680L22 680ZM296 816L353 743L431 743L348 865L245 865L162 743L239 743Z"/>
<glyph unicode="&#x177;" horiz-adv-x="490" d="M244 111L111 510L14 510L203 0L171 -93L54 -93L54 -170L228 -170L478 510L385 510L248 111ZM246 646L303 573L381 573L298 695L195 695L112 573L189 573Z"/>
<glyph unicode="&#x178;" horiz-adv-x="591" d="M248 271L248 0L343 0L343 270L570 680L469 680L296 364L126 680L22 680ZM253 854L165 854L165 766L253 766ZM429 854L341 854L341 766L429 766Z"/>
<glyph unicode="&#x179;" horiz-adv-x="559" d="M521 680L49 680L49 595L413 595L33 85L33 0L520 0L520 85L142 85L521 595ZM226 743L304 743L410 865L305 865Z"/>
<glyph unicode="&#x17a;" horiz-adv-x="454" d="M137 77L411 433L411 510L53 510L53 433L307 433L33 77L33 0L417 0L417 77ZM173 573L251 573L357 695L252 695Z"/>
<glyph unicode="&#x17b;" horiz-adv-x="559" d="M521 680L49 680L49 595L413 595L33 85L33 0L520 0L520 85L142 85L521 595ZM322 850L234 850L234 762L322 762Z"/>
<glyph unicode="&#x17c;" horiz-adv-x="454" d="M137 77L411 433L411 510L53 510L53 433L307 433L33 77L33 0L417 0L417 77ZM269 680L181 680L181 592L269 592Z"/>
<glyph unicode="&#x17d;" horiz-adv-x="559" d="M521 680L49 680L49 595L413 595L33 85L33 0L520 0L520 85L142 85L521 595ZM225 880L148 880L231 758L334 758L417 880L339 880L282 807Z"/>
<glyph unicode="&#x17e;" horiz-adv-x="454" d="M137 77L411 433L411 510L53 510L53 433L307 433L33 77L33 0L417 0L417 77ZM179 695L102 695L185 573L288 573L371 695L293 695L236 622Z"/>
<glyph unicode="&#x192;" horiz-adv-x="535" d="M151 358L241 358L151 -95L23 -95L23 -170L221 -170L327 358L474 358L474 433L342 433L377 605L505 605L505 680L306 680L256 433L151 433Z"/>
<glyph unicode="&#x1fa;" horiz-adv-x="612" d="M495 0L595 0L359 680L253 680L18 0L116 0L172 168L439 168ZM304 574L308 574L414 246L197 246ZM395 811C395 855 362 897 306 897C250 897 217 855 217 811C217 766 250 725 306 725C362 725 395 766 395 811ZM350 811C350 787 332 766 306 766C280 766 261 787 261 811C261 835 280 855 306 855C332 855 350 835 350 811ZM266 942L344 942L450 1064L345 1064Z"/>
<glyph unicode="&#x1fb;" horiz-adv-x="529" d="M446 77L446 348C446 468 363 522 253 522C144 522 57 454 57 358L147 358C147 423 189 450 252 450C315 450 358 428 358 349L358 308L192 293C91 284 40 220 40 140C40 100 56 61 82 34C111 4 154 -12 204 -12C280 -12 336 22 364 94L368 94L370 0L522 0L522 77ZM227 60C170 60 135 81 135 128L135 173C135 202 140 219 177 222L358 239L358 216C358 124 308 60 227 60ZM338 651C338 695 305 737 249 737C193 737 160 695 160 651C160 606 193 565 249 565C305 565 338 606 338 651ZM293 651C293 627 275 606 249 606C223 606 204 627 204 651C204 675 223 695 249 695C275 695 293 675 293 651ZM207 792L285 792L391 914L286 914Z"/>
<glyph unicode="&#x1fc;" horiz-adv-x="920" d="M870 0L870 85L524 85L524 304L824 304L824 389L524 389L524 595L870 595L870 680L321 680L-14 0L92 0L174 169L429 169L429 0ZM381 595L429 595L429 247L212 247ZM372 743L450 743L556 865L451 865Z"/>
<glyph unicode="&#x1fd;" horiz-adv-x="827" d="M228 60C171 60 136 81 136 128L136 183C136 212 151 230 178 230L359 230L359 216C359 124 309 60 228 60ZM449 330C449 405 507 450 569 450C631 450 689 405 689 330L689 302L449 302ZM398 74C438 19 491 -12 569 -12C673 -12 769 53 778 162L688 162C682 92 629 60 570 60C511 60 449 102 449 176L449 230L782 230L782 278C782 414 704 522 569 522C506 522 454 497 417 454C383 500 325 522 254 522C145 522 58 454 58 358L148 358C148 423 190 450 253 450C316 450 359 428 359 349L359 302L188 302C100 302 41 230 41 150C41 100 57 61 83 34C112 4 150 -12 220 -12C296 -12 356 19 396 74ZM366 573L444 573L550 695L445 695Z"/>
<glyph unicode="&#x1fe;" horiz-adv-x="680" d="M283 758L361 758L467 880L362 880ZM632 340C632 470 599 574 527 635L570 721L514 748L474 668C436 685 392 695 340 695C135 695 48 553 48 340C48 205 83 98 160 38L121 -41L177 -68L214 7C250 -7 292 -15 340 -15C545 -15 632 127 632 340ZM153 235L153 445C153 548 237 612 340 612C375 612 407 604 435 591L201 119C171 148 153 187 153 235ZM340 68C308 68 279 74 253 85L486 553C512 525 527 489 527 445L527 235C527 132 443 68 340 68Z"/>
<glyph unicode="&#x1ff;" horiz-adv-x="544" d="M217 573L295 573L401 695L296 695ZM92 -44L148 -71L184 2C209 -7 239 -12 272 -12C427 -12 501 99 501 255C501 351 473 430 415 476L453 554L397 581L361 507C335 516 305 522 272 522C117 522 43 411 43 255C43 158 71 79 129 33ZM164 105C148 124 138 148 138 176L138 334C138 404 200 450 272 450C292 450 311 446 328 440ZM380 404C396 385 406 361 406 334L406 176C406 106 344 60 272 60C252 60 234 63 217 69Z"/>
<glyph unicode="&#x218;" horiz-adv-x="595" d="M342 -62L254 -62L254 -150L301 -150L254 -238L292 -238L342 -150ZM292 612C366 612 434 585 442 495L537 495C525 634 422 695 292 695C152 695 59 617 59 515C59 415 112 355 223 324L356 287C427 267 459 236 459 178C459 106 389 68 299 68C209 68 141 106 131 198L36 198C48 50 165 -15 301 -15C437 -15 554 60 554 180C554 292 488 343 370 375L261 405C185 426 152 451 152 515C152 575 206 612 292 612Z"/>
<glyph unicode="&#x219;" horiz-adv-x="483" d="M286 -62L198 -62L198 -150L245 -150L198 -238L236 -238L286 -150ZM210 307C160 316 138 338 138 378C138 420 182 450 238 450C292 450 338 425 340 358L430 358C428 473 333 522 237 522C126 522 50 458 50 377C50 297 98 250 181 233L265 216C333 203 356 179 356 138C356 88 305 60 245 60C183 60 129 93 127 161L37 161C39 47 129 -12 244 -12C364 -12 446 55 446 139C446 221 397 268 296 289Z"/>
<glyph unicode="&#x21a;" horiz-adv-x="531" d="M15 595L218 595L218 0L313 0L313 595L516 595L516 680L15 680ZM309 -62L221 -62L221 -150L268 -150L221 -238L259 -238L309 -150Z"/>
<glyph unicode="&#x21b;" horiz-adv-x="341" d="M195 433L312 433L312 510L195 510L195 680L106 680L106 510L20 510L20 433L106 433L106 0L312 0L312 77L195 77ZM252 -62L164 -62L164 -150L211 -150L164 -238L202 -238L252 -150Z"/>
<glyph unicode="&#x2bc;" horiz-adv-x="214" d="M169 680L59 680L59 570L118 570L59 460L107 460L169 570Z"/>
<glyph unicode="&#x2c6;" horiz-adv-x="275" d="M137 646L194 573L272 573L189 695L86 695L3 573L80 573Z"/>
<glyph unicode="&#x2c7;" horiz-adv-x="275" d="M81 695L4 695L87 573L190 573L273 695L195 695L138 622Z"/>
<glyph unicode="&#x2d8;" horiz-adv-x="275" d="M3 695C3 620 63 560 138 560C213 560 273 620 273 695L213 695C213 650 181 616 138 616C95 616 63 650 63 695Z"/>
<glyph unicode="&#x2d9;" horiz-adv-x="265" d="M177 680L89 680L89 592L177 592Z"/>
<glyph unicode="&#x2da;" horiz-adv-x="275" d="M227 651C227 695 194 737 138 737C82 737 49 695 49 651C49 606 82 565 138 565C194 565 227 606 227 651ZM182 651C182 627 164 606 138 606C112 606 93 627 93 651C93 675 112 695 138 695C164 695 182 675 182 651Z"/>
<glyph unicode="&#x2db;" horiz-adv-x="275" d="M208 -105L138 -105L203 -35L138 -35L68 -105L68 -170L208 -170Z"/>
<glyph unicode="&#x2dc;" horiz-adv-x="275" d="M242 680C242 656 231 642 209 642C174 642 129 690 74 690C18 690 -15 655 -15 595L35 595C35 619 46 633 68 633C103 633 148 585 203 585C259 585 292 620 292 680Z"/>
<glyph unicode="&#x2dd;" horiz-adv-x="275" d="M-33 573L45 573L146 695L41 695ZM130 573L208 573L309 695L204 695Z"/>
<glyph unicode="&#x326;" horiz-adv-x="275" d="M182 -62L94 -62L94 -150L141 -150L94 -238L132 -238L182 -150Z"/>
<glyph unicode="&#x394;" horiz-adv-x="634" d="M6 0L628 0L361 680L273 680ZM316 551L503 77L131 77Z"/>
<glyph unicode="&#x3a9;" horiz-adv-x="636" d="M442 159C539 199 587 290 587 416C587 592 493 695 318 695C143 695 49 592 49 416C49 290 96 200 192 160L192 77L72 77L72 0L272 0L272 215C195 229 144 268 144 337L144 495C144 575 226 621 318 621C410 621 492 575 492 495L492 337C492 267 440 228 362 215L362 0L562 0L562 77L442 77Z"/>
<glyph unicode="&#x3bc;" horiz-adv-x="546" d="M161 21C177 2 205 -12 241 -12C313 -12 357 24 385 84L385 0L475 0L475 510L385 510L385 212C385 123 337 60 261 60C189 60 161 102 161 169L161 510L71 510L71 -170L161 -170Z"/>
<glyph unicode="&#x3c0;" horiz-adv-x="578" d="M357 0L537 0L537 77L447 77L447 433L537 433L537 510L19 510L19 433L109 433L109 0L199 0L199 433L357 433Z"/>
<glyph unicode="&#x1e80;" horiz-adv-x="896" d="M501 680L395 680L262 107L258 107L125 680L24 680L200 0L319 0L446 547L450 547L577 0L696 0L872 680L771 680L638 107L634 107ZM433 865L328 865L434 743L512 743Z"/>
<glyph unicode="&#x1e81;" horiz-adv-x="715" d="M359 413L455 0L550 0L699 510L611 510L509 111L505 111L411 510L302 510L212 111L208 111L107 510L16 510L165 0L258 0L355 413ZM338 695L233 695L339 573L417 573Z"/>
<glyph unicode="&#x1e82;" horiz-adv-x="896" d="M501 680L395 680L262 107L258 107L125 680L24 680L200 0L319 0L446 547L450 547L577 0L696 0L872 680L771 680L638 107L634 107ZM388 743L466 743L572 865L467 865Z"/>
<glyph unicode="&#x1e83;" horiz-adv-x="715" d="M359 413L455 0L550 0L699 510L611 510L509 111L505 111L411 510L302 510L212 111L208 111L107 510L16 510L165 0L258 0L355 413ZM293 573L371 573L477 695L372 695Z"/>
<glyph unicode="&#x1e84;" horiz-adv-x="896" d="M501 680L395 680L262 107L258 107L125 680L24 680L200 0L319 0L446 547L450 547L577 0L696 0L872 680L771 680L638 107L634 107ZM406 850L318 850L318 762L406 762ZM582 850L494 850L494 762L582 762Z"/>
<glyph unicode="&#x1e85;" horiz-adv-x="715" d="M359 413L455 0L550 0L699 510L611 510L509 111L505 111L411 510L302 510L212 111L208 111L107 510L16 510L165 0L258 0L355 413ZM311 680L223 680L223 592L311 592ZM487 680L399 680L399 592L487 592Z"/>
<glyph unicode="&#x1ef2;" horiz-adv-x="591" d="M248 271L248 0L343 0L343 270L570 680L469 680L296 364L126 680L22 680ZM269 865L164 865L270 743L348 743Z"/>
<glyph unicode="&#x1ef3;" horiz-adv-x="490" d="M244 111L111 510L14 510L203 0L171 -93L54 -93L54 -170L228 -170L478 510L385 510L248 111ZM221 695L116 695L222 573L300 573Z"/>
<glyph unicode="&#x2000;" horiz-adv-x="500" />
<glyph unicode="&#x2001;" horiz-adv-x="1000" />
<glyph unicode="&#x2002;" horiz-adv-x="500" />
<glyph unicode="&#x2003;" horiz-adv-x="1000" />
<glyph unicode="&#x2004;" horiz-adv-x="333" />
<glyph unicode="&#x2005;" horiz-adv-x="250" />
<glyph unicode="&#x2006;" horiz-adv-x="167" />
<glyph unicode="&#x2007;" horiz-adv-x="575" />
<glyph unicode="&#x2008;" horiz-adv-x="234" />
<glyph unicode="&#x2009;" horiz-adv-x="125" />
<glyph unicode="&#x200a;" horiz-adv-x="42" />
<glyph unicode="&#x200b;" horiz-adv-x="0" />
<glyph unicode="&#x2013;" horiz-adv-x="596" d="M63 230L533 230L533 312L63 312Z"/>
<glyph unicode="&#x2014;" horiz-adv-x="1066" d="M63 230L1003 230L1003 312L63 312Z"/>
<glyph unicode="&#x2018;" horiz-adv-x="223" d="M55 460L165 460L165 570L106 570L165 680L117 680L55 570Z"/>
<glyph unicode="&#x2019;" horiz-adv-x="214" d="M169 680L59 680L59 570L118 570L59 460L107 460L169 570Z"/>
<glyph unicode="&#x201a;" horiz-adv-x="238" d="M174 110L64 110L64 0L123 0L64 -110L112 -110L174 0Z"/>
<glyph unicode="&#x201c;" horiz-adv-x="413" d="M245 460L355 460L355 570L296 570L355 680L307 680L245 570ZM55 460L165 460L165 570L106 570L165 680L117 680L55 570Z"/>
<glyph unicode="&#x201d;" horiz-adv-x="404" d="M169 680L59 680L59 570L118 570L59 460L107 460L169 570ZM359 680L249 680L249 570L308 570L249 460L297 460L359 570Z"/>
<glyph unicode="&#x201e;" horiz-adv-x="428" d="M174 110L64 110L64 0L123 0L64 -110L112 -110L174 0ZM364 110L254 110L254 0L313 0L254 -110L302 -110L364 0Z"/>
<glyph unicode="&#x2020;" horiz-adv-x="477" d="M26 438L196 438L196 -90L281 -90L281 438L451 438L451 510L281 510L281 680L196 680L196 510L26 510Z"/>
<glyph unicode="&#x2021;" horiz-adv-x="537" d="M56 438L226 438L226 152L56 152L56 80L226 80L226 -90L311 -90L311 80L481 80L481 152L311 152L311 438L481 438L481 510L311 510L311 680L226 680L226 510L56 510Z"/>
<glyph unicode="&#x2022;" horiz-adv-x="429" d="M45 340C45 246 120 171 214 171C308 171 384 246 384 340C384 434 308 510 214 510C120 510 45 434 45 340Z"/>
<glyph unicode="&#x2026;" horiz-adv-x="894" d="M172 110L62 110L62 0L172 0ZM502 110L392 110L392 0L502 0ZM832 110L722 110L722 0L832 0Z"/>
<glyph unicode="&#x2030;" horiz-adv-x="1116" d="M137 0L213 0L639 680L563 680ZM307 505C307 609 273 688 169 688C65 688 31 609 31 505C31 401 65 322 169 322C273 322 307 401 307 505ZM169 378C129 378 106 399 106 439L106 571C106 611 129 632 169 632C209 632 232 611 232 571L232 439C232 399 209 378 169 378ZM745 175C745 279 711 358 607 358C503 358 469 279 469 175C469 71 503 -8 607 -8C711 -8 745 71 745 175ZM607 48C567 48 544 69 544 109L544 241C544 281 567 302 607 302C647 302 670 281 670 241L670 109C670 69 647 48 607 48ZM1086 175C1086 279 1052 358 948 358C844 358 810 279 810 175C810 71 844 -8 948 -8C1052 -8 1086 71 1086 175ZM948 48C908 48 885 69 885 109L885 241C885 281 908 302 948 302C988 302 1011 281 1011 241L1011 109C1011 69 988 48 948 48Z"/>
<glyph unicode="&#x2039;" horiz-adv-x="266" d="M218 71L121 257L218 443L138 443L31 257L138 71Z"/>
<glyph unicode="&#x203a;" horiz-adv-x="266" d="M128 71L235 257L128 443L48 443L145 257L48 71Z"/>
<glyph unicode="&#x2044;" horiz-adv-x="80" d="M-211 0L-135 0L291 680L215 680Z"/>
<glyph unicode="&#x2070;" horiz-adv-x="342" d="M309 591C309 695 275 774 171 774C67 774 33 695 33 591C33 487 67 408 171 408C275 408 309 487 309 591ZM171 464C131 464 108 485 108 525L108 657C108 697 131 718 171 718C211 718 234 697 234 657L234 525C234 485 211 464 171 464Z"/>
<glyph unicode="&#x2074;" horiz-adv-x="331" d="M245 416L245 494L308 494L308 550L245 550L245 766L171 766L23 550L23 494L177 494L177 416ZM177 682L177 550L84 550L175 682Z"/>
<glyph unicode="&#x2075;" horiz-adv-x="319" d="M106 564C115 587 139 599 162 599C193 599 219 586 219 555L219 510C219 482 196 461 161 461C127 461 104 477 100 515L30 515C36 449 78 408 162 408C243 408 292 456 292 534C292 604 248 652 177 652C146 652 122 639 106 619L112 713L269 713L269 766L50 766L36 564Z"/>
<glyph unicode="&#x2076;" horiz-adv-x="335" d="M170 408C258 408 306 468 306 533C306 600 257 648 186 648C150 648 123 633 106 611L106 650C106 690 132 719 171 719C203 719 223 705 227 676L297 676C291 736 246 774 172 774C74 774 33 694 33 584C33 465 77 408 170 408ZM170 463C131 463 106 485 106 518L106 546C106 578 131 595 170 595C209 595 233 578 233 546L233 518C233 485 209 463 170 463Z"/>
<glyph unicode="&#x2077;" horiz-adv-x="296" d="M273 710L273 766L23 766L23 710L198 710L50 416L126 416Z"/>
<glyph unicode="&#x2078;" horiz-adv-x="338" d="M169 408C243 408 306 442 306 510C306 553 281 584 241 598C278 614 295 640 295 679C295 739 237 774 169 774C101 774 43 739 43 679C43 640 60 614 97 598C57 584 32 553 32 510C32 442 95 408 169 408ZM224 661C224 636 195 625 169 625C143 625 114 636 114 661L114 682C114 708 143 719 169 719C195 719 224 708 224 682ZM105 529C105 554 134 568 169 568C204 568 233 554 233 529L233 503C233 477 204 463 169 463C134 463 105 477 105 503Z"/>
<glyph unicode="&#x2079;" horiz-adv-x="334" d="M164 774C76 774 28 714 28 649C28 582 77 534 148 534C184 534 211 549 228 571L228 532C228 492 202 463 163 463C131 463 111 477 107 506L37 506C43 446 88 408 162 408C260 408 301 488 301 598C301 717 257 774 164 774ZM164 719C203 719 228 697 228 664L228 636C228 604 203 587 164 587C125 587 101 604 101 636L101 664C101 697 125 719 164 719Z"/>
<glyph unicode="&#x207a;" horiz-adv-x="314" d="M133 525L133 416L182 416L182 525L289 525L289 571L182 571L182 680L133 680L133 571L25 571L25 525Z"/>
<glyph unicode="&#x207b;" horiz-adv-x="344" d="M304 570L40 570L40 524L304 524Z"/>
<glyph unicode="&#x207c;" horiz-adv-x="346" d="M305 576L305 624L41 624L41 576ZM305 470L305 518L41 518L41 470Z"/>
<glyph unicode="&#x207d;" horiz-adv-x="189" d="M101 593C101 649 128 704 174 766L111 766C65 706 32 641 32 539C32 437 65 370 111 311L174 311C131 368 101 428 101 484Z"/>
<glyph unicode="&#x207e;" horiz-adv-x="189" d="M89 484C89 428 59 368 15 311L78 311C125 370 157 437 157 539C157 641 125 706 78 766L15 766C61 704 89 649 89 593Z"/>
<glyph unicode="&#x2080;" horiz-adv-x="342" d="M309 69C309 173 275 252 171 252C67 252 33 173 33 69C33 -35 67 -114 171 -114C275 -114 309 -35 309 69ZM171 -58C131 -58 108 -37 108 3L108 135C108 175 131 196 171 196C211 196 234 175 234 135L234 3C234 -37 211 -58 171 -58Z"/>
<glyph unicode="&#x2081;" horiz-adv-x="255" d="M203 244L133 244L133 184L22 184L22 128L133 128L133 -106L203 -106Z"/>
<glyph unicode="&#x2082;" horiz-adv-x="319" d="M223 41C256 69 281 99 281 149C281 207 238 252 162 252C86 252 33 209 33 137L103 137C103 175 125 195 160 195C192 195 212 176 212 148C212 120 198 105 175 84L31 -46L31 -106L288 -106L288 -46L122 -46L122 -44Z"/>
<glyph unicode="&#x2083;" horiz-adv-x="325" d="M187 47C209 47 219 36 219 16L219 -14C219 -39 196 -59 160 -59C125 -59 100 -42 98 -2L28 -2C28 -78 89 -114 161 -114C237 -114 292 -73 292 -11C292 34 271 59 231 74C268 90 286 117 286 157C286 213 237 252 163 252C90 252 36 213 36 148L106 148C108 181 130 197 162 197C191 197 213 184 213 157L213 130C213 113 206 101 183 101L113 101L113 47Z"/>
<glyph unicode="&#x2084;" horiz-adv-x="331" d="M245 -106L245 -28L308 -28L308 28L245 28L245 244L171 244L23 28L23 -28L177 -28L177 -106ZM177 160L177 28L84 28L175 160Z"/>
<glyph unicode="&#x2085;" horiz-adv-x="319" d="M106 42C115 65 139 77 162 77C193 77 219 64 219 33L219 -12C219 -40 196 -61 161 -61C127 -61 104 -45 100 -7L30 -7C36 -73 78 -114 162 -114C243 -114 292 -66 292 12C292 82 248 130 177 130C146 130 122 117 106 97L112 191L269 191L269 244L50 244L36 42Z"/>
<glyph unicode="&#x2086;" horiz-adv-x="335" d="M170 -114C258 -114 306 -54 306 11C306 78 257 126 186 126C150 126 123 111 106 89L106 128C106 168 132 197 171 197C203 197 223 183 227 154L297 154C291 214 246 252 172 252C74 252 33 172 33 62C33 -57 77 -114 170 -114ZM170 -59C131 -59 106 -37 106 -4L106 24C106 56 131 73 170 73C209 73 233 56 233 24L233 -4C233 -37 209 -59 170 -59Z"/>
<glyph unicode="&#x2087;" horiz-adv-x="296" d="M273 188L273 244L23 244L23 188L198 188L50 -106L126 -106Z"/>
<glyph unicode="&#x2088;" horiz-adv-x="338" d="M169 -114C243 -114 306 -80 306 -12C306 31 281 62 241 76C278 92 295 118 295 157C295 217 237 252 169 252C101 252 43 217 43 157C43 118 60 92 97 76C57 62 32 31 32 -12C32 -80 95 -114 169 -114ZM224 139C224 114 195 103 169 103C143 103 114 114 114 139L114 160C114 186 143 197 169 197C195 197 224 186 224 160ZM105 7C105 32 134 46 169 46C204 46 233 32 233 7L233 -19C233 -45 204 -59 169 -59C134 -59 105 -45 105 -19Z"/>
<glyph unicode="&#x2089;" horiz-adv-x="334" d="M164 252C76 252 28 192 28 127C28 60 77 12 148 12C184 12 211 27 228 49L228 10C228 -30 202 -59 163 -59C131 -59 111 -45 107 -16L37 -16C43 -76 88 -114 162 -114C260 -114 301 -34 301 76C301 195 257 252 164 252ZM164 197C203 197 228 175 228 142L228 114C228 82 203 65 164 65C125 65 101 82 101 114L101 142C101 175 125 197 164 197Z"/>
<glyph unicode="&#x208a;" horiz-adv-x="314" d="M133 3L133 -106L182 -106L182 3L289 3L289 49L182 49L182 158L133 158L133 49L25 49L25 3Z"/>
<glyph unicode="&#x208b;" horiz-adv-x="344" d="M304 48L40 48L40 2L304 2Z"/>
<glyph unicode="&#x208c;" horiz-adv-x="346" d="M305 54L305 102L41 102L41 54ZM305 -52L305 -4L41 -4L41 -52Z"/>
<glyph unicode="&#x208d;" horiz-adv-x="189" d="M101 71C101 127 128 182 174 244L111 244C65 184 32 119 32 17C32 -85 65 -152 111 -211L174 -211C131 -154 101 -94 101 -38Z"/>
<glyph unicode="&#x208e;" horiz-adv-x="189" d="M89 -38C89 -94 59 -154 15 -211L78 -211C125 -152 157 -85 157 17C157 119 125 184 78 244L15 244C61 182 89 127 89 71Z"/>
<glyph unicode="&#x20ac;" horiz-adv-x="575" d="M7 372L79 372L79 311L27 311L7 252L83 252C101 90 175 -15 328 -15C455 -15 542 62 551 188L461 188C452 96 410 63 327 63C239 63 179 135 179 235L179 252L347 252L367 311L179 311L179 372L387 372L407 431L179 431L179 445C179 545 226 617 326 617C410 617 451 583 460 501L550 501C541 620 466 695 335 695C167 695 100 585 83 431L27 431Z"/>
<glyph unicode="&#x2122;" horiz-adv-x="819" d="M30 617L132 617L132 340L202 340L202 617L304 617L304 680L30 680ZM560 442L480 680L371 680L371 340L441 340L441 586L526 340L591 340L677 586L677 340L747 340L747 680L640 680Z"/>
<glyph unicode="&#x2126;" horiz-adv-x="636" d="M442 159C539 199 587 290 587 416C587 592 493 695 318 695C143 695 49 592 49 416C49 290 96 200 192 160L192 77L72 77L72 0L272 0L272 215C195 229 144 268 144 337L144 495C144 575 226 621 318 621C410 621 492 575 492 495L492 337C492 267 440 228 362 215L362 0L562 0L562 77L442 77Z"/>
<glyph unicode="&#x2150;" horiz-adv-x="728" d="M209 680L139 680L139 620L28 620L28 564L139 564L139 330L209 330ZM111 0L187 0L613 680L537 680ZM698 294L698 350L448 350L448 294L623 294L475 0L551 0Z"/>
<glyph unicode="&#x2151;" horiz-adv-x="763" d="M209 680L139 680L139 620L28 620L28 564L139 564L139 330L209 330ZM111 0L187 0L613 680L537 680ZM592 358C504 358 456 298 456 233C456 166 505 118 576 118C612 118 639 133 656 155L656 116C656 76 630 47 591 47C559 47 539 61 535 90L465 90C471 30 516 -8 590 -8C688 -8 729 72 729 182C729 301 685 358 592 358ZM592 303C631 303 656 281 656 248L656 220C656 188 631 171 592 171C553 171 529 188 529 220L529 248C529 281 553 303 592 303Z"/>
<glyph unicode="&#x2152;" horiz-adv-x="1085" d="M209 680L139 680L139 620L28 620L28 564L139 564L139 330L209 330ZM111 0L187 0L613 680L537 680ZM628 350L558 350L558 290L447 290L447 234L558 234L558 0L628 0ZM1053 175C1053 279 1019 358 915 358C811 358 777 279 777 175C777 71 811 -8 915 -8C1019 -8 1053 71 1053 175ZM915 48C875 48 852 69 852 109L852 241C852 281 875 302 915 302C955 302 978 281 978 241L978 109C978 69 955 48 915 48Z"/>
<glyph unicode="&#x2153;" horiz-adv-x="757" d="M209 680L139 680L139 620L28 620L28 564L139 564L139 330L209 330ZM111 0L187 0L613 680L537 680ZM615 153C637 153 647 142 647 122L647 92C647 67 624 47 588 47C553 47 528 64 526 104L456 104C456 28 517 -8 589 -8C665 -8 720 33 720 95C720 140 699 165 659 180C696 196 714 223 714 263C714 319 665 358 591 358C518 358 464 319 464 254L534 254C536 287 558 303 590 303C619 303 641 290 641 263L641 236C641 219 634 207 611 207L541 207L541 153Z"/>
<glyph unicode="&#x2154;" horiz-adv-x="781" d="M230 477C263 505 288 535 288 585C288 643 245 688 169 688C93 688 40 645 40 573L110 573C110 611 132 631 167 631C199 631 219 612 219 584C219 556 205 541 182 520L38 390L38 330L295 330L295 390L129 390L129 392ZM140 0L216 0L642 680L566 680ZM644 153C666 153 676 142 676 122L676 92C676 67 653 47 617 47C582 47 557 64 555 104L485 104C485 28 546 -8 618 -8C694 -8 749 33 749 95C749 140 728 165 688 180C725 196 743 223 743 263C743 319 694 358 620 358C547 358 493 319 493 254L563 254C565 287 587 303 619 303C648 303 670 290 670 263L670 236C670 219 663 207 640 207L570 207L570 153Z"/>
<glyph unicode="&#x2155;" horiz-adv-x="755" d="M209 680L139 680L139 620L28 620L28 564L139 564L139 330L209 330ZM111 0L187 0L613 680L537 680ZM533 148C542 171 566 183 589 183C620 183 646 170 646 139L646 94C646 66 623 45 588 45C554 45 531 61 527 99L457 99C463 33 505 -8 589 -8C670 -8 719 40 719 118C719 188 675 236 604 236C573 236 549 223 533 203L539 297L696 297L696 350L477 350L463 148Z"/>
<glyph unicode="&#x2156;" horiz-adv-x="780" d="M230 477C263 505 288 535 288 585C288 643 245 688 169 688C93 688 40 645 40 573L110 573C110 611 132 631 167 631C199 631 219 612 219 584C219 556 205 541 182 520L38 390L38 330L295 330L295 390L129 390L129 392ZM140 0L216 0L642 680L566 680ZM562 148C571 171 595 183 618 183C649 183 675 170 675 139L675 94C675 66 652 45 617 45C583 45 560 61 556 99L486 99C492 33 534 -8 618 -8C699 -8 748 40 748 118C748 188 704 236 633 236C602 236 578 223 562 203L568 297L725 297L725 350L506 350L492 148Z"/>
<glyph unicode="&#x2157;" horiz-adv-x="781" d="M190 483C212 483 222 472 222 452L222 422C222 397 199 377 163 377C128 377 103 394 101 434L31 434C31 358 92 322 164 322C240 322 295 363 295 425C295 470 274 495 234 510C271 526 289 553 289 593C289 649 240 688 166 688C93 688 39 649 39 584L109 584C111 617 133 633 165 633C194 633 216 620 216 593L216 566C216 549 209 537 186 537L116 537L116 483ZM141 0L217 0L643 680L567 680ZM563 148C572 171 596 183 619 183C650 183 676 170 676 139L676 94C676 66 653 45 618 45C584 45 561 61 557 99L487 99C493 33 535 -8 619 -8C700 -8 749 40 749 118C749 188 705 236 634 236C603 236 579 223 563 203L569 297L726 297L726 350L507 350L493 148Z"/>
<glyph unicode="&#x2158;" horiz-adv-x="791" d="M250 330L250 408L313 408L313 464L250 464L250 680L176 680L28 464L28 408L182 408L182 330ZM182 596L182 464L89 464L180 596ZM147 0L223 0L649 680L573 680ZM569 148C578 171 602 183 625 183C656 183 682 170 682 139L682 94C682 66 659 45 624 45C590 45 567 61 563 99L493 99C499 33 541 -8 625 -8C706 -8 755 40 755 118C755 188 711 236 640 236C609 236 585 223 569 203L575 297L732 297L732 350L513 350L499 148Z"/>
<glyph unicode="&#x2159;" horiz-adv-x="765" d="M209 680L139 680L139 620L28 620L28 564L139 564L139 330L209 330ZM111 0L187 0L613 680L537 680ZM595 -8C683 -8 731 52 731 117C731 184 682 232 611 232C575 232 548 217 531 195L531 234C531 274 557 303 596 303C628 303 648 289 652 260L722 260C716 320 671 358 597 358C499 358 458 278 458 168C458 49 502 -8 595 -8ZM595 47C556 47 531 69 531 102L531 130C531 162 556 179 595 179C634 179 658 162 658 130L658 102C658 69 634 47 595 47Z"/>
</font>
</defs>
</svg>
