<?xml version="1.0" encoding="UTF-8"?>
<svg xmlns="http://www.w3.org/2000/svg" xmlns:xlink="http://www.w3.org/1999/xlink" version="1.2" >
<font id="ShellMediumItalic">
<font-face  font-family="ShellMediumItalic" units-per-em="1000" ascent="1050" descent="-300" font-style="normal" font-weight="400" font-stretch="normal" slope="-7" cap-height="754" x-height="460" underline-position="-63" underline-thickness="103" />
<missing-glyph  horiz-adv-x="283" d="" />
<glyph glyph-name="space" unicode="&#x20;" horiz-adv-x="283" d="" />
<glyph glyph-name="A" unicode="A" horiz-adv-x="705" d="M-1 0 L416 807 L676 0 L559 0 L505 177 L212 177 L121 0 L-1 0 Z M392 541 L261 273 L473 273 L392 541 Z " />
<glyph glyph-name="Aacute" unicode="&#xc1;" horiz-adv-x="705" d="M364 864 L497 1018 L582 964 L423 828 L364 864 Z M-1 0 L416 807 L676 0 L559 0 L505 177 L212 177 L121 0 L-1 0 Z M392 541 L261 273 L473 273 L392 541 Z " />
<glyph glyph-name="Abreve" unicode="&#x102;" horiz-adv-x="705" d="M370 981 Q370 941 384 922 Q398 903 427 903 Q458 903 479 921.5 Q500 940 515 981 L596 981 Q584 944 574.5 924.5 Q565 905 549 886 Q527 857 493.5 841 Q460 825 425 825 Q366 825 328 863 Q290 901 290 960 L290 981 L370 981 Z M-1 0 L416 807 L676 0 L559 0 L505 177 L212 177 L121 0 L-1 0 Z M392 541 L261 273 L473 273 L392 541 Z " />
<glyph glyph-name="Acircumflex" unicode="&#xc2;" horiz-adv-x="705" d="M267 873 L444 1010 L570 873 L510 824 L433 907 L315 822 L267 873 Z M-1 0 L416 807 L676 0 L559 0 L505 177 L212 177 L121 0 L-1 0 Z M392 541 L261 273 L473 273 L392 541 Z " />
<glyph glyph-name="Adieresis" unicode="&#xc4;" horiz-adv-x="705" d="M316 967 Q343 967 362.5 948 Q382 929 382 902 Q382 877 363 858.5 Q344 840 319 840 Q293 840 275 859 Q257 878 257 905 Q257 932 274 949.5 Q291 967 316 967 Z M514 967 Q540 967 558.5 948 Q577 929 577 902 Q577 877 559.5 858.5 Q542 840 518 840 Q492 840 473 859 Q454 878 454 905 Q454 932 471 949.5 Q488 967 514 967 Z M-1 0 L416 807 L676 0 L559 0 L505 177 L212 177 L121 0 L-1 0 Z M392 541 L261 273 L473 273 L392 541 Z " />
<glyph glyph-name="Agrave" unicode="&#xc0;" horiz-adv-x="705" d="M473 864 L415 828 L293 964 L377 1018 L473 864 Z M-1 0 L416 807 L676 0 L559 0 L505 177 L212 177 L121 0 L-1 0 Z M392 541 L261 273 L473 273 L392 541 Z " />
<glyph glyph-name="Amacron" unicode="&#x100;" horiz-adv-x="705" d="M594 859 L247 859 L258 941 L605 941 L594 859 Z M-1 0 L416 807 L676 0 L559 0 L505 177 L212 177 L121 0 L-1 0 Z M392 541 L261 273 L473 273 L392 541 Z " />
<glyph glyph-name="Aogonek" unicode="&#x104;" horiz-adv-x="705" d="M676 0 Q586 -61 586 -101 Q586 -115 595 -123 Q604 -131 620 -131 Q636 -131 651.5 -126.5 Q667 -122 689 -110 L667 -200 Q648 -210 632 -214 Q616 -218 594 -218 Q549 -218 521 -193.5 Q493 -169 493 -129 Q493 -92 515.5 -63.5 Q538 -35 596 0 L559 0 L505 177 L212 177 L121 0 L-1 0 L416 807 L676 0 Z M392 541 L261 273 L473 273 L392 541 Z " />
<glyph glyph-name="Aring" unicode="&#xc5;" horiz-adv-x="705" d="M421 1037 Q467 1037 498.5 1006 Q530 975 530 929 Q530 885 498.5 853.5 Q467 822 423 822 Q378 822 346 853.5 Q314 885 314 930 Q314 974 345.5 1005.5 Q377 1037 421 1037 Z M421 974 Q403 974 390 961.5 Q377 949 377 930 Q377 911 390.5 898 Q404 885 423 885 Q441 885 454 898.5 Q467 912 467 930 Q467 949 454 961.5 Q441 974 421 974 Z M-1 0 L416 807 L676 0 L559 0 L505 177 L212 177 L121 0 L-1 0 Z M392 541 L261 273 L473 273 L392 541 Z " />
<glyph glyph-name="Aringacute" unicode="&#x1fa;" horiz-adv-x="705" d="M238 1022 L372 1175 L457 1121 L297 986 L238 1022 Z M421 1037 Q467 1037 498.5 1006 Q530 975 530 929 Q530 885 498.5 853.5 Q467 822 423 822 Q378 822 346 853.5 Q314 885 314 930 Q314 974 345.5 1005.5 Q377 1037 421 1037 Z M421 974 Q403 974 390 961.5 Q377 949 377 930 Q377 911 390.5 898 Q404 885 423 885 Q441 885 454 898.5 Q467 912 467 930 Q467 949 454 961.5 Q441 974 421 974 Z M-1 0 L416 807 L676 0 L559 0 L505 177 L212 177 L121 0 L-1 0 Z M392 541 L261 273 L473 273 L392 541 Z " />
<glyph glyph-name="Atilde" unicode="&#xc3;" horiz-adv-x="705" d="M600 929 Q556 840 492 840 Q473 840 454 846.5 Q435 853 403 871 Q386 881 378 884 Q370 887 363 887 Q352 887 341.5 877.5 Q331 868 312 840 L255 884 Q292 934 315 952 Q338 970 364 970 Q379 970 393 964.5 Q407 959 435 941 Q470 920 492 920 Q507 920 520.5 933 Q534 946 544 971 L600 929 Z M-1 0 L416 807 L676 0 L559 0 L505 177 L212 177 L121 0 L-1 0 Z M392 541 L261 273 L473 273 L392 541 Z " />
<glyph glyph-name="AE" unicode="&#xc6;" horiz-adv-x="1060" d="M494 650 L559 452 L873 452 L904 356 L591 356 L673 104 L990 104 L1020 0 L592 0 L533 185 L221 185 L114 0 L-9 0 L429 754 L776 754 L807 650 L494 650 Z M423 537 L278 281 L503 281 L423 537 Z " />
<glyph glyph-name="AEacute" unicode="&#x1fc;" horiz-adv-x="1060" d="M505 857 L638 1010 L723 957 L564 822 L505 857 Z M494 650 L559 452 L873 452 L904 356 L591 356 L673 104 L990 104 L1020 0 L592 0 L533 185 L221 185 L114 0 L-9 0 L429 754 L776 754 L807 650 L494 650 Z M423 537 L278 281 L503 281 L423 537 Z " />
<glyph glyph-name="B" unicode="B" horiz-adv-x="582" d="M290 754 Q352 754 389 742.5 Q426 731 454 704 Q480 678 495 640.5 Q510 603 510 563 Q510 504 483.5 462 Q457 420 400 389 Q469 372 501 331.5 Q533 291 533 223 Q533 160 505 107.5 Q477 55 428 28 Q398 12 362 6 Q326 0 258 0 L59 0 L151 754 L290 754 Z M254 424 Q295 424 321.5 432.5 Q348 441 364 460 Q380 478 389 504 Q398 530 398 558 Q398 605 371.5 627.5 Q345 650 288 650 L250 650 L223 424 L254 424 Z M258 104 Q304 104 329.5 108.5 Q355 113 373 124 Q396 140 408.5 168 Q421 196 421 231 Q421 286 388.5 310 Q356 334 279 334 L211 334 L183 104 L258 104 Z " />
<glyph glyph-name="C" unicode="C" horiz-adv-x="689" d="M679 564 Q580 663 445 663 Q366 663 305.5 625 Q245 587 211 517.5 Q177 448 177 359 Q177 231 248.5 160.5 Q320 90 449 90 Q508 90 551.5 105 Q595 120 640 156 L623 24 Q565 2 521.5 -6.5 Q478 -15 429 -15 Q321 -15 238.5 32.5 Q156 80 111 166 Q66 252 66 364 Q66 479 114.5 571 Q163 663 248.5 715.5 Q334 768 440 768 Q509 768 567.5 749.5 Q626 731 694 686 L679 564 Z " />
<glyph glyph-name="Cacute" unicode="&#x106;" horiz-adv-x="689" d="M419 857 L553 1010 L637 957 L477 822 L419 857 Z M679 564 Q580 663 445 663 Q366 663 305.5 625 Q245 587 211 517.5 Q177 448 177 359 Q177 231 248.5 160.5 Q320 90 449 90 Q508 90 551.5 105 Q595 120 640 156 L623 24 Q565 2 521.5 -6.5 Q478 -15 429 -15 Q321 -15 238.5 32.5 Q156 80 111 166 Q66 252 66 364 Q66 479 114.5 571 Q163 663 248.5 715.5 Q334 768 440 768 Q509 768 567.5 749.5 Q626 731 694 686 L679 564 Z " />
<glyph glyph-name="Ccaron" unicode="&#x10c;" horiz-adv-x="689" d="M647 957 L471 822 L345 958 L405 1008 L481 924 L599 1010 L647 957 Z M679 564 Q580 663 445 663 Q366 663 305.5 625 Q245 587 211 517.5 Q177 448 177 359 Q177 231 248.5 160.5 Q320 90 449 90 Q508 90 551.5 105 Q595 120 640 156 L623 24 Q565 2 521.5 -6.5 Q478 -15 429 -15 Q321 -15 238.5 32.5 Q156 80 111 166 Q66 252 66 364 Q66 479 114.5 571 Q163 663 248.5 715.5 Q334 768 440 768 Q509 768 567.5 749.5 Q626 731 694 686 L679 564 Z " />
<glyph glyph-name="Ccedilla" unicode="&#xc7;" horiz-adv-x="689" d="M679 564 Q580 663 445 663 Q366 663 305.5 625 Q245 587 211 517.5 Q177 448 177 359 Q177 231 248.5 160.5 Q320 90 449 90 Q508 90 551.5 105 Q595 120 640 156 L623 24 Q565 2 521.5 -6.5 Q478 -15 429 -15 Q321 -15 238.5 32.5 Q156 80 111 166 Q66 252 66 364 Q66 479 114.5 571 Q163 663 248.5 715.5 Q334 768 440 768 Q509 768 567.5 749.5 Q626 731 694 686 L679 564 Z M247 -206 L348 -53 L443 -103 L310 -241 L247 -206 Z " />
<glyph glyph-name="Ccircumflex" unicode="&#x108;" horiz-adv-x="689" d="M322 873 L499 1010 L625 873 L565 824 L489 907 L371 822 L322 873 Z M679 564 Q580 663 445 663 Q366 663 305.5 625 Q245 587 211 517.5 Q177 448 177 359 Q177 231 248.5 160.5 Q320 90 449 90 Q508 90 551.5 105 Q595 120 640 156 L623 24 Q565 2 521.5 -6.5 Q478 -15 429 -15 Q321 -15 238.5 32.5 Q156 80 111 166 Q66 252 66 364 Q66 479 114.5 571 Q163 663 248.5 715.5 Q334 768 440 768 Q509 768 567.5 749.5 Q626 731 694 686 L679 564 Z " />
<glyph glyph-name="Cdotaccent" unicode="&#x10a;" horiz-adv-x="689" d="M478 970 Q506 970 526.5 950 Q547 930 547 902 Q547 876 527 856.5 Q507 837 481 837 Q454 837 435 857 Q416 877 416 905 Q416 933 434 951.5 Q452 970 478 970 Z M679 564 Q580 663 445 663 Q366 663 305.5 625 Q245 587 211 517.5 Q177 448 177 359 Q177 231 248.5 160.5 Q320 90 449 90 Q508 90 551.5 105 Q595 120 640 156 L623 24 Q565 2 521.5 -6.5 Q478 -15 429 -15 Q321 -15 238.5 32.5 Q156 80 111 166 Q66 252 66 364 Q66 479 114.5 571 Q163 663 248.5 715.5 Q334 768 440 768 Q509 768 567.5 749.5 Q626 731 694 686 L679 564 Z " />
<glyph glyph-name="D" unicode="D" horiz-adv-x="715" d="M304 754 Q391 754 437.5 745.5 Q484 737 524 713 Q598 671 640.5 586 Q683 501 683 395 Q683 273 626.5 173.5 Q570 74 476 32 Q437 14 387 7 Q337 0 250 0 L59 0 L151 754 L304 754 Z M268 104 Q355 104 403.5 119 Q452 134 487 171 Q526 212 548.5 272.5 Q571 333 571 400 Q571 485 537 546 Q503 607 443 632 Q418 642 388.5 646 Q359 650 313 650 L250 650 L183 104 L268 104 Z " />
<glyph glyph-name="Eth" unicode="&#xd0;" horiz-adv-x="715" d="M304 754 Q391 754 437.5 745.5 Q484 737 524 713 Q598 671 640.5 586 Q683 501 683 395 Q683 314 657 241 Q631 168 584 113.5 Q537 59 476 32 Q437 14 387 7 Q337 0 250 0 L59 0 L104 364 L36 364 L47 454 L115 454 L153 754 L304 754 Z M400 454 L389 364 L216 364 L184 104 L269 104 Q355 104 403.5 119 Q452 134 487 171 Q526 212 548.5 272.5 Q571 333 571 400 Q571 485 537 546 Q503 607 443 632 Q419 642 389 646 Q359 650 313 650 L251 650 L227 454 L400 454 Z " />
<glyph glyph-name="Dcaron" unicode="&#x10e;" horiz-adv-x="715" d="M559 957 L382 822 L257 958 L316 1008 L393 924 L511 1010 L559 957 Z M304 754 Q391 754 437.5 745.5 Q484 737 524 713 Q598 671 640.5 586 Q683 501 683 395 Q683 273 626.5 173.5 Q570 74 476 32 Q437 14 387 7 Q337 0 250 0 L59 0 L151 754 L304 754 Z M268 104 Q355 104 403.5 119 Q452 134 487 171 Q526 212 548.5 272.5 Q571 333 571 400 Q571 485 537 546 Q503 607 443 632 Q418 642 388.5 646 Q359 650 313 650 L250 650 L183 104 L268 104 Z " />
<glyph glyph-name="Dcroat" unicode="&#x110;" horiz-adv-x="715" d="M304 754 Q391 754 437.5 745.5 Q484 737 524 713 Q598 671 640.5 586 Q683 501 683 395 Q683 314 657 241 Q631 168 584 113.5 Q537 59 476 32 Q437 14 387 7 Q337 0 250 0 L59 0 L104 364 L36 364 L47 454 L115 454 L153 754 L304 754 Z M400 454 L389 364 L216 364 L184 104 L269 104 Q355 104 403.5 119 Q452 134 487 171 Q526 212 548.5 272.5 Q571 333 571 400 Q571 485 537 546 Q503 607 443 632 Q419 642 389 646 Q359 650 313 650 L251 650 L227 454 L400 454 Z " />
<glyph glyph-name="E" unicode="E" horiz-adv-x="531" d="M250 650 L226 454 L503 454 L490 358 L215 358 L183 104 L460 104 L446 0 L59 0 L151 754 L539 754 L527 650 L250 650 Z " />
<glyph glyph-name="Eacute" unicode="&#xc9;" horiz-adv-x="531" d="M295 857 L428 1010 L513 957 L354 822 L295 857 Z M250 650 L226 454 L503 454 L490 358 L215 358 L183 104 L460 104 L446 0 L59 0 L151 754 L539 754 L527 650 L250 650 Z " />
<glyph glyph-name="Ebreve" unicode="&#x114;" horiz-adv-x="531" d="M311 981 Q311 941 325 922 Q339 903 368 903 Q399 903 420 921.5 Q441 940 457 981 L537 981 Q525 944 515.5 924.5 Q506 905 490 886 Q467 857 434 841 Q401 825 365 825 Q306 825 268.5 863 Q231 901 231 960 Q231 972 232 981 L311 981 Z M250 650 L226 454 L503 454 L490 358 L215 358 L183 104 L460 104 L446 0 L59 0 L151 754 L539 754 L527 650 L250 650 Z " />
<glyph glyph-name="Ecaron" unicode="&#x11a;" horiz-adv-x="531" d="M533 957 L356 822 L231 958 L290 1008 L367 924 L485 1010 L533 957 Z M250 650 L226 454 L503 454 L490 358 L215 358 L183 104 L460 104 L446 0 L59 0 L151 754 L539 754 L527 650 L250 650 Z " />
<glyph glyph-name="Ecircumflex" unicode="&#xca;" horiz-adv-x="531" d="M208 873 L385 1010 L511 873 L451 824 L374 907 L257 822 L208 873 Z M250 650 L226 454 L503 454 L490 358 L215 358 L183 104 L460 104 L446 0 L59 0 L151 754 L539 754 L527 650 L250 650 Z " />
<glyph glyph-name="Edieresis" unicode="&#xcb;" horiz-adv-x="531" d="M261 967 Q288 967 307.5 948 Q327 929 327 902 Q327 877 308 858.5 Q289 840 263 840 Q237 840 219 859 Q201 878 201 905 Q201 932 218 949.5 Q235 967 261 967 Z M459 967 Q485 967 503.5 948 Q522 929 522 902 Q522 877 504.5 858.5 Q487 840 462 840 Q436 840 417.5 859 Q399 878 399 905 Q399 932 416 949.5 Q433 967 459 967 Z M250 650 L226 454 L503 454 L490 358 L215 358 L183 104 L460 104 L446 0 L59 0 L151 754 L539 754 L527 650 L250 650 Z " />
<glyph glyph-name="Edotaccent" unicode="&#x116;" horiz-adv-x="531" d="M363 970 Q391 970 411.5 950 Q432 930 432 902 Q432 876 412 856.5 Q392 837 366 837 Q339 837 320 857 Q301 877 301 905 Q301 933 319 951.5 Q337 970 363 970 Z M250 650 L226 454 L503 454 L490 358 L215 358 L183 104 L460 104 L446 0 L59 0 L151 754 L539 754 L527 650 L250 650 Z " />
<glyph glyph-name="Egrave" unicode="&#xc8;" horiz-adv-x="531" d="M419 857 L360 822 L238 957 L323 1010 L419 857 Z M250 650 L226 454 L503 454 L490 358 L215 358 L183 104 L460 104 L446 0 L59 0 L151 754 L539 754 L527 650 L250 650 Z " />
<glyph glyph-name="Emacron" unicode="&#x112;" horiz-adv-x="531" d="M531 859 L185 859 L195 941 L541 941 L531 859 Z M250 650 L226 454 L503 454 L490 358 L215 358 L183 104 L460 104 L446 0 L59 0 L151 754 L539 754 L527 650 L250 650 Z " />
<glyph glyph-name="Eogonek" unicode="&#x118;" horiz-adv-x="531" d="M446 0 Q358 -63 358 -101 Q358 -115 367 -123 Q376 -131 392 -131 Q408 -131 423.5 -126 Q439 -121 460 -110 L438 -200 Q419 -210 403 -214 Q387 -218 366 -218 Q321 -218 292.5 -193.5 Q264 -169 264 -129 Q264 -91 286.5 -63 Q309 -35 367 0 L59 0 L151 754 L539 754 L527 650 L250 650 L226 454 L503 454 L490 358 L215 358 L183 104 L460 104 L446 0 Z " />
<glyph glyph-name="F" unicode="F" horiz-adv-x="493" d="M250 650 L226 455 L487 455 L476 359 L215 359 L171 0 L59 0 L151 754 L523 754 L511 650 L250 650 Z " />
<glyph glyph-name="G" unicode="G" horiz-adv-x="802" d="M767 350 Q760 280 746 232 Q732 184 705 140 Q659 64 588 24.5 Q517 -15 425 -15 Q322 -15 239.5 33.5 Q157 82 110.5 168 Q64 254 64 362 Q64 478 114 570.5 Q164 663 252 715.5 Q340 768 450 768 Q545 768 621 731 Q697 694 759 617 L686 542 Q640 604 581 633.5 Q522 663 447 663 Q368 663 306.5 625 Q245 587 210.5 519 Q176 451 176 364 Q176 284 208.5 222 Q241 160 299 125 Q357 90 431 90 Q512 90 567.5 134 Q623 178 640 254 L453 254 L466 350 L767 350 Z " />
<glyph glyph-name="Gbreve" unicode="&#x11e;" horiz-adv-x="802" d="M436 981 Q437 940 450.5 921.5 Q464 903 494 903 Q525 903 546 921.5 Q567 940 583 981 L662 981 Q651 945 641 925 Q631 905 616 886 Q593 857 560 841 Q527 825 492 825 Q432 825 394.5 863 Q357 901 357 960 L357 981 L436 981 Z M767 350 Q760 280 746 232 Q732 184 705 140 Q659 64 588 24.5 Q517 -15 425 -15 Q322 -15 239.5 33.5 Q157 82 110.5 168 Q64 254 64 362 Q64 478 114 570.5 Q164 663 252 715.5 Q340 768 450 768 Q545 768 621 731 Q697 694 759 617 L686 542 Q640 604 581 633.5 Q522 663 447 663 Q368 663 306.5 625 Q245 587 210.5 519 Q176 451 176 364 Q176 284 208.5 222 Q241 160 299 125 Q357 90 431 90 Q512 90 567.5 134 Q623 178 640 254 L453 254 L466 350 L767 350 Z " />
<glyph glyph-name="Gcaron" unicode="&#x1e6;" horiz-adv-x="802" d="M658 957 L480 822 L355 958 L415 1008 L492 924 L609 1010 L658 957 Z M767 350 Q760 280 746 232 Q732 184 705 140 Q659 64 588 24.5 Q517 -15 425 -15 Q322 -15 239.5 33.5 Q157 82 110.5 168 Q64 254 64 362 Q64 478 114 570.5 Q164 663 252 715.5 Q340 768 450 768 Q545 768 621 731 Q697 694 759 617 L686 542 Q640 604 581 633.5 Q522 663 447 663 Q368 663 306.5 625 Q245 587 210.5 519 Q176 451 176 364 Q176 284 208.5 222 Q241 160 299 125 Q357 90 431 90 Q512 90 567.5 134 Q623 178 640 254 L453 254 L466 350 L767 350 Z " />
<glyph glyph-name="Gcircumflex" unicode="&#x11c;" horiz-adv-x="802" d="M334 873 L512 1010 L637 873 L577 824 L501 907 L383 822 L334 873 Z M767 350 Q760 280 746 232 Q732 184 705 140 Q659 64 588 24.5 Q517 -15 425 -15 Q322 -15 239.5 33.5 Q157 82 110.5 168 Q64 254 64 362 Q64 478 114 570.5 Q164 663 252 715.5 Q340 768 450 768 Q545 768 621 731 Q697 694 759 617 L686 542 Q640 604 581 633.5 Q522 663 447 663 Q368 663 306.5 625 Q245 587 210.5 519 Q176 451 176 364 Q176 284 208.5 222 Q241 160 299 125 Q357 90 431 90 Q512 90 567.5 134 Q623 178 640 254 L453 254 L466 350 L767 350 Z " />
<glyph glyph-name="uni0122" unicode="&#x122;" horiz-adv-x="802" d="M767 350 Q760 280 746 232 Q732 184 705 140 Q659 64 588 24.5 Q517 -15 425 -15 Q322 -15 239.5 33.5 Q157 82 110.5 168 Q64 254 64 362 Q64 478 114 570.5 Q164 663 252 715.5 Q340 768 450 768 Q545 768 621 731 Q697 694 759 617 L686 542 Q640 604 581 633.5 Q522 663 447 663 Q368 663 306.5 625 Q245 587 210.5 519 Q176 451 176 364 Q176 284 208.5 222 Q241 160 299 125 Q357 90 431 90 Q512 90 567.5 134 Q623 178 640 254 L453 254 L466 350 L767 350 Z M336 -275 L272 -244 L360 -60 L453 -96 L336 -275 Z " />
<glyph glyph-name="Gdotaccent" unicode="&#x120;" horiz-adv-x="802" d="M493 970 Q521 970 541.5 950 Q562 930 562 902 Q562 876 542 856.5 Q522 837 496 837 Q469 837 450 857 Q431 877 431 905 Q431 933 449 951.5 Q467 970 493 970 Z M767 350 Q760 280 746 232 Q732 184 705 140 Q659 64 588 24.5 Q517 -15 425 -15 Q322 -15 239.5 33.5 Q157 82 110.5 168 Q64 254 64 362 Q64 478 114 570.5 Q164 663 252 715.5 Q340 768 450 768 Q545 768 621 731 Q697 694 759 617 L686 542 Q640 604 581 633.5 Q522 663 447 663 Q368 663 306.5 625 Q245 587 210.5 519 Q176 451 176 364 Q176 284 208.5 222 Q241 160 299 125 Q357 90 431 90 Q512 90 567.5 134 Q623 178 640 254 L453 254 L466 350 L767 350 Z " />
<glyph glyph-name="H" unicode="H" horiz-adv-x="715" d="M481 0 L527 367 L216 367 L171 0 L59 0 L151 754 L263 754 L227 458 L538 458 L574 754 L686 754 L593 0 L481 0 Z " />
<glyph glyph-name="Hbar" unicode="&#x126;" horiz-adv-x="715" d="M662 559 L593 0 L481 0 L527 367 L216 367 L171 0 L59 0 L128 559 L60 559 L71 650 L139 650 L151 754 L263 754 L250 650 L562 650 L574 754 L686 754 L672 650 L740 650 L730 559 L662 559 Z M538 458 L550 559 L240 559 L227 458 L538 458 Z " />
<glyph glyph-name="Hcircumflex" unicode="&#x124;" horiz-adv-x="715" d="M278 873 L454 1010 L580 873 L520 824 L444 907 L325 822 L278 873 Z M481 0 L527 367 L216 367 L171 0 L59 0 L151 754 L263 754 L227 458 L538 458 L574 754 L686 754 L593 0 L481 0 Z " />
<glyph glyph-name="I" unicode="I" horiz-adv-x="293" d="M59 0 L151 754 L263 754 L171 0 L59 0 Z " />
<glyph glyph-name="IJ" unicode="&#x132;" horiz-adv-x="711" d="M59 0 L151 754 L263 754 L171 0 L59 0 Z M615 211 Q606 140 592.5 101.5 Q579 63 554 36 Q532 11 498.5 -2 Q465 -15 424 -15 Q378 -15 341 2.5 Q304 20 268 58 L325 140 Q354 112 375 101 Q396 90 419 90 Q447 90 464 107.5 Q481 125 492 167.5 Q503 210 513 290 L570 754 L681 754 L615 211 Z " />
<glyph glyph-name="Iacute" unicode="&#xcd;" horiz-adv-x="293" d="M164 857 L283 1010 L367 957 L223 822 L164 857 Z M59 0 L151 754 L263 754 L171 0 L59 0 Z " />
<glyph glyph-name="Ibreve" unicode="&#x12c;" horiz-adv-x="293" d="M156 981 Q156 941 170 922 Q184 903 214 903 Q244 903 265 921.5 Q286 940 302 981 L382 981 Q370 944 360.5 924.5 Q351 905 336 886 Q313 857 280 841 Q247 825 211 825 Q152 825 114.5 863 Q77 901 77 960 L77 981 L156 981 Z M59 0 L151 754 L263 754 L171 0 L59 0 Z " />
<glyph glyph-name="Icircumflex" unicode="&#xce;" horiz-adv-x="293" d="M73 873 L243 1010 L360 873 L301 824 L232 907 L122 822 L73 873 Z M59 0 L151 754 L263 754 L171 0 L59 0 Z " />
<glyph glyph-name="Idieresis" unicode="&#xcf;" horiz-adv-x="293" d="M131 967 Q158 967 177.5 948 Q197 929 197 902 Q197 877 178 858.5 Q159 840 133 840 Q107 840 89 859 Q71 878 71 905 Q71 932 88 949.5 Q105 967 131 967 Z M308 967 Q335 967 353.5 948 Q372 929 372 902 Q372 877 354.5 858.5 Q337 840 312 840 Q286 840 267.5 859 Q249 878 249 905 Q249 932 266 949.5 Q283 967 308 967 Z M59 0 L151 754 L263 754 L171 0 L59 0 Z " />
<glyph glyph-name="Idot" unicode="&#x130;" horiz-adv-x="293" d="M219 970 Q247 970 267.5 950 Q288 930 288 902 Q288 876 268.5 856.5 Q249 837 223 837 Q195 837 176 857 Q157 877 157 905 Q157 933 175 951.5 Q193 970 219 970 Z M59 0 L151 754 L263 754 L171 0 L59 0 Z " />
<glyph glyph-name="Igrave" unicode="&#xcc;" horiz-adv-x="293" d="M273 857 L215 822 L101 957 L185 1010 L273 857 Z M59 0 L151 754 L263 754 L171 0 L59 0 Z " />
<glyph glyph-name="Imacron" unicode="&#x12a;" horiz-adv-x="293" d="M355 859 L85 859 L95 941 L365 941 L355 859 Z M59 0 L151 754 L263 754 L171 0 L59 0 Z " />
<glyph glyph-name="Iogonek" unicode="&#x12e;" horiz-adv-x="293" d="M174 0 Q134 -37 119 -59 Q104 -81 104 -101 Q104 -114 112 -122.5 Q120 -131 132 -131 Q142 -131 154 -126.5 Q166 -122 188 -110 L165 -200 Q130 -218 104 -218 Q65 -218 37.5 -192 Q10 -166 10 -129 Q10 -95 30.5 -66.5 Q51 -38 102 0 L59 0 L151 754 L263 754 L174 0 Z " />
<glyph glyph-name="Itilde" unicode="&#x128;" horiz-adv-x="293" d="M391 929 Q346 840 283 840 Q264 840 245 846.5 Q226 853 194 871 Q176 881 168.5 884 Q161 887 154 887 Q143 887 132.5 877.5 Q122 868 103 840 L46 884 Q84 934 106.5 952 Q129 970 155 970 Q170 970 184 964.5 Q198 959 226 941 Q261 920 283 920 Q298 920 311.5 933.5 Q325 947 334 971 L391 929 Z M59 0 L151 754 L262 754 L169 0 L59 0 Z " />
<glyph glyph-name="J" unicode="J" horiz-adv-x="426" d="M330 211 Q322 141 308 102 Q294 63 269 36 Q247 11 213.5 -2 Q180 -15 139 -15 Q93 -15 56.5 2.5 Q20 20 -17 58 L41 140 Q70 112 90.5 101 Q111 90 134 90 Q162 90 179 107.5 Q196 125 207 167.5 Q218 210 228 290 L285 754 L397 754 L330 211 Z " />
<glyph glyph-name="Jcircumflex" unicode="&#x134;" horiz-adv-x="426" d="M194 873 L371 1010 L496 873 L436 824 L360 907 L242 822 L194 873 Z M330 211 Q322 141 308 102 Q294 63 269 36 Q247 11 213.5 -2 Q180 -15 139 -15 Q93 -15 56.5 2.5 Q20 20 -17 58 L41 140 Q70 112 90.5 101 Q111 90 134 90 Q162 90 179 107.5 Q196 125 207 167.5 Q218 210 228 290 L285 754 L397 754 L330 211 Z " />
<glyph glyph-name="K" unicode="K" horiz-adv-x="673" d="M528 754 L669 754 L318 403 L634 0 L499 0 L216 367 L171 0 L59 0 L151 754 L263 754 L224 434 L528 754 Z " />
<glyph glyph-name="uni0136" unicode="&#x136;" horiz-adv-x="673" d="M528 754 L669 754 L318 403 L634 0 L499 0 L216 367 L171 0 L59 0 L151 754 L263 754 L224 434 L528 754 Z M254 -275 L191 -244 L279 -60 L372 -96 L254 -275 Z " />
<glyph glyph-name="L" unicode="L" horiz-adv-x="431" d="M397 104 L383 0 L59 0 L151 754 L263 754 L183 104 L397 104 Z " />
<glyph glyph-name="Lacute" unicode="&#x139;" horiz-adv-x="431" d="M160 857 L295 1010 L380 957 L219 822 L160 857 Z M397 104 L383 0 L59 0 L151 754 L263 754 L183 104 L397 104 Z " />
<glyph glyph-name="Lcaron" unicode="&#x13d;" horiz-adv-x="431" d="M359 542 L295 573 L383 757 L476 721 L359 542 Z M397 104 L383 0 L59 0 L151 754 L263 754 L183 104 L397 104 Z " />
<glyph glyph-name="uni013B" unicode="&#x13b;" horiz-adv-x="431" d="M397 104 L383 0 L59 0 L151 754 L263 754 L183 104 L397 104 Z M159 -275 L96 -244 L184 -60 L277 -96 L159 -275 Z " />
<glyph glyph-name="Ldot" unicode="&#x13f;" horiz-adv-x="431" d="M397 104 L383 0 L59 0 L151 754 L263 754 L183 104 L397 104 Z M371 470 Q407 470 433.5 444 Q460 418 460 382 Q460 349 434 323.5 Q408 298 374 298 Q339 298 314 324 Q289 350 289 386 Q289 422 312.5 446 Q336 470 371 470 Z " />
<glyph glyph-name="Lslash" unicode="&#x141;" horiz-adv-x="431" d="M212 339 L183 104 L397 104 L384 0 L59 0 L95 293 L21 246 L35 354 L108 400 L151 754 L263 754 L226 446 L367 533 L354 426 L212 339 Z " />
<glyph glyph-name="M" unicode="M" horiz-adv-x="958" d="M774 0 L740 480 L448 -53 L287 480 L136 0 L22 0 L283 807 L473 191 L818 824 L880 0 L774 0 Z " />
<glyph glyph-name="N" unicode="N" horiz-adv-x="822" d="M236 532 L171 0 L59 0 L157 794 L614 211 L680 754 L792 754 L693 -52 L236 532 Z " />
<glyph glyph-name="Nacute" unicode="&#x143;" horiz-adv-x="822" d="M406 857 L539 1010 L624 957 L464 822 L406 857 Z M236 532 L171 0 L59 0 L157 794 L614 211 L680 754 L792 754 L693 -52 L236 532 Z " />
<glyph glyph-name="Ncaron" unicode="&#x147;" horiz-adv-x="822" d="M644 957 L468 822 L342 958 L402 1008 L478 924 L596 1010 L644 957 Z M236 532 L171 0 L59 0 L157 794 L614 211 L680 754 L792 754 L693 -52 L236 532 Z " />
<glyph glyph-name="uni0145" unicode="&#x145;" horiz-adv-x="822" d="M236 532 L171 0 L59 0 L157 794 L614 211 L680 754 L792 754 L693 -52 L236 532 Z M323 -275 L260 -244 L348 -60 L441 -96 L323 -275 Z " />
<glyph glyph-name="Eng" unicode="&#x14a;" horiz-adv-x="715" d="M254 684 Q304 732 345 750 Q386 768 443 768 Q541 768 599 711 Q657 654 657 557 Q657 521 650 461 L605 89 Q596 26 581.5 -14 Q567 -54 544 -80 Q514 -113 468 -131.5 Q422 -150 371 -150 Q339 -150 314.5 -144 Q290 -138 250 -121 L262 -16 Q307 -36 327 -41.5 Q347 -47 373 -47 Q404 -47 427 -36 Q450 -25 463 -5 Q476 14 482.5 38.5 Q489 63 495 113 L533 421 Q542 497 542 532 Q542 599 511.5 631.5 Q481 664 417 664 Q371 664 330 642 Q289 620 268 584 Q237 532 220 407 L171 0 L59 0 L151 754 L263 754 L254 684 Z " />
<glyph glyph-name="Ntilde" unicode="&#xd1;" horiz-adv-x="822" d="M654 929 Q610 840 546 840 Q527 840 508.5 846.5 Q490 853 458 871 Q440 881 432 884 Q424 887 417 887 Q406 887 395.5 877.5 Q385 868 366 840 L310 884 Q346 934 368.5 952 Q391 970 418 970 Q433 970 446.5 964.5 Q460 959 489 941 Q509 929 521.5 924.5 Q534 920 546 920 Q561 920 574.5 933 Q588 946 598 971 L654 929 Z M236 532 L171 0 L59 0 L157 794 L614 211 L680 754 L792 754 L693 -52 L236 532 Z " />
<glyph glyph-name="O" unicode="O" horiz-adv-x="886" d="M466 768 Q580 768 668 721 Q756 674 804 589 Q852 504 852 392 Q852 277 799.5 184 Q747 91 655 38 Q563 -15 449 -15 Q337 -15 250 34.5 Q163 84 114.5 172.5 Q66 261 66 374 Q66 486 118 576 Q170 666 261 717 Q352 768 466 768 Z M469 663 Q387 663 320.5 625 Q254 587 215.5 521 Q177 455 177 373 Q177 293 212.5 228 Q248 163 310.5 126.5 Q373 90 451 90 Q532 90 598 129.5 Q664 169 701.5 238 Q739 307 739 392 Q739 474 706 535 Q673 596 612 629.5 Q551 663 469 663 Z " />
<glyph glyph-name="Oacute" unicode="&#xd3;" horiz-adv-x="886" d="M453 857 L586 1010 L671 957 L512 822 L453 857 Z M466 768 Q580 768 668 721 Q756 674 804 589 Q852 504 852 392 Q852 277 799.5 184 Q747 91 655 38 Q563 -15 449 -15 Q337 -15 250 34.5 Q163 84 114.5 172.5 Q66 261 66 374 Q66 486 118 576 Q170 666 261 717 Q352 768 466 768 Z M469 663 Q387 663 320.5 625 Q254 587 215.5 521 Q177 455 177 373 Q177 293 212.5 228 Q248 163 310.5 126.5 Q373 90 451 90 Q532 90 598 129.5 Q664 169 701.5 238 Q739 307 739 392 Q739 474 706 535 Q673 596 612 629.5 Q551 663 469 663 Z " />
<glyph glyph-name="Obreve" unicode="&#x14e;" horiz-adv-x="886" d="M432 981 Q433 940 446.5 921.5 Q460 903 489 903 Q520 903 541 921.5 Q562 940 577 981 L658 981 Q646 944 636.5 924.5 Q627 905 611 886 Q589 857 556 841 Q523 825 487 825 Q428 825 390.5 863 Q353 901 353 960 L353 981 L432 981 Z M466 768 Q580 768 668 721 Q756 674 804 589 Q852 504 852 392 Q852 277 799.5 184 Q747 91 655 38 Q563 -15 449 -15 Q337 -15 250 34.5 Q163 84 114.5 172.5 Q66 261 66 374 Q66 486 118 576 Q170 666 261 717 Q352 768 466 768 Z M469 663 Q387 663 320.5 625 Q254 587 215.5 521 Q177 455 177 373 Q177 293 212.5 228 Q248 163 310.5 126.5 Q373 90 451 90 Q532 90 598 129.5 Q664 169 701.5 238 Q739 307 739 392 Q739 474 706 535 Q673 596 612 629.5 Q551 663 469 663 Z " />
<glyph glyph-name="Ocircumflex" unicode="&#xd4;" horiz-adv-x="886" d="M365 873 L542 1010 L668 873 L608 824 L531 907 L414 822 L365 873 Z M466 768 Q580 768 668 721 Q756 674 804 589 Q852 504 852 392 Q852 277 799.5 184 Q747 91 655 38 Q563 -15 449 -15 Q337 -15 250 34.5 Q163 84 114.5 172.5 Q66 261 66 374 Q66 486 118 576 Q170 666 261 717 Q352 768 466 768 Z M469 663 Q387 663 320.5 625 Q254 587 215.5 521 Q177 455 177 373 Q177 293 212.5 228 Q248 163 310.5 126.5 Q373 90 451 90 Q532 90 598 129.5 Q664 169 701.5 238 Q739 307 739 392 Q739 474 706 535 Q673 596 612 629.5 Q551 663 469 663 Z " />
<glyph glyph-name="Odieresis" unicode="&#xd6;" horiz-adv-x="886" d="M420 967 Q447 967 466.5 948 Q486 929 486 902 Q486 877 467 858.5 Q448 840 423 840 Q397 840 378.5 859 Q360 878 360 905 Q360 932 377 949.5 Q394 967 420 967 Z M618 967 Q644 967 662.5 948 Q681 929 681 902 Q681 877 663.5 858.5 Q646 840 621 840 Q595 840 576.5 859 Q558 878 558 905 Q558 932 575 949.5 Q592 967 618 967 Z M466 768 Q580 768 668 721 Q756 674 804 589 Q852 504 852 392 Q852 277 799.5 184 Q747 91 655 38 Q563 -15 449 -15 Q337 -15 250 34.5 Q163 84 114.5 172.5 Q66 261 66 374 Q66 486 118 576 Q170 666 261 717 Q352 768 466 768 Z M469 663 Q387 663 320.5 625 Q254 587 215.5 521 Q177 455 177 373 Q177 293 212.5 228 Q248 163 310.5 126.5 Q373 90 451 90 Q532 90 598 129.5 Q664 169 701.5 238 Q739 307 739 392 Q739 474 706 535 Q673 596 612 629.5 Q551 663 469 663 Z " />
<glyph glyph-name="Ograve" unicode="&#xd2;" horiz-adv-x="886" d="M577 857 L519 822 L397 957 L481 1010 L577 857 Z M466 768 Q580 768 668 721 Q756 674 804 589 Q852 504 852 392 Q852 277 799.5 184 Q747 91 655 38 Q563 -15 449 -15 Q337 -15 250 34.5 Q163 84 114.5 172.5 Q66 261 66 374 Q66 486 118 576 Q170 666 261 717 Q352 768 466 768 Z M469 663 Q387 663 320.5 625 Q254 587 215.5 521 Q177 455 177 373 Q177 293 212.5 228 Q248 163 310.5 126.5 Q373 90 451 90 Q532 90 598 129.5 Q664 169 701.5 238 Q739 307 739 392 Q739 474 706 535 Q673 596 612 629.5 Q551 663 469 663 Z " />
<glyph glyph-name="Ohorn" unicode="&#x1a0;" horiz-adv-x="886" d="M906 764 L798 599 Q852 510 852 397 Q852 279 800 185 Q748 91 656 38 Q564 -15 449 -15 Q337 -15 250 34.5 Q163 84 114.5 172.5 Q66 261 66 374 Q66 487 118 576.5 Q170 666 261.5 717 Q353 768 467 768 Q639 768 748 662 L814 800 L906 764 Z M470 663 Q388 663 321 625 Q254 587 215.5 521 Q177 455 177 373 Q177 293 212.5 228 Q248 163 311 126.5 Q374 90 452 90 Q533 90 599 129.5 Q665 169 702.5 238 Q740 307 740 392 Q740 474 707 535 Q674 596 613 629.5 Q552 663 470 663 Z " />
<glyph glyph-name="Ohungarumlaut" unicode="&#x150;" horiz-adv-x="886" d="M381 857 L505 1010 L581 957 L429 824 L381 857 Z M570 857 L694 1010 L770 957 L618 824 L570 857 Z M466 768 Q580 768 668 721 Q756 674 804 589 Q852 504 852 392 Q852 277 799.5 184 Q747 91 655 38 Q563 -15 449 -15 Q337 -15 250 34.5 Q163 84 114.5 172.5 Q66 261 66 374 Q66 486 118 576 Q170 666 261 717 Q352 768 466 768 Z M469 663 Q387 663 320.5 625 Q254 587 215.5 521 Q177 455 177 373 Q177 293 212.5 228 Q248 163 310.5 126.5 Q373 90 451 90 Q532 90 598 129.5 Q664 169 701.5 238 Q739 307 739 392 Q739 474 706 535 Q673 596 612 629.5 Q551 663 469 663 Z " />
<glyph glyph-name="Omacron" unicode="&#x14c;" horiz-adv-x="886" d="M690 859 L345 859 L355 941 L701 941 L690 859 Z M466 768 Q580 768 668 721 Q756 674 804 589 Q852 504 852 392 Q852 277 799.5 184 Q747 91 655 38 Q563 -15 449 -15 Q337 -15 250 34.5 Q163 84 114.5 172.5 Q66 261 66 374 Q66 486 118 576 Q170 666 261 717 Q352 768 466 768 Z M469 663 Q387 663 320.5 625 Q254 587 215.5 521 Q177 455 177 373 Q177 293 212.5 228 Q248 163 310.5 126.5 Q373 90 451 90 Q532 90 598 129.5 Q664 169 701.5 238 Q739 307 739 392 Q739 474 706 535 Q673 596 612 629.5 Q551 663 469 663 Z " />
<glyph glyph-name="Oslash" unicode="&#xd8;" horiz-adv-x="886" d="M38 60 L130 142 Q93 213 79.5 261.5 Q66 310 66 373 Q66 486 117.5 576 Q169 666 261 717 Q353 768 468 768 Q546 768 605.5 748 Q665 728 731 680 L825 762 L879 702 L784 617 Q819 573 835.5 518.5 Q852 464 852 394 Q852 278 799.5 184.5 Q747 91 655 38 Q563 -15 449 -15 Q370 -15 309.5 7 Q249 29 180 84 L88 1 L38 60 Z M646 605 Q614 634 570.5 648.5 Q527 663 468 663 Q387 663 320 625 Q253 587 215 520.5 Q177 454 177 372 Q177 335 186 302 Q195 269 217 220 L646 605 Z M267 159 Q308 123 352 106.5 Q396 90 453 90 Q534 90 599.5 129.5 Q665 169 702.5 238.5 Q740 308 740 393 Q740 484 701 542 L267 159 Z " />
<glyph glyph-name="Oslashacute" unicode="&#x1fe;" horiz-adv-x="886" d="M384 857 L518 1010 L602 957 L442 822 L384 857 Z M38 60 L130 142 Q93 213 79.5 261.5 Q66 310 66 373 Q66 486 117.5 576 Q169 666 261 717 Q353 768 468 768 Q546 768 605.5 748 Q665 728 731 680 L825 762 L879 702 L784 617 Q819 573 835.5 518.5 Q852 464 852 394 Q852 278 799.5 184.5 Q747 91 655 38 Q563 -15 449 -15 Q370 -15 309.5 7 Q249 29 180 84 L88 1 L38 60 Z M646 605 Q614 634 570.5 648.5 Q527 663 468 663 Q387 663 320 625 Q253 587 215 520.5 Q177 454 177 372 Q177 335 186 302 Q195 269 217 220 L646 605 Z M267 159 Q308 123 352 106.5 Q396 90 453 90 Q534 90 599.5 129.5 Q665 169 702.5 238.5 Q740 308 740 393 Q740 484 701 542 L267 159 Z " />
<glyph glyph-name="Otilde" unicode="&#xd5;" horiz-adv-x="886" d="M695 929 Q672 883 645 861.5 Q618 840 586 840 Q567 840 548.5 846.5 Q530 853 498 871 Q480 881 472.5 884 Q465 887 458 887 Q447 887 436.5 877.5 Q426 868 407 840 L350 884 Q387 934 409.5 952 Q432 970 459 970 Q474 970 486.5 964.5 Q499 959 530 941 Q550 929 562.5 924.5 Q575 920 586 920 Q602 920 615.5 933 Q629 946 638 971 L695 929 Z M466 768 Q580 768 668 721 Q756 674 804 589 Q852 504 852 392 Q852 277 799.5 184 Q747 91 655 38 Q563 -15 449 -15 Q337 -15 250 34.5 Q163 84 114.5 172.5 Q66 261 66 374 Q66 486 118 576 Q170 666 261 717 Q352 768 466 768 Z M469 663 Q387 663 320.5 625 Q254 587 215.5 521 Q177 455 177 373 Q177 293 212.5 228 Q248 163 310.5 126.5 Q373 90 451 90 Q532 90 598 129.5 Q664 169 701.5 238 Q739 307 739 392 Q739 474 706 535 Q673 596 612 629.5 Q551 663 469 663 Z " />
<glyph glyph-name="OE" unicode="&#x152;" horiz-adv-x="1187" d="M888 650 L864 452 L1158 452 L1146 356 L852 356 L822 104 L1115 104 L1103 0 L697 0 L710 102 Q647 39 585.5 12 Q524 -15 442 -15 Q335 -15 248.5 34.5 Q162 84 113 170.5 Q64 257 64 365 Q64 479 116.5 571 Q169 663 262 715.5 Q355 768 470 768 Q566 768 637.5 731 Q709 694 772 611 L790 754 L1190 754 L1177 650 L888 650 Z M462 663 Q383 663 317.5 623.5 Q252 584 214 515.5 Q176 447 176 363 Q176 285 211.5 222.5 Q247 160 310.5 125 Q374 90 453 90 Q535 90 601.5 128.5 Q668 167 706 234.5 Q744 302 744 384 Q744 467 709 530 Q674 593 610 628 Q546 663 462 663 Z " />
<glyph glyph-name="P" unicode="P" horiz-adv-x="557" d="M304 754 Q356 754 392.5 746 Q429 738 457 721 Q499 694 523.5 645.5 Q548 597 548 539 Q548 493 533 451.5 Q518 410 489 380 Q455 342 406.5 323.5 Q358 305 290 305 L208 305 L171 0 L59 0 L151 754 L304 754 Z M293 403 Q363 403 398 438 Q415 456 425.5 484 Q436 512 436 541 Q436 571 423.5 595 Q411 619 389 633 Q360 650 298 650 L250 650 L220 403 L293 403 Z " />
<glyph glyph-name="Thorn" unicode="&#xde;" horiz-adv-x="557" d="M250 647 L292 647 Q344 647 380.5 639.5 Q417 632 444 615 Q487 588 511.5 539.5 Q536 491 536 433 Q536 388 520.5 347 Q505 306 477 275 Q443 237 394.5 218.5 Q346 200 278 200 L195 200 L171 0 L59 0 L151 754 L263 754 L250 647 Z M280 298 Q352 298 385 333 Q403 351 413.5 379 Q424 407 424 436 Q424 465 411.5 488.5 Q399 512 376 527 Q345 544 285 544 L237 544 L207 298 L280 298 Z " />
<glyph glyph-name="Q" unicode="Q" horiz-adv-x="887" d="M629 25 Q586 4 544 -5.5 Q502 -15 449 -15 Q336 -15 249 33.5 Q162 82 114 170 Q66 258 66 371 Q66 485 118 576 Q170 667 262 718.5 Q354 770 468 770 Q579 770 665.5 721 Q752 672 800.5 584.5 Q849 497 849 385 Q849 290 814.5 215.5 Q780 141 707 77 L808 -31 L681 -31 L629 25 Z M638 151 Q737 238 737 390 Q737 471 704 533 Q671 595 611 629.5 Q551 664 473 664 Q389 664 321.5 626 Q254 588 215.5 521.5 Q177 455 177 371 Q177 291 212.5 226.5 Q248 162 310.5 125.5 Q373 89 451 89 Q503 89 555 105 L414 259 L537 259 L638 151 Z " />
<glyph glyph-name="R" unicode="R" horiz-adv-x="596" d="M427 0 L249 310 L208 310 L171 0 L59 0 L151 754 L299 754 Q364 754 404 743.5 Q444 733 473 709 Q507 680 526.5 635 Q546 590 546 539 Q546 491 528.5 448.5 Q511 406 479 376 Q457 354 429.5 341.5 Q402 329 357 318 L546 0 L427 0 Z M272 408 Q322 408 351 416.5 Q380 425 399 446 Q415 464 424.5 489 Q434 514 434 540 Q434 574 418.5 600.5 Q403 627 376 638 Q347 650 297 650 L250 650 L220 408 L272 408 Z " />
<glyph glyph-name="Racute" unicode="&#x154;" horiz-adv-x="596" d="M273 857 L408 1010 L493 957 L332 822 L273 857 Z M427 0 L249 310 L208 310 L171 0 L59 0 L151 754 L299 754 Q364 754 404 743.5 Q444 733 473 709 Q507 680 526.5 635 Q546 590 546 539 Q546 491 528.5 448.5 Q511 406 479 376 Q457 354 429.5 341.5 Q402 329 357 318 L546 0 L427 0 Z M272 408 Q322 408 351 416.5 Q380 425 399 446 Q415 464 424.5 489 Q434 514 434 540 Q434 574 418.5 600.5 Q403 627 376 638 Q347 650 297 650 L250 650 L220 408 L272 408 Z " />
<glyph glyph-name="Rcaron" unicode="&#x158;" horiz-adv-x="596" d="M514 957 L337 822 L211 958 L271 1008 L347 924 L466 1010 L514 957 Z M427 0 L249 310 L208 310 L171 0 L59 0 L151 754 L299 754 Q364 754 404 743.5 Q444 733 473 709 Q507 680 526.5 635 Q546 590 546 539 Q546 491 528.5 448.5 Q511 406 479 376 Q457 354 429.5 341.5 Q402 329 357 318 L546 0 L427 0 Z M272 408 Q322 408 351 416.5 Q380 425 399 446 Q415 464 424.5 489 Q434 514 434 540 Q434 574 418.5 600.5 Q403 627 376 638 Q347 650 297 650 L250 650 L220 408 L272 408 Z " />
<glyph glyph-name="uni0156" unicode="&#x156;" horiz-adv-x="596" d="M427 0 L249 310 L208 310 L171 0 L59 0 L151 754 L299 754 Q364 754 404 743.5 Q444 733 473 709 Q507 680 526.5 635 Q546 590 546 539 Q546 491 528.5 448.5 Q511 406 479 376 Q457 354 429.5 341.5 Q402 329 357 318 L546 0 L427 0 Z M272 408 Q322 408 351 416.5 Q380 425 399 446 Q415 464 424.5 489 Q434 514 434 540 Q434 574 418.5 600.5 Q403 627 376 638 Q347 650 297 650 L250 650 L220 408 L272 408 Z M219 -275 L155 -244 L243 -60 L336 -96 L219 -275 Z " />
<glyph glyph-name="S" unicode="S" horiz-adv-x="558" d="M472 586 Q443 629 415.5 646.5 Q388 664 350 664 Q301 664 268 633 Q235 602 235 556 Q235 519 258 492.5 Q281 466 345 428 Q410 390 444.5 358.5 Q479 327 493 291.5 Q507 256 507 205 Q507 141 478 91 Q449 41 396.5 13 Q344 -15 276 -15 Q228 -15 182.5 0.5 Q137 16 104 43 Q83 60 67.5 80.5 Q52 101 31 139 L115 197 Q150 136 183.5 113 Q217 90 269 90 Q328 90 361.5 122 Q395 154 395 210 Q395 237 385 257 Q375 277 349.5 297.5 Q324 318 273 348 Q215 383 183 413 Q151 443 137 477.5 Q123 512 123 558 Q123 618 152 666.5 Q181 715 232 742.5 Q283 770 346 770 Q408 770 454 744.5 Q500 719 547 658 L472 586 Z " />
<glyph glyph-name="Sacute" unicode="&#x15a;" horiz-adv-x="558" d="M296 857 L429 1010 L514 957 L355 822 L296 857 Z M472 586 Q443 629 415.5 646.5 Q388 664 350 664 Q301 664 268 633 Q235 602 235 556 Q235 519 258 492.5 Q281 466 345 428 Q410 390 444.5 358.5 Q479 327 493 291.5 Q507 256 507 205 Q507 141 478 91 Q449 41 396.5 13 Q344 -15 276 -15 Q228 -15 182.5 0.5 Q137 16 104 43 Q83 60 67.5 80.5 Q52 101 31 139 L115 197 Q150 136 183.5 113 Q217 90 269 90 Q328 90 361.5 122 Q395 154 395 210 Q395 237 385 257 Q375 277 349.5 297.5 Q324 318 273 348 Q215 383 183 413 Q151 443 137 477.5 Q123 512 123 558 Q123 618 152 666.5 Q181 715 232 742.5 Q283 770 346 770 Q408 770 454 744.5 Q500 719 547 658 L472 586 Z " />
<glyph glyph-name="Scaron" unicode="&#x160;" horiz-adv-x="558" d="M534 957 L357 822 L232 958 L292 1008 L367 924 L486 1010 L534 957 Z M472 586 Q443 629 415.5 646.5 Q388 664 350 664 Q301 664 268 633 Q235 602 235 556 Q235 519 258 492.5 Q281 466 345 428 Q410 390 444.5 358.5 Q479 327 493 291.5 Q507 256 507 205 Q507 141 478 91 Q449 41 396.5 13 Q344 -15 276 -15 Q228 -15 182.5 0.5 Q137 16 104 43 Q83 60 67.5 80.5 Q52 101 31 139 L115 197 Q150 136 183.5 113 Q217 90 269 90 Q328 90 361.5 122 Q395 154 395 210 Q395 237 385 257 Q375 277 349.5 297.5 Q324 318 273 348 Q215 383 183 413 Q151 443 137 477.5 Q123 512 123 558 Q123 618 152 666.5 Q181 715 232 742.5 Q283 770 346 770 Q408 770 454 744.5 Q500 719 547 658 L472 586 Z " />
<glyph glyph-name="Scedilla" unicode="&#x15e;" horiz-adv-x="558" d="M472 586 Q443 629 415.5 646.5 Q388 664 350 664 Q301 664 268 633 Q235 602 235 556 Q235 519 258 492.5 Q281 466 345 428 Q410 390 444.5 358.5 Q479 327 493 291.5 Q507 256 507 205 Q507 141 478 91 Q449 41 396.5 13 Q344 -15 276 -15 Q228 -15 182.5 0.5 Q137 16 104 43 Q83 60 67.5 80.5 Q52 101 31 139 L115 197 Q150 136 183.5 113 Q217 90 269 90 Q328 90 361.5 122 Q395 154 395 210 Q395 237 385 257 Q375 277 349.5 297.5 Q324 318 273 348 Q215 383 183 413 Q151 443 137 477.5 Q123 512 123 558 Q123 618 152 666.5 Q181 715 232 742.5 Q283 770 346 770 Q408 770 454 744.5 Q500 719 547 658 L472 586 Z M127 -206 L226 -53 L322 -103 L188 -241 L127 -206 Z " />
<glyph glyph-name="Scircumflex" unicode="&#x15c;" horiz-adv-x="558" d="M217 873 L393 1010 L519 873 L459 824 L383 907 L264 822 L217 873 Z M472 586 Q443 629 415.5 646.5 Q388 664 350 664 Q301 664 268 633 Q235 602 235 556 Q235 519 258 492.5 Q281 466 345 428 Q410 390 444.5 358.5 Q479 327 493 291.5 Q507 256 507 205 Q507 141 478 91 Q449 41 396.5 13 Q344 -15 276 -15 Q228 -15 182.5 0.5 Q137 16 104 43 Q83 60 67.5 80.5 Q52 101 31 139 L115 197 Q150 136 183.5 113 Q217 90 269 90 Q328 90 361.5 122 Q395 154 395 210 Q395 237 385 257 Q375 277 349.5 297.5 Q324 318 273 348 Q215 383 183 413 Q151 443 137 477.5 Q123 512 123 558 Q123 618 152 666.5 Q181 715 232 742.5 Q283 770 346 770 Q408 770 454 744.5 Q500 719 547 658 L472 586 Z " />
<glyph glyph-name="uni0218" unicode="&#x218;" horiz-adv-x="558" d="M472 586 Q443 629 415.5 646.5 Q388 664 350 664 Q301 664 268 633 Q235 602 235 556 Q235 519 258 492.5 Q281 466 345 428 Q410 390 444.5 358.5 Q479 327 493 291.5 Q507 256 507 205 Q507 141 478 91 Q449 41 396.5 13 Q344 -15 276 -15 Q228 -15 182.5 0.5 Q137 16 104 43 Q83 60 67.5 80.5 Q52 101 31 139 L115 197 Q150 136 183.5 113 Q217 90 269 90 Q328 90 361.5 122 Q395 154 395 210 Q395 237 385 257 Q375 277 349.5 297.5 Q324 318 273 348 Q215 383 183 413 Q151 443 137 477.5 Q123 512 123 558 Q123 618 152 666.5 Q181 715 232 742.5 Q283 770 346 770 Q408 770 454 744.5 Q500 719 547 658 L472 586 Z M201 -275 L138 -244 L226 -60 L319 -96 L201 -275 Z " />
<glyph glyph-name="uni1E9E" unicode="&#x1e9e;" horiz-adv-x="707" d="M507 427 Q573 395 612 343 Q651 291 651 228 Q651 154 619 99 Q587 44 529.5 14.5 Q472 -15 399 -15 Q321 -15 260 10 L278 127 Q334 92 399 92 Q458 92 497 127.5 Q536 163 536 223 Q536 277 494.5 313.5 Q453 350 358 377 L522 636 Q468 661 398 661 Q317 661 273.5 617.5 Q230 574 218 478 L159 0 L45 0 L106 499 Q122 627 204.5 696 Q287 765 411 765 Q559 765 666 679 L507 427 Z " />
<glyph glyph-name="uni018F" unicode="&#x18f;" horiz-adv-x="886" d="M449 -15 Q337 -15 250 34.5 Q163 84 114.5 172.5 Q66 261 66 374 Q66 399 69 421 L738 421 Q729 532 657 597.5 Q585 663 469 663 Q386 663 318 624 Q250 585 213 518 L116 574 Q167 664 259 716 Q351 768 466 768 Q580 768 668 721 Q756 674 804 589 Q852 504 852 392 Q852 277 799.5 184 Q747 91 655 38 Q563 -15 449 -15 Z M451 90 Q522 90 582 121 Q642 152 682 206.5 Q722 261 734 332 L180 332 Q188 262 225.5 207 Q263 152 321.5 121 Q380 90 451 90 Z " />
<glyph glyph-name="T" unicode="T" horiz-adv-x="479" d="M156 0 L235 650 L55 650 L68 754 L532 754 L520 650 L347 650 L267 0 L156 0 Z " />
<glyph glyph-name="Tbar" unicode="&#x166;" horiz-adv-x="479" d="M320 432 L267 0 L156 0 L209 432 L73 432 L85 522 L220 522 L235 650 L55 650 L68 754 L532 754 L520 650 L347 650 L331 522 L467 522 L455 432 L320 432 Z " />
<glyph glyph-name="Tcaron" unicode="&#x164;" horiz-adv-x="479" d="M486 957 L310 822 L184 958 L244 1008 L320 924 L438 1010 L486 957 Z M156 0 L235 650 L55 650 L68 754 L532 754 L520 650 L347 650 L267 0 L156 0 Z " />
<glyph glyph-name="uni0162" unicode="&#x162;" horiz-adv-x="479" d="M156 0 L235 650 L55 650 L68 754 L532 754 L520 650 L347 650 L267 0 L156 0 Z M147 -275 L82 -244 L171 -60 L263 -96 L147 -275 Z " />
<glyph glyph-name="U" unicode="U" horiz-adv-x="744" d="M659 307 Q649 227 633.5 178 Q618 129 590 92 Q551 41 492 13 Q433 -15 364 -15 Q288 -15 226 17.5 Q164 50 128.5 106.5 Q93 163 93 233 Q93 278 99 332 L151 754 L262 754 L209 318 Q205 270 205 252 Q205 176 247 133 Q289 90 362 90 Q411 90 449.5 112 Q488 134 511 175 Q525 201 534 235.5 Q543 270 549 323 L602 754 L714 754 L659 307 Z " />
<glyph glyph-name="Uacute" unicode="&#xda;" horiz-adv-x="744" d="M377 857 L511 1010 L596 957 L435 822 L377 857 Z M659 307 Q649 227 633.5 178 Q618 129 590 92 Q551 41 492 13 Q433 -15 364 -15 Q288 -15 226 17.5 Q164 50 128.5 106.5 Q93 163 93 233 Q93 278 99 332 L151 754 L262 754 L209 318 Q205 270 205 252 Q205 176 247 133 Q289 90 362 90 Q411 90 449.5 112 Q488 134 511 175 Q525 202 534 236 Q543 270 549 323 L602 754 L714 754 L659 307 Z " />
<glyph glyph-name="Ubreve" unicode="&#x16c;" horiz-adv-x="744" d="M373 981 Q374 940 387.5 921.5 Q401 903 431 903 Q461 903 482 921.5 Q503 940 520 981 L599 981 Q588 945 578 925 Q568 905 553 886 Q530 857 497 841 Q464 825 428 825 Q369 825 331.5 863 Q294 901 294 960 L294 981 L373 981 Z M659 307 Q649 227 633.5 178 Q618 129 590 92 Q551 41 492 13 Q433 -15 364 -15 Q288 -15 226 17.5 Q164 50 128.5 106.5 Q93 163 93 233 Q93 278 99 332 L151 754 L262 754 L209 318 Q205 270 205 252 Q205 176 247 133 Q289 90 362 90 Q411 90 449.5 112 Q488 134 511 175 Q525 201 534 235.5 Q543 270 549 323 L602 754 L714 754 L659 307 Z " />
<glyph glyph-name="Ucircumflex" unicode="&#xdb;" horiz-adv-x="744" d="M294 873 L470 1010 L596 873 L536 824 L460 907 L342 822 L294 873 Z M659 307 Q649 227 633.5 178 Q618 129 590 92 Q551 41 492 13 Q433 -15 364 -15 Q288 -15 226 17.5 Q164 50 128.5 106.5 Q93 163 93 233 Q93 278 99 332 L151 754 L262 754 L209 318 Q205 270 205 252 Q205 176 247 133 Q289 90 362 90 Q411 90 449.5 112 Q488 134 511 175 Q525 202 534 236 Q543 270 549 323 L602 754 L714 754 L659 307 Z " />
<glyph glyph-name="Udieresis" unicode="&#xdc;" horiz-adv-x="744" d="M346 967 Q372 967 391.5 948 Q411 929 411 902 Q411 877 392 858.5 Q373 840 348 840 Q322 840 304 859 Q286 878 286 905 Q286 932 303 949.5 Q320 967 346 967 Z M544 967 Q570 967 588.5 948 Q607 929 607 902 Q607 877 589.5 858.5 Q572 840 547 840 Q521 840 502.5 859 Q484 878 484 905 Q484 932 501 949.5 Q518 967 544 967 Z M659 307 Q649 227 633.5 178 Q618 129 590 92 Q551 41 492 13 Q433 -15 364 -15 Q288 -15 226 17.5 Q164 50 128.5 106.5 Q93 163 93 233 Q93 278 99 332 L151 754 L262 754 L209 318 Q205 270 205 252 Q205 176 247 133 Q289 90 362 90 Q411 90 449.5 112 Q488 134 511 175 Q525 202 534 236 Q543 270 549 323 L602 754 L714 754 L659 307 Z " />
<glyph glyph-name="Ugrave" unicode="&#xd9;" horiz-adv-x="744" d="M505 857 L446 822 L324 957 L409 1010 L505 857 Z M659 307 Q649 227 633.5 178 Q618 129 590 92 Q551 41 492 13 Q433 -15 364 -15 Q288 -15 226 17.5 Q164 50 128.5 106.5 Q93 163 93 233 Q93 278 99 332 L151 754 L262 754 L209 318 Q205 270 205 252 Q205 176 247 133 Q289 90 362 90 Q411 90 449.5 112 Q488 134 511 175 Q525 202 534 236 Q543 270 549 323 L602 754 L714 754 L659 307 Z " />
<glyph glyph-name="Uhorn" unicode="&#x1af;" horiz-adv-x="744" d="M785 597 L722 627 L810 810 L903 774 L785 597 Z M659 307 Q649 227 633.5 178 Q618 129 590 92 Q551 41 492 13 Q433 -15 364 -15 Q288 -15 226 17.5 Q164 50 128.5 106.5 Q93 163 93 233 Q93 278 99 332 L151 754 L262 754 L209 318 Q205 270 205 252 Q205 176 247 133 Q289 90 362 90 Q411 90 449.5 112 Q488 134 511 175 Q525 201 534 235.5 Q543 270 549 323 L602 754 L714 754 L659 307 Z " />
<glyph glyph-name="Uhungarumlaut" unicode="&#x170;" horiz-adv-x="744" d="M307 857 L432 1010 L507 957 L356 824 L307 857 Z M495 857 L620 1010 L695 957 L545 824 L495 857 Z M659 307 Q649 227 633.5 178 Q618 129 590 92 Q551 41 492 13 Q433 -15 364 -15 Q288 -15 226 17.5 Q164 50 128.5 106.5 Q93 163 93 233 Q93 278 99 332 L151 754 L262 754 L209 318 Q205 270 205 252 Q205 176 247 133 Q289 90 362 90 Q411 90 449.5 112 Q488 134 511 175 Q525 202 534 236 Q543 270 549 323 L602 754 L714 754 L659 307 Z " />
<glyph glyph-name="Umacron" unicode="&#x16a;" horiz-adv-x="744" d="M616 859 L270 859 L280 941 L626 941 L616 859 Z M659 307 Q649 227 633.5 178 Q618 129 590 92 Q551 41 492 13 Q433 -15 364 -15 Q288 -15 226 17.5 Q164 50 128.5 106.5 Q93 163 93 233 Q93 278 99 332 L151 754 L262 754 L209 318 Q205 270 205 252 Q205 176 247 133 Q289 90 362 90 Q411 90 449.5 112 Q488 134 511 175 Q525 202 534 236 Q543 270 549 323 L602 754 L714 754 L659 307 Z " />
<glyph glyph-name="Uogonek" unicode="&#x172;" horiz-adv-x="744" d="M518 -200 Q499 -210 482.5 -214 Q466 -218 445 -218 Q400 -218 372 -193.5 Q344 -169 344 -129 Q344 -94 363 -68 Q382 -42 432 -8 Q391 -15 359 -15 Q285 -15 224 17.5 Q163 50 128 107 Q93 164 93 233 Q93 278 99 332 L151 754 L262 754 L209 318 Q205 270 205 252 Q205 176 247 133 Q289 90 362 90 Q411 90 449.5 112 Q488 134 511 175 Q525 201 534 235.5 Q543 270 549 323 L602 754 L714 754 L659 307 Q648 225 634 178.5 Q620 132 593 96 Q566 60 514 15 Q474 -22 455.5 -50 Q437 -78 437 -102 Q437 -116 446 -123.5 Q455 -131 471 -131 Q500 -131 539 -110 L518 -200 Z " />
<glyph glyph-name="Uring" unicode="&#x16e;" horiz-adv-x="744" d="M454 1037 Q500 1037 531.5 1006 Q563 975 563 929 Q563 885 531 853.5 Q499 822 455 822 Q410 822 378.5 853.5 Q347 885 347 930 Q347 975 378 1006 Q409 1037 454 1037 Z M454 974 Q435 974 422.5 961.5 Q410 949 410 930 Q410 911 423.5 898 Q437 885 455 885 Q473 885 486 898 Q499 911 499 930 Q499 949 486 961.5 Q473 974 454 974 Z M659 307 Q649 227 633.5 178 Q618 129 590 92 Q551 41 492 13 Q433 -15 364 -15 Q288 -15 226 17.5 Q164 50 128.5 106.5 Q93 163 93 233 Q93 278 99 332 L151 754 L262 754 L209 318 Q205 270 205 252 Q205 176 247 133 Q289 90 362 90 Q411 90 449.5 112 Q488 134 511 175 Q525 202 534 236 Q543 270 549 323 L602 754 L714 754 L659 307 Z " />
<glyph glyph-name="Utilde" unicode="&#x168;" horiz-adv-x="744" d="M609 929 Q565 840 501 840 Q482 840 463.5 846.5 Q445 853 412 871 Q395 881 387 884 Q379 887 372 887 Q361 887 350.5 877.5 Q340 868 321 840 L264 884 Q301 934 323.5 952 Q346 970 373 970 Q388 970 401.5 964.5 Q415 959 444 941 Q464 929 476.5 924.5 Q489 920 501 920 Q516 920 529.5 933 Q543 946 553 971 L609 929 Z M659 307 Q649 227 633.5 178 Q618 129 590 92 Q551 41 492 13 Q433 -15 364 -15 Q288 -15 226 17.5 Q164 50 128.5 106.5 Q93 163 93 233 Q93 278 99 332 L151 754 L262 754 L209 318 Q205 270 205 252 Q205 176 247 133 Q289 90 362 90 Q411 90 449.5 112 Q488 134 511 175 Q525 201 534 235.5 Q543 270 549 323 L602 754 L714 754 L659 307 Z " />
<glyph glyph-name="V" unicode="V" horiz-adv-x="668" d="M55 754 L168 754 L324 228 L601 754 L721 754 L293 -34 L55 754 Z " />
<glyph glyph-name="W" unicode="W" horiz-adv-x="1040" d="M549 495 L287 -41 L55 754 L169 754 L311 238 L575 780 L727 252 L973 754 L1093 754 L699 -33 L549 495 Z " />
<glyph glyph-name="Wacute" unicode="&#x1e82;" horiz-adv-x="1040" d="M493 857 L626 1010 L711 957 L551 822 L493 857 Z M549 495 L287 -41 L55 754 L169 754 L311 238 L575 780 L727 252 L973 754 L1093 754 L699 -33 L549 495 Z " />
<glyph glyph-name="Wcircumflex" unicode="&#x174;" horiz-adv-x="1040" d="M431 873 L607 1010 L733 873 L673 824 L597 907 L479 822 L431 873 Z M549 495 L287 -41 L55 754 L169 754 L311 238 L575 780 L727 252 L973 754 L1093 754 L699 -33 L549 495 Z " />
<glyph glyph-name="Wdieresis" unicode="&#x1e84;" horiz-adv-x="1040" d="M488 967 Q515 967 534.5 948 Q554 929 554 902 Q554 877 535 858.5 Q516 840 490 840 Q465 840 446.5 859 Q428 878 428 905 Q428 932 445 949.5 Q462 967 488 967 Z M686 967 Q712 967 730.5 948 Q749 929 749 902 Q749 877 731.5 858.5 Q714 840 689 840 Q663 840 644.5 859 Q626 878 626 905 Q626 932 643 949.5 Q660 967 686 967 Z M549 495 L287 -41 L55 754 L169 754 L311 238 L575 780 L727 252 L973 754 L1093 754 L699 -33 L549 495 Z " />
<glyph glyph-name="Wgrave" unicode="&#x1e80;" horiz-adv-x="1040" d="M664 857 L606 822 L484 957 L568 1010 L664 857 Z M549 495 L287 -41 L55 754 L169 754 L311 238 L575 780 L727 252 L973 754 L1093 754 L699 -33 L549 495 Z " />
<glyph glyph-name="X" unicode="X" horiz-adv-x="611" d="M455 0 L315 299 L107 0 L-24 0 L262 403 L97 754 L216 754 L332 495 L508 754 L640 754 L385 392 L573 0 L455 0 Z " />
<glyph glyph-name="Y" unicode="Y" horiz-adv-x="583" d="M203 0 L246 345 L51 754 L171 754 L310 454 L507 754 L636 754 L357 338 L315 0 L203 0 Z " />
<glyph glyph-name="Yacute" unicode="&#xdd;" horiz-adv-x="583" d="M287 857 L420 1010 L505 957 L346 822 L287 857 Z M203 0 L246 345 L51 754 L171 754 L310 454 L507 754 L636 754 L357 338 L315 0 L203 0 Z " />
<glyph glyph-name="Ycircumflex" unicode="&#x176;" horiz-adv-x="583" d="M203 873 L381 1010 L506 873 L446 824 L370 907 L252 822 L203 873 Z M203 0 L246 345 L51 754 L171 754 L310 454 L507 754 L636 754 L357 338 L315 0 L203 0 Z " />
<glyph glyph-name="Ydieresis" unicode="&#x178;" horiz-adv-x="583" d="M257 967 Q283 967 302.5 948 Q322 929 322 902 Q322 877 303 858.5 Q284 840 259 840 Q233 840 215 859 Q197 878 197 905 Q197 932 214 949.5 Q231 967 257 967 Z M454 967 Q480 967 499 948 Q518 929 518 902 Q518 877 500 858.5 Q482 840 458 840 Q432 840 413 859 Q394 878 394 905 Q394 932 411 949.5 Q428 967 454 967 Z M203 0 L246 345 L51 754 L171 754 L310 454 L507 754 L636 754 L357 338 L315 0 L203 0 Z " />
<glyph glyph-name="Ygrave" unicode="&#x1ef2;" horiz-adv-x="583" d="M434 857 L375 822 L253 957 L338 1010 L434 857 Z M203 0 L246 345 L51 754 L171 754 L310 454 L507 754 L636 754 L357 338 L315 0 L203 0 Z " />
<glyph glyph-name="Z" unicode="Z" horiz-adv-x="623" d="M6 0 L451 650 L134 650 L147 754 L645 754 L201 104 L573 104 L560 0 L6 0 Z " />
<glyph glyph-name="Zacute" unicode="&#x179;" horiz-adv-x="623" d="M325 857 L459 1010 L544 957 L383 822 L325 857 Z M6 0 L451 650 L134 650 L147 754 L645 754 L201 104 L573 104 L560 0 L6 0 Z " />
<glyph glyph-name="Zcaron" unicode="&#x17d;" horiz-adv-x="623" d="M562 957 L384 822 L259 958 L319 1008 L395 924 L513 1010 L562 957 Z M6 0 L451 650 L134 650 L147 754 L645 754 L201 104 L573 104 L560 0 L6 0 Z " />
<glyph glyph-name="Zdotaccent" unicode="&#x17b;" horiz-adv-x="623" d="M395 970 Q423 970 443.5 950 Q464 930 464 902 Q464 876 444.5 856.5 Q425 837 399 837 Q372 837 352.5 857 Q333 877 333 905 Q333 933 351 951.5 Q369 970 395 970 Z M6 0 L451 650 L134 650 L147 754 L645 754 L201 104 L573 104 L560 0 L6 0 Z " />
<glyph glyph-name="uni01C4" unicode="&#x1c4;" horiz-adv-x="1338" d="M1277 957 L1101 822 L975 958 L1035 1008 L1111 924 L1228 1010 L1277 957 Z M304 754 Q391 754 437.5 745.5 Q484 737 524 713 Q598 671 640.5 586 Q683 501 683 395 Q683 273 626.5 173.5 Q570 74 476 32 Q437 14 387 7 Q337 0 250 0 L59 0 L151 754 L304 754 Z M721 0 L1167 650 L850 650 L862 754 L1361 754 L916 104 L1289 104 L1276 0 L721 0 Z M268 104 Q355 104 403.5 119 Q452 134 487 171 Q526 212 548.5 272.5 Q571 333 571 400 Q571 485 537 546 Q503 607 443 632 Q418 642 388.5 646 Q359 650 313 650 L250 650 L183 104 L268 104 Z " />
<glyph glyph-name="uni01C5" unicode="&#x1c5;" horiz-adv-x="1233" d="M304 754 Q391 754 437.5 745.5 Q484 737 524 713 Q598 671 640.5 586 Q683 501 683 395 Q683 273 626.5 173.5 Q570 74 476 32 Q437 14 387 7 Q337 0 250 0 L59 0 L151 754 L304 754 Z M1174 677 L1012 532 L897 677 L946 724 L1023 633 L1129 725 L1174 677 Z M268 104 Q355 104 403.5 119 Q452 134 487 171 Q526 212 548.5 272.5 Q571 333 571 400 Q571 485 537 546 Q503 607 443 632 Q418 642 388.5 646 Q359 650 313 650 L250 650 L183 104 L268 104 Z M706 0 L1015 359 L784 359 L797 460 L1229 460 L920 101 L1191 101 L1179 0 L706 0 Z " />
<glyph glyph-name="uni01C7" unicode="&#x1c7;" horiz-adv-x="857" d="M397 104 L383 0 L59 0 L151 754 L263 754 L183 104 L397 104 Z M760 211 Q752 141 738 102 Q724 63 699 36 Q676 11 643 -2 Q610 -15 570 -15 Q524 -15 487 2.5 Q450 20 414 58 L471 140 Q501 112 521 101 Q541 90 565 90 Q593 90 610 107.5 Q627 125 638 167.5 Q649 210 659 290 L715 754 L827 754 L760 211 Z " />
<glyph glyph-name="uni01C8" unicode="&#x1c8;" horiz-adv-x="697" d="M397 104 L383 0 L59 0 L151 754 L263 754 L183 104 L397 104 Z M616 614 Q589 614 569.5 633.5 Q550 653 550 681 Q550 709 568 727.5 Q586 746 613 746 Q641 746 661 726 Q681 706 681 678 Q681 652 661.5 633 Q642 614 616 614 Z M419 -269 Q397 -269 377.5 -263.5 Q358 -258 345 -250 L355 -154 Q377 -175 403 -175 Q436 -175 448.5 -154.5 Q461 -134 468 -82 L535 460 L642 460 L573 -104 Q553 -269 419 -269 Z " />
<glyph glyph-name="uni01CA" unicode="&#x1ca;" horiz-adv-x="1248" d="M236 532 L171 0 L59 0 L157 794 L614 211 L680 754 L792 754 L693 -52 L236 532 Z M1151 211 Q1143 141 1129 102 Q1115 63 1090 36 Q1044 -15 960 -15 Q914 -15 877.5 2.5 Q841 20 805 58 L862 140 Q892 112 912 101 Q932 90 956 90 Q984 90 1001 107.5 Q1018 125 1029 167.5 Q1040 210 1050 290 L1106 754 L1218 754 L1151 211 Z " />
<glyph glyph-name="uni01CB" unicode="&#x1cb;" horiz-adv-x="1092" d="M236 532 L171 0 L59 0 L157 794 L614 211 L680 754 L792 754 L693 -52 L236 532 Z M1011 614 Q984 614 964.5 633.5 Q945 653 945 681 Q945 709 963 727.5 Q981 746 1008 746 Q1036 746 1056 726 Q1076 706 1076 678 Q1076 652 1056.5 633 Q1037 614 1011 614 Z M814 -269 Q792 -269 772.5 -263.5 Q753 -258 740 -250 L750 -154 Q772 -175 798 -175 Q831 -175 843.5 -154.5 Q856 -134 863 -82 L930 460 L1037 460 L968 -104 Q948 -269 814 -269 Z " />
<glyph glyph-name="uni01CD" unicode="&#x1cd;" horiz-adv-x="705" d="M590 957 L414 822 L288 958 L348 1008 L424 924 L542 1010 L590 957 Z M-1 0 L416 807 L676 0 L559 0 L505 177 L212 177 L121 0 L-1 0 Z M392 541 L261 273 L473 273 L392 541 Z " />
<glyph glyph-name="uni01CF" unicode="&#x1cf;" horiz-adv-x="293" d="M390 957 L212 822 L87 958 L147 1008 L224 924 L341 1010 L390 957 Z M59 0 L151 754 L263 754 L171 0 L59 0 Z " />
<glyph glyph-name="uni01D1" unicode="&#x1d1;" horiz-adv-x="886" d="M635 957 L459 822 L333 958 L393 1008 L469 924 L588 1010 L635 957 Z M466 768 Q580 768 668 721 Q756 674 804 589 Q852 504 852 392 Q852 277 799.5 184 Q747 91 655 38 Q563 -15 449 -15 Q337 -15 250 34.5 Q163 84 114.5 172.5 Q66 261 66 374 Q66 486 118 576 Q170 666 261 717 Q352 768 466 768 Z M469 663 Q387 663 320.5 625 Q254 587 215.5 521 Q177 455 177 373 Q177 293 212.5 228 Q248 163 310.5 126.5 Q373 90 451 90 Q532 90 598 129.5 Q664 169 701.5 238 Q739 307 739 392 Q739 474 706 535 Q673 596 612 629.5 Q551 663 469 663 Z " />
<glyph glyph-name="uni01D3" unicode="&#x1d3;" horiz-adv-x="744" d="M611 957 L434 822 L308 958 L368 1008 L445 924 L563 1010 L611 957 Z M659 307 Q649 227 633.5 178 Q618 129 590 92 Q551 41 492 13 Q433 -15 364 -15 Q288 -15 226 17.5 Q164 50 128.5 106.5 Q93 163 93 233 Q93 278 99 332 L151 754 L262 754 L209 318 Q205 270 205 252 Q205 176 247 133 Q289 90 362 90 Q411 90 449.5 112 Q488 134 511 175 Q525 202 534 236 Q543 270 549 323 L602 754 L714 754 L659 307 Z " />
<glyph glyph-name="uni01F4" unicode="&#x1f4;" horiz-adv-x="802" d="M423 857 L556 1010 L641 957 L480 822 L423 857 Z M767 350 Q760 280 746 232 Q732 184 705 140 Q659 64 588 24.5 Q517 -15 425 -15 Q322 -15 239.5 33.5 Q157 82 110.5 168 Q64 254 64 362 Q64 478 114 570.5 Q164 663 252 715.5 Q340 768 450 768 Q545 768 621 731 Q697 694 759 617 L686 542 Q640 604 581 633.5 Q522 663 447 663 Q368 663 306.5 625 Q245 587 210.5 519 Q176 451 176 364 Q176 284 208.5 222 Q241 160 299 125 Q357 90 431 90 Q512 90 567.5 134 Q623 178 640 254 L453 254 L466 350 L767 350 Z " />
<glyph glyph-name="uni0200" unicode="&#x200;" horiz-adv-x="705" d="M367 857 L319 824 L167 957 L243 1010 L367 857 Z M556 857 L506 824 L356 957 L431 1010 L556 857 Z M-1 0 L416 807 L676 0 L559 0 L505 177 L212 177 L121 0 L-1 0 Z M392 541 L261 273 L473 273 L392 541 Z " />
<glyph glyph-name="uni021A" unicode="&#x21a;" horiz-adv-x="479" d="M156 0 L235 650 L55 650 L68 754 L532 754 L520 650 L347 650 L267 0 L156 0 Z M147 -275 L82 -244 L171 -60 L263 -96 L147 -275 Z " />
<glyph glyph-name="uni0226" unicode="&#x226;" horiz-adv-x="705" d="M421 970 Q449 970 469.5 950 Q490 930 490 902 Q490 876 470.5 856.5 Q451 837 425 837 Q398 837 378.5 857 Q359 877 359 905 Q359 933 377 951.5 Q395 970 421 970 Z M-1 0 L416 807 L676 0 L559 0 L505 177 L212 177 L121 0 L-1 0 Z M392 541 L261 273 L473 273 L392 541 Z " />
<glyph glyph-name="uni1E1E" unicode="&#x1e1e;" horiz-adv-x="493" d="M351 970 Q379 970 399.5 950 Q420 930 420 902 Q420 876 400.5 856.5 Q381 837 355 837 Q328 837 308.5 857 Q289 877 289 905 Q289 933 307 951.5 Q325 970 351 970 Z M250 650 L226 455 L487 455 L476 359 L215 359 L171 0 L59 0 L151 754 L523 754 L511 650 L250 650 Z " />
<glyph glyph-name="uni1EA0" unicode="&#x1ea0;" horiz-adv-x="705" d="M-1 0 L416 807 L676 0 L559 0 L505 177 L212 177 L121 0 L-1 0 Z M392 541 L261 273 L473 273 L392 541 Z M338 -81 Q364 -81 381 -99.5 Q398 -118 398 -146 Q398 -171 380.5 -188 Q363 -205 338 -205 Q312 -205 293.5 -186.5 Q275 -168 275 -142 Q275 -115 292.5 -98 Q310 -81 338 -81 Z " />
<glyph glyph-name="uni1EA2" unicode="&#x1ea2;" horiz-adv-x="705" d="M408 931 L416 933 Q450 938 451 938 Q488 943 501.5 953 Q515 963 515 983 Q515 997 503 1005.5 Q491 1014 469 1014 Q455 1014 449.5 1012.5 Q444 1011 426 1001 L411 996 L408 993 Q405 993 399 990 L390 1041 L398 1044 L401 1045 Q460 1066 505 1066 Q549 1066 575 1045 Q601 1024 601 989 Q601 946 569 919 Q537 892 485 892 L460 892 L450 849 L390 849 L408 931 Z M-1 0 L416 807 L676 0 L559 0 L505 177 L212 177 L121 0 L-1 0 Z M392 541 L261 273 L473 273 L392 541 Z " />
<glyph glyph-name="uni1EA4" unicode="&#x1ea4;" horiz-adv-x="705" d="M689 1036 L538 909 L570 873 L510 824 L433 907 L315 822 L267 873 L444 1010 L490 959 L605 1090 L689 1036 Z M-1 0 L416 807 L676 0 L559 0 L505 177 L212 177 L121 0 L-1 0 Z M392 541 L261 273 L473 273 L392 541 Z " />
<glyph glyph-name="uni1EA6" unicode="&#x1ea6;" horiz-adv-x="705" d="M659 937 L600 901 L478 1036 L563 1090 L659 937 Z M279 873 L457 1010 L582 873 L522 824 L445 907 L328 822 L279 873 Z M-1 0 L416 807 L676 0 L559 0 L505 177 L212 177 L121 0 L-1 0 Z M392 541 L261 273 L473 273 L392 541 Z " />
<glyph glyph-name="uni1EA8" unicode="&#x1ea8;" horiz-adv-x="705" d="M528 982 Q531 983 536 983 L557 981 L572 989 Q606 995 613 997.5 Q620 1000 627 1008 Q636 1017 636 1034 Q636 1048 624 1055.5 Q612 1063 590 1063 Q576 1063 570 1061.5 Q564 1060 546 1052 Q528 1044 520 1041 L511 1092 L519 1094 L522 1095 Q572 1115 625 1115 Q669 1115 695.5 1094.5 Q722 1074 722 1040 Q722 996 689.5 968.5 Q657 941 605 941 Q592 941 580 942 L571 899 L546 899 L570 873 L510 824 L433 907 L315 822 L267 873 L444 1010 L518 931 L528 982 Z M-1 0 L416 807 L676 0 L559 0 L505 177 L212 177 L121 0 L-1 0 Z M392 541 L261 273 L473 273 L392 541 Z " />
<glyph glyph-name="uni1EAA" unicode="&#x1eaa;" horiz-adv-x="705" d="M623 1115 Q597 1067 569.5 1046.5 Q542 1026 502 1026 Q482 1026 475.5 1028.5 Q469 1031 446 1045 Q436 1053 413.5 1062.5 Q391 1072 384 1072 Q373 1072 362.5 1062.5 Q352 1053 333 1026 L277 1069 Q315 1120 337 1137.5 Q359 1155 386 1155 Q401 1155 414 1150 Q427 1145 457 1128 Q478 1116 490 1111.5 Q502 1107 513 1107 Q528 1107 542 1120 Q556 1133 565 1157 L623 1115 Z M267 873 L444 1010 L570 873 L510 824 L433 907 L315 822 L267 873 Z M-1 0 L416 807 L676 0 L559 0 L505 177 L212 177 L121 0 L-1 0 Z M392 541 L261 273 L473 273 L392 541 Z " />
<glyph glyph-name="uni1EAC" unicode="&#x1eac;" horiz-adv-x="705" d="M271 873 L449 1010 L574 873 L514 824 L437 907 L320 822 L271 873 Z M-1 0 L416 807 L676 0 L559 0 L505 177 L212 177 L121 0 L-1 0 Z M392 541 L261 273 L473 273 L392 541 Z M350 -87 Q376 -87 393 -105 Q410 -123 410 -151 Q410 -176 392.5 -193 Q375 -210 350 -210 Q324 -210 305.5 -192 Q287 -174 287 -148 Q287 -121 304.5 -104 Q322 -87 350 -87 Z " />
<glyph glyph-name="uni1EAE" unicode="&#x1eae;" horiz-adv-x="705" d="M391 980 L525 1133 L610 1079 L450 944 L391 980 Z M370 981 Q370 941 384 922 Q398 903 427 903 Q458 903 479 921.5 Q500 940 515 981 L596 981 Q584 944 574.5 924.5 Q565 905 549 886 Q527 857 493.5 841 Q460 825 425 825 Q366 825 328 863 Q290 901 290 960 L290 981 L370 981 Z M-1 0 L416 807 L676 0 L559 0 L505 177 L212 177 L121 0 L-1 0 Z M392 541 L261 273 L473 273 L392 541 Z " />
<glyph glyph-name="uni1EB0" unicode="&#x1eb0;" horiz-adv-x="705" d="M484 980 L426 944 L304 1079 L389 1133 L484 980 Z M370 981 Q370 941 384 922 Q398 903 427 903 Q458 903 479 921.5 Q500 940 515 981 L596 981 Q584 944 574.5 924.5 Q565 905 549 886 Q527 857 493.5 841 Q460 825 425 825 Q366 825 328 863 Q290 901 290 960 L290 981 L370 981 Z M-1 0 L416 807 L676 0 L559 0 L505 177 L212 177 L121 0 L-1 0 Z M392 541 L261 273 L473 273 L392 541 Z " />
<glyph glyph-name="uni1EB2" unicode="&#x1eb2;" horiz-adv-x="705" d="M424 1032 L432 1034 Q460 1038 467 1038 Q503 1043 517 1053.5 Q531 1064 531 1084 Q531 1098 519 1106 Q507 1114 485 1114 Q471 1114 465.5 1112.5 Q460 1111 442 1102 L427 1096 L424 1094 Q420 1094 416 1090 L406 1141 L414 1145 L418 1146 Q475 1166 521 1166 Q565 1166 591 1145.5 Q617 1125 617 1089 Q617 1046 585 1019 Q553 992 501 992 L476 992 L466 949 L406 949 L424 1032 Z M370 981 Q370 941 384 922 Q398 903 427 903 Q458 903 479 921.5 Q500 940 515 981 L596 981 Q584 944 574.5 924.5 Q565 905 549 886 Q527 857 493.5 841 Q460 825 425 825 Q366 825 328 863 Q290 901 290 960 L290 981 L370 981 Z M-1 0 L416 807 L676 0 L559 0 L505 177 L212 177 L121 0 L-1 0 Z M392 541 L261 273 L473 273 L392 541 Z " />
<glyph glyph-name="uni1EB4" unicode="&#x1eb4;" horiz-adv-x="705" d="M620 1099 Q574 1011 511 1011 Q493 1011 474.5 1017.5 Q456 1024 423 1042 Q408 1050 398.5 1054 Q389 1058 382 1058 Q371 1058 361.5 1049 Q352 1040 331 1011 L275 1054 Q311 1104 334 1122 Q357 1140 384 1140 Q399 1140 412 1135 Q425 1130 454 1113 Q489 1092 511 1092 Q526 1092 539.5 1105 Q553 1118 563 1142 L620 1099 Z M370 981 Q370 941 384 922 Q398 903 427 903 Q458 903 479 921.5 Q500 940 515 981 L596 981 Q584 944 574.5 924.5 Q565 905 549 886 Q527 857 493.5 841 Q460 825 425 825 Q366 825 328 863 Q290 901 290 960 L290 981 L370 981 Z M-1 0 L416 807 L676 0 L559 0 L505 177 L212 177 L121 0 L-1 0 Z M392 541 L261 273 L473 273 L392 541 Z " />
<glyph glyph-name="uni1EB6" unicode="&#x1eb6;" horiz-adv-x="705" d="M370 981 Q370 941 384 922 Q398 903 427 903 Q458 903 479 921.5 Q500 940 515 981 L596 981 Q584 944 574.5 924.5 Q565 905 549 886 Q527 857 493.5 841 Q460 825 425 825 Q366 825 328 863 Q290 901 290 960 L290 981 L370 981 Z M-1 0 L416 807 L676 0 L559 0 L505 177 L212 177 L121 0 L-1 0 Z M392 541 L261 273 L473 273 L392 541 Z M333 -93 Q359 -93 376 -111 Q393 -129 393 -157 Q393 -182 375.5 -199 Q358 -216 333 -216 Q307 -216 288.5 -198 Q270 -180 270 -154 Q270 -127 287.5 -110 Q305 -93 333 -93 Z " />
<glyph glyph-name="uni1EB8" unicode="&#x1eb8;" horiz-adv-x="531" d="M250 650 L226 454 L503 454 L490 358 L215 358 L183 104 L460 104 L446 0 L59 0 L151 754 L539 754 L527 650 L250 650 Z M254 -81 Q280 -81 297 -99.5 Q314 -118 314 -146 Q314 -171 296.5 -188 Q279 -205 254 -205 Q228 -205 209.5 -186.5 Q191 -168 191 -142 Q191 -115 208.5 -98 Q226 -81 254 -81 Z " />
<glyph glyph-name="uni1EBA" unicode="&#x1eba;" horiz-adv-x="531" d="M329 931 L337 933 Q365 938 372 938 Q409 943 422.5 953 Q436 963 436 983 Q436 997 424 1005.5 Q412 1014 390 1014 Q376 1014 370.5 1012.5 Q365 1011 347 1001 L332 996 L329 993 Q326 993 321 990 L311 1041 L319 1044 L323 1045 Q379 1066 426 1066 Q470 1066 496 1045 Q522 1024 522 989 Q522 946 490 919 Q458 892 406 892 L381 892 L372 849 L311 849 L329 931 Z M250 650 L226 454 L503 454 L490 358 L215 358 L183 104 L460 104 L446 0 L59 0 L151 754 L539 754 L527 650 L250 650 Z " />
<glyph glyph-name="uni1EBC" unicode="&#x1ebc;" horiz-adv-x="531" d="M527 929 Q504 883 477 861.5 Q450 840 418 840 Q399 840 380.5 846.5 Q362 853 329 871 Q312 881 304 884 Q296 887 288 887 Q277 887 267 877.5 Q257 868 237 840 L182 884 Q219 934 241 952 Q263 970 290 970 Q306 970 318.5 964.5 Q331 959 360 941 Q382 929 394 924.5 Q406 920 418 920 Q433 920 446.5 933.5 Q460 947 469 971 L527 929 Z M250 650 L226 454 L503 454 L490 358 L215 358 L183 104 L460 104 L446 0 L59 0 L151 754 L539 754 L527 650 L250 650 Z " />
<glyph glyph-name="uni1EBE" unicode="&#x1ebe;" horiz-adv-x="531" d="M634 1018 L490 896 L511 873 L451 824 L374 907 L257 822 L208 873 L385 1010 L442 948 L549 1071 L634 1018 Z M250 650 L226 454 L503 454 L490 358 L215 358 L183 104 L460 104 L446 0 L59 0 L151 754 L539 754 L527 650 L250 650 Z " />
<glyph glyph-name="uni1EC0" unicode="&#x1ec0;" horiz-adv-x="531" d="M597 937 L538 901 L416 1036 L501 1090 L597 937 Z M217 873 L394 1010 L520 873 L460 824 L383 907 L266 822 L217 873 Z M250 650 L226 454 L503 454 L490 358 L215 358 L183 104 L460 104 L446 0 L59 0 L151 754 L539 754 L527 650 L250 650 Z " />
<glyph glyph-name="uni1EC2" unicode="&#x1ec2;" horiz-adv-x="531" d="M479 982 Q507 986 514 988 Q551 992 565 1002 Q579 1012 579 1032 Q579 1046 567 1054 Q555 1062 534 1062 Q519 1062 513 1060.5 Q507 1059 489 1051 L461 1038 L454 1089 L461 1093 L466 1094 Q521 1114 568 1114 Q612 1114 638 1093.5 Q664 1073 664 1038 Q664 994 632 967 Q600 940 548 940 L523 940 L514 897 L488 897 L511 873 L451 824 L374 907 L257 822 L208 873 L385 1010 L460 928 L471 981 L479 982 Z M250 650 L226 454 L503 454 L490 358 L215 358 L183 104 L460 104 L446 0 L59 0 L151 754 L539 754 L527 650 L250 650 Z " />
<glyph glyph-name="uni1EC4" unicode="&#x1ec4;" horiz-adv-x="531" d="M559 1105 Q515 1016 451 1016 Q432 1016 413.5 1022.5 Q395 1029 363 1046 Q346 1056 337.5 1059 Q329 1062 322 1062 Q311 1062 300.5 1053 Q290 1044 271 1016 L215 1059 Q251 1109 274 1127 Q297 1145 323 1145 Q338 1145 351 1140 Q364 1135 394 1118 Q414 1106 427 1101 Q440 1096 451 1096 Q466 1096 479.5 1109 Q493 1122 503 1147 L559 1105 Z M208 873 L385 1010 L511 873 L451 824 L374 907 L257 822 L208 873 Z M250 650 L226 454 L503 454 L490 358 L215 358 L183 104 L460 104 L446 0 L59 0 L151 754 L539 754 L527 650 L250 650 Z " />
<glyph glyph-name="uni1EC6" unicode="&#x1ec6;" horiz-adv-x="531" d="M192 873 L368 1010 L495 873 L435 824 L358 907 L241 822 L192 873 Z M250 650 L226 454 L503 454 L490 358 L215 358 L183 104 L460 104 L446 0 L59 0 L151 754 L539 754 L527 650 L250 650 Z M252 -79 Q278 -79 295 -97.5 Q312 -116 312 -144 Q312 -168 294.5 -185 Q277 -202 252 -202 Q226 -202 207.5 -184 Q189 -166 189 -140 Q189 -113 206.5 -96 Q224 -79 252 -79 Z " />
<glyph glyph-name="uni1EC8" unicode="&#x1ec8;" horiz-adv-x="293" d="M208 931 L216 933 Q244 938 251 938 Q288 943 301.5 953 Q315 963 315 983 Q315 997 303 1005.5 Q291 1014 269 1014 Q255 1014 249.5 1012.5 Q244 1011 226 1001 L211 996 L208 993 Q204 993 200 990 L190 1041 L198 1044 L202 1045 Q259 1066 305 1066 Q349 1066 375 1045 Q401 1024 401 989 Q401 946 369 919 Q337 892 285 892 L260 892 L251 849 L190 849 L208 931 Z M59 0 L151 754 L263 754 L171 0 L59 0 Z " />
<glyph glyph-name="uni1ECA" unicode="&#x1eca;" horiz-adv-x="293" d="M59 0 L151 754 L263 754 L171 0 L59 0 Z M105 -71 Q131 -71 148 -89.5 Q165 -108 165 -136 Q165 -160 147.5 -177 Q130 -194 105 -194 Q79 -194 60.5 -176 Q42 -158 42 -132 Q42 -105 59.5 -88 Q77 -71 105 -71 Z " />
<glyph glyph-name="uni1ECC" unicode="&#x1ecc;" horiz-adv-x="886" d="M466 768 Q580 768 668 721 Q756 674 804 589 Q852 504 852 392 Q852 277 799.5 184 Q747 91 655 38 Q563 -15 449 -15 Q337 -15 250 34.5 Q163 84 114.5 172.5 Q66 261 66 374 Q66 486 118 576 Q170 666 261 717 Q352 768 466 768 Z M469 663 Q387 663 320.5 625 Q254 587 215.5 521 Q177 455 177 373 Q177 293 212.5 228 Q248 163 310.5 126.5 Q373 90 451 90 Q532 90 598 129.5 Q664 169 701.5 238 Q739 307 739 392 Q739 474 706 535 Q673 596 612 629.5 Q551 663 469 663 Z M447 -87 Q474 -87 490.5 -105 Q507 -123 507 -151 Q507 -176 489.5 -193 Q472 -210 447 -210 Q421 -210 402.5 -192 Q384 -174 384 -148 Q384 -121 401.5 -104 Q419 -87 447 -87 Z " />
<glyph glyph-name="uni1ECE" unicode="&#x1ece;" horiz-adv-x="886" d="M446 931 L454 933 L467 935 L490 938 Q527 943 541 953 Q555 963 555 983 Q555 997 542.5 1005.5 Q530 1014 508 1014 Q494 1014 488.5 1012.5 Q483 1011 464 1001 L450 996 L446 993 L438 990 L429 1041 L437 1044 L441 1045 Q497 1066 544 1066 Q588 1066 614.5 1045 Q641 1024 641 989 Q641 946 608 919 Q575 892 523 892 L498 892 L489 849 L429 849 L446 931 Z M466 768 Q580 768 668 721 Q756 674 804 589 Q852 504 852 392 Q852 277 799.5 184 Q747 91 655 38 Q563 -15 449 -15 Q337 -15 250 34.5 Q163 84 114.5 172.5 Q66 261 66 374 Q66 486 118 576 Q170 666 261 717 Q352 768 466 768 Z M469 663 Q387 663 320.5 625 Q254 587 215.5 521 Q177 455 177 373 Q177 293 212.5 228 Q248 163 310.5 126.5 Q373 90 451 90 Q532 90 598 129.5 Q664 169 701.5 238 Q739 307 739 392 Q739 474 706 535 Q673 596 612 629.5 Q551 663 469 663 Z " />
<glyph glyph-name="uni1ED0" unicode="&#x1ed0;" horiz-adv-x="886" d="M798 1018 L650 893 L668 873 L608 824 L531 907 L414 822 L365 873 L542 1010 L602 945 L713 1071 L798 1018 Z M466 768 Q579 768 666.5 721.5 Q754 675 802.5 591 Q851 507 851 400 Q851 280 799.5 185.5 Q748 91 656 38 Q564 -15 447 -15 Q336 -15 249.5 34.5 Q163 84 114.5 172.5 Q66 261 66 374 Q66 486 118 576 Q170 666 261 717 Q352 768 466 768 Z M469 663 Q387 663 320.5 625 Q254 587 215.5 521 Q177 455 177 373 Q177 293 212.5 228 Q248 163 310.5 126.5 Q373 90 451 90 Q532 90 598 129.5 Q664 169 701.5 238 Q739 307 739 392 Q739 474 706 535 Q673 596 612 629.5 Q551 663 469 663 Z " />
<glyph glyph-name="uni1ED2" unicode="&#x1ed2;" horiz-adv-x="886" d="M694 937 L636 901 L514 1036 L599 1090 L694 937 Z M314 873 L492 1010 L617 873 L557 824 L481 907 L363 822 L314 873 Z M466 768 Q579 768 666.5 721.5 Q754 675 802.5 591 Q851 507 851 400 Q851 280 799.5 185.5 Q748 91 656 38 Q564 -15 447 -15 Q336 -15 249.5 34.5 Q163 84 114.5 172.5 Q66 261 66 374 Q66 486 118 576 Q170 666 261 717 Q352 768 466 768 Z M469 663 Q387 663 320.5 625 Q254 587 215.5 521 Q177 455 177 373 Q177 293 212.5 228 Q248 163 310.5 126.5 Q373 90 451 90 Q532 90 598 129.5 Q664 169 701.5 238 Q739 307 739 392 Q739 474 706 535 Q673 596 612 629.5 Q551 663 469 663 Z " />
<glyph glyph-name="uni1ED4" unicode="&#x1ed4;" horiz-adv-x="886" d="M573 981 L608 986 Q645 991 658.5 1000.5 Q672 1010 672 1031 Q672 1045 660 1053 Q648 1061 626 1061 Q613 1061 607 1059.5 Q601 1058 583 1050 Q579 1046 565 1042 L557 1038 L548 1089 L555 1092 L559 1093 Q616 1113 662 1113 Q706 1113 732 1092.5 Q758 1072 758 1037 Q758 993 726 966 Q694 939 642 939 Q629 939 617 940 L608 896 L586 896 L608 873 L548 824 L472 907 L354 822 L305 873 L483 1010 L555 931 L565 980 L573 981 Z M466 768 Q579 768 666.5 721.5 Q754 675 802.5 591 Q851 507 851 400 Q851 280 799.5 185.5 Q748 91 656 38 Q564 -15 447 -15 Q336 -15 249.5 34.5 Q163 84 114.5 172.5 Q66 261 66 374 Q66 486 118 576 Q170 666 261 717 Q352 768 466 768 Z M469 663 Q387 663 320.5 625 Q254 587 215.5 521 Q177 455 177 373 Q177 293 212.5 228 Q248 163 310.5 126.5 Q373 90 451 90 Q532 90 598 129.5 Q664 169 701.5 238 Q739 307 739 392 Q739 474 706 535 Q673 596 612 629.5 Q551 663 469 663 Z " />
<glyph glyph-name="uni1ED6" unicode="&#x1ed6;" horiz-adv-x="886" d="M657 1112 Q633 1066 606.5 1044.5 Q580 1023 547 1023 Q529 1023 510 1029 Q491 1035 459 1053 Q442 1063 434 1066 Q426 1069 418 1069 Q407 1069 396.5 1060 Q386 1051 367 1023 L311 1066 Q348 1116 370.5 1133.5 Q393 1151 420 1151 Q436 1151 448.5 1146 Q461 1141 490 1124 Q512 1112 524.5 1107.5 Q537 1103 548 1103 Q579 1103 599 1154 L657 1112 Z M310 873 L487 1010 L612 873 L553 824 L476 907 L358 822 L310 873 Z M466 768 Q580 768 668 721 Q756 674 804 589 Q852 504 852 392 Q852 277 799.5 184 Q747 91 655 38 Q563 -15 449 -15 Q337 -15 250 34.5 Q163 84 114.5 172.5 Q66 261 66 374 Q66 486 118 576 Q170 666 261 717 Q352 768 466 768 Z M469 663 Q387 663 320.5 625 Q254 587 215.5 521 Q177 455 177 373 Q177 293 212.5 228 Q248 163 310.5 126.5 Q373 90 451 90 Q532 90 598 129.5 Q664 169 701.5 238 Q739 307 739 392 Q739 474 706 535 Q673 596 612 629.5 Q551 663 469 663 Z " />
<glyph glyph-name="uni1ED8" unicode="&#x1ed8;" horiz-adv-x="886" d="M303 873 L480 1010 L606 873 L546 824 L469 907 L351 822 L303 873 Z M466 768 Q579 768 666.5 721.5 Q754 675 802.5 591 Q851 507 851 400 Q851 280 799.5 185.5 Q748 91 656 38 Q564 -15 447 -15 Q336 -15 249.5 34.5 Q163 84 114.5 172.5 Q66 261 66 374 Q66 486 118 576 Q170 666 261 717 Q352 768 466 768 Z M469 663 Q387 663 320.5 625 Q254 587 215.5 521 Q177 455 177 373 Q177 293 212.5 228 Q248 163 310.5 126.5 Q373 90 451 90 Q532 90 598 129.5 Q664 169 701.5 238 Q739 307 739 392 Q739 474 706 535 Q673 596 612 629.5 Q551 663 469 663 Z M440 -79 Q466 -79 482.5 -97 Q499 -115 499 -144 Q499 -168 482 -185 Q465 -202 440 -202 Q414 -202 395 -184 Q376 -166 376 -140 Q376 -113 394 -96 Q412 -79 440 -79 Z " />
<glyph glyph-name="uni1EDA" unicode="&#x1eda;" horiz-adv-x="886" d="M471 857 L606 1010 L690 957 L530 822 L471 857 Z M906 764 L798 599 Q852 510 852 397 Q852 279 800 185 Q748 91 656 38 Q564 -15 449 -15 Q337 -15 250 34.5 Q163 84 114.5 172.5 Q66 261 66 374 Q66 487 118 576.5 Q170 666 261.5 717 Q353 768 467 768 Q639 768 748 662 L814 800 L906 764 Z M470 663 Q388 663 321 625 Q254 587 215.5 521 Q177 455 177 373 Q177 293 212.5 228 Q248 163 311 126.5 Q374 90 452 90 Q533 90 599 129.5 Q665 169 702.5 238 Q740 307 740 392 Q740 474 707 535 Q674 596 613 629.5 Q552 663 470 663 Z " />
<glyph glyph-name="uni1EDC" unicode="&#x1edc;" horiz-adv-x="886" d="M573 857 L515 822 L392 957 L477 1010 L573 857 Z M906 764 L798 599 Q852 510 852 397 Q852 279 800 185 Q748 91 656 38 Q564 -15 449 -15 Q337 -15 250 34.5 Q163 84 114.5 172.5 Q66 261 66 374 Q66 487 118 576.5 Q170 666 261.5 717 Q353 768 467 768 Q639 768 748 662 L814 800 L906 764 Z M470 663 Q388 663 321 625 Q254 587 215.5 521 Q177 455 177 373 Q177 293 212.5 228 Q248 163 311 126.5 Q374 90 452 90 Q533 90 599 129.5 Q665 169 702.5 238 Q740 307 740 392 Q740 474 707 535 Q674 596 613 629.5 Q552 663 470 663 Z " />
<glyph glyph-name="uni1EDE" unicode="&#x1ede;" horiz-adv-x="886" d="M471 931 L479 933 Q507 938 514 938 Q551 943 565 953 Q579 963 579 983 Q579 997 566.5 1005.5 Q554 1014 532 1014 Q518 1014 512.5 1012.5 Q507 1011 489 1001 L475 996 L471 993 L463 990 L453 1041 L461 1044 L466 1045 Q522 1066 568 1066 Q612 1066 638 1045 Q664 1024 664 989 Q664 946 632 919 Q600 892 548 892 L523 892 L514 849 L453 849 L471 931 Z M906 764 L798 599 Q852 510 852 397 Q852 279 800 185 Q748 91 656 38 Q564 -15 449 -15 Q337 -15 250 34.5 Q163 84 114.5 172.5 Q66 261 66 374 Q66 487 118 576.5 Q170 666 261.5 717 Q353 768 467 768 Q639 768 748 662 L814 800 L906 764 Z M470 663 Q388 663 321 625 Q254 587 215.5 521 Q177 455 177 373 Q177 293 212.5 228 Q248 163 311 126.5 Q374 90 452 90 Q533 90 599 129.5 Q665 169 702.5 238 Q740 307 740 392 Q740 474 707 535 Q674 596 613 629.5 Q552 663 470 663 Z " />
<glyph glyph-name="uni1EE0" unicode="&#x1ee0;" horiz-adv-x="886" d="M704 929 Q680 883 653 861.5 Q626 840 594 840 Q576 840 557 846.5 Q538 853 506 871 Q490 881 482 884 Q474 887 466 887 Q455 887 445 877.5 Q435 868 415 840 L358 884 Q396 934 418.5 952 Q441 970 468 970 Q482 970 495.5 964.5 Q509 959 538 941 Q573 920 594 920 Q610 920 623.5 933 Q637 946 646 971 L704 929 Z M906 764 L798 599 Q852 510 852 397 Q852 279 800 185 Q748 91 656 38 Q564 -15 449 -15 Q337 -15 250 34.5 Q163 84 114.5 172.5 Q66 261 66 374 Q66 487 118 576.5 Q170 666 261.5 717 Q353 768 467 768 Q639 768 748 662 L814 800 L906 764 Z M470 663 Q388 663 321 625 Q254 587 215.5 521 Q177 455 177 373 Q177 293 212.5 228 Q248 163 311 126.5 Q374 90 452 90 Q533 90 599 129.5 Q665 169 702.5 238 Q740 307 740 392 Q740 474 707 535 Q674 596 613 629.5 Q552 663 470 663 Z " />
<glyph glyph-name="uni1EE2" unicode="&#x1ee2;" horiz-adv-x="886" d="M906 764 L798 599 Q852 510 852 397 Q852 279 800 185 Q748 91 656 38 Q564 -15 449 -15 Q337 -15 250 34.5 Q163 84 114.5 172.5 Q66 261 66 374 Q66 487 118 576.5 Q170 666 261.5 717 Q353 768 467 768 Q639 768 748 662 L814 800 L906 764 Z M470 663 Q388 663 321 625 Q254 587 215.5 521 Q177 455 177 373 Q177 293 212.5 228 Q248 163 311 126.5 Q374 90 452 90 Q533 90 599 129.5 Q665 169 702.5 238 Q740 307 740 392 Q740 474 707 535 Q674 596 613 629.5 Q552 663 470 663 Z M445 -77 Q471 -77 488 -95 Q505 -113 505 -141 Q505 -166 487.5 -183 Q470 -200 445 -200 Q419 -200 400.5 -182 Q382 -164 382 -138 Q382 -111 399.5 -94 Q417 -77 445 -77 Z " />
<glyph glyph-name="uni1EE4" unicode="&#x1ee4;" horiz-adv-x="744" d="M659 307 Q649 227 633.5 178 Q618 129 590 92 Q551 41 492 13 Q433 -15 364 -15 Q288 -15 226 17.5 Q164 50 128.5 106.5 Q93 163 93 233 Q93 278 99 332 L151 754 L262 754 L209 318 Q205 270 205 252 Q205 176 247 133 Q289 90 362 90 Q411 90 449.5 112 Q488 134 511 175 Q525 201 534 235.5 Q543 270 549 323 L602 754 L714 754 L659 307 Z M350 -77 Q376 -77 393 -95 Q410 -113 410 -141 Q410 -166 392.5 -183 Q375 -200 350 -200 Q324 -200 305.5 -182 Q287 -164 287 -138 Q287 -111 304.5 -94 Q322 -77 350 -77 Z " />
<glyph glyph-name="uni1EE6" unicode="&#x1ee6;" horiz-adv-x="744" d="M425 931 L433 933 Q461 938 468 938 Q505 943 518.5 953 Q532 963 532 983 Q532 997 520 1005.5 Q508 1014 486 1014 Q472 1014 466.5 1012.5 Q461 1011 443 1001 L428 996 L425 993 Q420 992 417 990 L408 1041 L415 1044 L419 1045 Q477 1066 522 1066 Q566 1066 592 1045 Q618 1024 618 989 Q618 946 586 919 Q554 892 502 892 L477 892 L468 849 L407 849 L425 931 Z M659 307 Q649 227 633.5 178 Q618 129 590 92 Q551 41 492 13 Q433 -15 364 -15 Q288 -15 226 17.5 Q164 50 128.5 106.5 Q93 163 93 233 Q93 278 99 332 L151 754 L262 754 L209 318 Q205 270 205 252 Q205 176 247 133 Q289 90 362 90 Q411 90 449.5 112 Q488 134 511 175 Q525 201 534 235.5 Q543 270 549 323 L602 754 L714 754 L659 307 Z " />
<glyph glyph-name="uni1EE8" unicode="&#x1ee8;" horiz-adv-x="744" d="M400 857 L534 1010 L619 957 L459 822 L400 857 Z M785 597 L722 627 L810 810 L903 774 L785 597 Z M659 307 Q649 227 633.5 178 Q618 129 590 92 Q551 41 492 13 Q433 -15 364 -15 Q288 -15 226 17.5 Q164 50 128.5 106.5 Q93 163 93 233 Q93 278 99 332 L151 754 L262 754 L209 318 Q205 270 205 252 Q205 176 247 133 Q289 90 362 90 Q411 90 449.5 112 Q488 134 511 175 Q525 201 534 235.5 Q543 270 549 323 L602 754 L714 754 L659 307 Z " />
<glyph glyph-name="uni1EEA" unicode="&#x1eea;" horiz-adv-x="744" d="M502 857 L444 822 L322 957 L407 1010 L502 857 Z M785 597 L722 627 L810 810 L903 774 L785 597 Z M659 307 Q649 227 633.5 178 Q618 129 590 92 Q551 41 492 13 Q433 -15 364 -15 Q288 -15 226 17.5 Q164 50 128.5 106.5 Q93 163 93 233 Q93 278 99 332 L151 754 L262 754 L209 318 Q205 270 205 252 Q205 176 247 133 Q289 90 362 90 Q411 90 449.5 112 Q488 134 511 175 Q525 201 534 235.5 Q543 270 549 323 L602 754 L714 754 L659 307 Z " />
<glyph glyph-name="uni1EEC" unicode="&#x1eec;" horiz-adv-x="744" d="M425 931 L433 933 Q461 938 468 938 Q505 943 518.5 953 Q532 963 532 983 Q532 997 520 1005.5 Q508 1014 486 1014 Q472 1014 466.5 1012.5 Q461 1011 443 1001 L428 996 L425 993 Q422 993 417 990 L407 1041 L415 1044 L419 1045 Q476 1066 522 1066 Q566 1066 592 1045 Q618 1024 618 989 Q618 946 586 919 Q554 892 502 892 L477 892 L467 849 L407 849 L425 931 Z M785 597 L722 627 L810 810 L903 774 L785 597 Z M659 307 Q649 227 633.5 178 Q618 129 590 92 Q551 41 492 13 Q433 -15 364 -15 Q288 -15 226 17.5 Q164 50 128.5 106.5 Q93 163 93 233 Q93 278 99 332 L151 754 L262 754 L209 318 Q205 270 205 252 Q205 176 247 133 Q289 90 362 90 Q411 90 449.5 112 Q488 134 511 175 Q525 201 534 235.5 Q543 270 549 323 L602 754 L714 754 L659 307 Z " />
<glyph glyph-name="uni1EEE" unicode="&#x1eee;" horiz-adv-x="744" d="M633 929 Q610 883 583 861.5 Q556 840 523 840 Q505 840 486.5 846.5 Q468 853 435 871 Q417 881 409.5 884 Q402 887 394 887 Q384 887 374 877.5 Q364 868 344 840 L287 884 Q325 935 347.5 952.5 Q370 970 397 970 Q411 970 424.5 964.5 Q438 959 467 941 Q487 929 499.5 924.5 Q512 920 523 920 Q539 920 552.5 933 Q566 946 575 971 L633 929 Z M785 597 L722 627 L810 810 L903 774 L785 597 Z M659 307 Q649 227 633.5 178 Q618 129 590 92 Q551 41 492 13 Q433 -15 364 -15 Q288 -15 226 17.5 Q164 50 128.5 106.5 Q93 163 93 233 Q93 278 99 332 L151 754 L262 754 L209 318 Q205 270 205 252 Q205 176 247 133 Q289 90 362 90 Q411 90 449.5 112 Q488 134 511 175 Q525 201 534 235.5 Q543 270 549 323 L602 754 L714 754 L659 307 Z " />
<glyph glyph-name="uni1EF0" unicode="&#x1ef0;" horiz-adv-x="744" d="M785 597 L722 627 L810 810 L903 774 L785 597 Z M659 307 Q649 227 633.5 178 Q618 129 590 92 Q551 41 492 13 Q433 -15 364 -15 Q288 -15 226 17.5 Q164 50 128.5 106.5 Q93 163 93 233 Q93 278 99 332 L151 754 L262 754 L209 318 Q205 270 205 252 Q205 176 247 133 Q289 90 362 90 Q411 90 449.5 112 Q488 134 511 175 Q525 201 534 235.5 Q543 270 549 323 L602 754 L714 754 L659 307 Z M350 -71 Q376 -71 393 -89.5 Q410 -108 410 -136 Q410 -160 392.5 -177 Q375 -194 350 -194 Q324 -194 305.5 -176 Q287 -158 287 -132 Q287 -105 304.5 -88 Q322 -71 350 -71 Z " />
<glyph glyph-name="uni1EF4" unicode="&#x1ef4;" horiz-adv-x="583" d="M203 0 L246 345 L51 754 L171 754 L310 454 L507 754 L636 754 L357 338 L315 0 L203 0 Z M250 -67 Q276 -67 293 -85 Q310 -103 310 -131 Q310 -156 292.5 -173 Q275 -190 250 -190 Q224 -190 205 -172 Q186 -154 186 -128 Q186 -101 204 -84 Q222 -67 250 -67 Z " />
<glyph glyph-name="uni1EF6" unicode="&#x1ef6;" horiz-adv-x="583" d="M324 931 L332 933 Q360 938 367 938 Q404 943 418 953 Q432 963 432 983 Q432 997 419.5 1005.5 Q407 1014 385 1014 Q371 1014 365.5 1012.5 Q360 1011 342 1001 L328 996 L324 993 L316 990 L307 1041 L314 1044 L319 1045 Q376 1066 421 1066 Q465 1066 491.5 1045 Q518 1024 518 989 Q518 946 485.5 919 Q453 892 401 892 L376 892 L367 849 L306 849 L324 931 Z M203 0 L246 345 L51 754 L171 754 L310 454 L507 754 L636 754 L357 338 L315 0 L203 0 Z " />
<glyph glyph-name="uni1EF8" unicode="&#x1ef8;" horiz-adv-x="583" d="M519 929 Q496 883 469 861.5 Q442 840 410 840 Q391 840 372.5 846.5 Q354 853 322 871 Q304 881 296 884 Q288 887 281 887 Q270 887 259.5 877 Q249 867 231 840 L174 884 Q211 934 233.5 952 Q256 970 283 970 Q298 970 310.5 964.5 Q323 959 354 941 Q374 929 386.5 924.5 Q399 920 410 920 Q426 920 439.5 933 Q453 946 462 971 L519 929 Z M203 0 L246 345 L51 754 L171 754 L310 454 L507 754 L636 754 L357 338 L315 0 L203 0 Z " />
<glyph glyph-name="a" unicode="a" horiz-adv-x="601" d="M386 0 L392 50 Q354 16 322 2.5 Q290 -11 250 -11 Q209 -11 172 4 Q135 19 106 46 Q74 78 58.5 118 Q43 158 43 211 Q43 287 73 346 Q103 405 157 438 Q211 471 280 471 Q330 471 365 455 Q400 439 435 400 L443 460 L550 460 L494 0 L386 0 Z M294 381 Q255 381 222 359.5 Q189 338 170 300.5 Q151 263 151 217 Q151 156 185.5 117.5 Q220 79 273 79 Q312 79 345.5 101.5 Q379 124 399 161.5 Q419 199 419 243 Q419 304 384 342.5 Q349 381 294 381 Z " />
<glyph glyph-name="aacute" unicode="&#xe1;" horiz-adv-x="601" d="M281 565 L412 725 L493 675 L337 532 L281 565 Z M386 0 L392 50 Q354 16 322 2.5 Q290 -11 250 -11 Q209 -11 172 4 Q135 19 106 46 Q74 78 58.5 118 Q43 158 43 211 Q43 287 73 346 Q103 405 157 438 Q211 471 280 471 Q330 471 365 455 Q400 439 435 400 L443 460 L550 460 L494 0 L386 0 Z M294 381 Q255 381 222 359.5 Q189 338 170 300.5 Q151 263 151 217 Q151 156 185.5 117.5 Q220 79 273 79 Q312 79 345.5 101.5 Q379 124 399 161.5 Q419 199 419 243 Q419 304 384 342.5 Q349 381 294 381 Z " />
<glyph glyph-name="abreve" unicode="&#x103;" horiz-adv-x="601" d="M293 681 Q293 655 308.5 637.5 Q324 620 349 620 Q402 620 428 698 L505 698 Q494 664 484.5 645.5 Q475 627 460 607 Q411 547 345 547 Q290 547 253.5 585.5 Q217 624 217 680 L217 698 L293 698 L293 681 Z M386 0 L392 50 Q354 16 322 2.5 Q290 -11 250 -11 Q209 -11 172 4 Q135 19 106 46 Q74 78 58.5 118 Q43 158 43 211 Q43 287 73 346 Q103 405 157 438 Q211 471 280 471 Q330 471 365 455 Q400 439 435 400 L443 460 L550 460 L494 0 L386 0 Z M294 381 Q255 381 222 359.5 Q189 338 170 300.5 Q151 263 151 217 Q151 156 185.5 117.5 Q220 79 273 79 Q312 79 345.5 101.5 Q379 124 399 161.5 Q419 199 419 243 Q419 304 384 342.5 Q349 381 294 381 Z " />
<glyph glyph-name="acircumflex" unicode="&#xe2;" horiz-adv-x="601" d="M195 582 L358 725 L473 581 L424 534 L348 626 L241 532 L195 582 Z M386 0 L392 50 Q354 16 322 2.5 Q290 -11 250 -11 Q209 -11 172 4 Q135 19 106 46 Q74 78 58.5 118 Q43 158 43 211 Q43 287 73 346 Q103 405 157 438 Q211 471 280 471 Q330 471 365 455 Q400 439 435 400 L443 460 L550 460 L494 0 L386 0 Z M294 381 Q255 381 222 359.5 Q189 338 170 300.5 Q151 263 151 217 Q151 156 185.5 117.5 Q220 79 273 79 Q312 79 345.5 101.5 Q379 124 399 161.5 Q419 199 419 243 Q419 304 384 342.5 Q349 381 294 381 Z " />
<glyph glyph-name="adieresis" unicode="&#xe4;" horiz-adv-x="601" d="M247 686 Q274 686 293.5 667 Q313 648 313 620 Q313 596 294 577 Q275 558 250 558 Q225 558 206.5 577.5 Q188 597 188 624 Q188 651 205 668.5 Q222 686 247 686 Z M440 686 Q466 686 484.5 667 Q503 648 503 620 Q503 596 485 577 Q467 558 443 558 Q417 558 398.5 577.5 Q380 597 380 624 Q380 651 397 668.5 Q414 686 440 686 Z M386 0 L392 50 Q354 16 322 2.5 Q290 -11 250 -11 Q209 -11 172 4 Q135 19 106 46 Q74 78 58.5 118 Q43 158 43 211 Q43 287 73 346 Q103 405 157 438 Q211 471 280 471 Q330 471 365 455 Q400 439 435 400 L443 460 L550 460 L494 0 L386 0 Z M294 381 Q255 381 222 359.5 Q189 338 170 300.5 Q151 263 151 217 Q151 156 185.5 117.5 Q220 79 273 79 Q312 79 345.5 101.5 Q379 124 399 161.5 Q419 199 419 243 Q419 304 384 342.5 Q349 381 294 381 Z " />
<glyph glyph-name="agrave" unicode="&#xe0;" horiz-adv-x="601" d="M398 566 L345 532 L226 672 L305 725 L398 566 Z M386 0 L392 50 Q354 16 322 2.5 Q290 -11 250 -11 Q209 -11 172 4 Q135 19 106 46 Q74 78 58.5 118 Q43 158 43 211 Q43 287 73 346 Q103 405 157 438 Q211 471 280 471 Q330 471 365 455 Q400 439 435 400 L443 460 L550 460 L494 0 L386 0 Z M294 381 Q255 381 222 359.5 Q189 338 170 300.5 Q151 263 151 217 Q151 156 185.5 117.5 Q220 79 273 79 Q312 79 345.5 101.5 Q379 124 399 161.5 Q419 199 419 243 Q419 304 384 342.5 Q349 381 294 381 Z " />
<glyph glyph-name="amacron" unicode="&#x101;" horiz-adv-x="601" d="M495 576 L183 576 L192 654 L505 654 L495 576 Z M386 0 L392 50 Q354 16 322 2.5 Q290 -11 250 -11 Q209 -11 172 4 Q135 19 106 46 Q74 78 58.5 118 Q43 158 43 211 Q43 287 73 346 Q103 405 157 438 Q211 471 280 471 Q330 471 365 455 Q400 439 435 400 L443 460 L550 460 L494 0 L386 0 Z M294 381 Q255 381 222 359.5 Q189 338 170 300.5 Q151 263 151 217 Q151 156 185.5 117.5 Q220 79 273 79 Q312 79 345.5 101.5 Q379 124 399 161.5 Q419 199 419 243 Q419 304 384 342.5 Q349 381 294 381 Z " />
<glyph glyph-name="aogonek" unicode="&#x105;" horiz-adv-x="601" d="M494 0 Q486 -5 469 -15.5 Q452 -26 445.5 -30.5 Q439 -35 434 -40 Q419 -52 410 -66.5 Q401 -81 401 -93 Q401 -110 414.5 -120.5 Q428 -131 450 -131 Q469 -131 502 -122 L484 -190 Q464 -200 447.5 -204.5 Q431 -209 411 -209 Q369 -209 340.5 -182.5 Q312 -156 312 -116 Q312 -82 335.5 -54.5 Q359 -27 411 0 L386 0 L392 50 Q354 16 322 2.5 Q290 -11 250 -11 Q209 -11 172 4 Q135 19 106 46 Q74 78 58.5 118 Q43 158 43 211 Q43 287 73 346 Q103 405 157 438 Q211 471 280 471 Q330 471 365 455 Q400 439 435 400 L443 460 L550 460 L494 0 Z M294 381 Q255 381 222 359.5 Q189 338 170 300.5 Q151 263 151 217 Q151 156 185.5 117.5 Q220 79 273 79 Q312 79 345.5 101.5 Q379 124 399 161.5 Q419 199 419 243 Q419 304 384 342.5 Q349 381 294 381 Z " />
<glyph glyph-name="aring" unicode="&#xe5;" horiz-adv-x="601" d="M347 736 Q393 736 424 704.5 Q455 673 455 627 Q455 583 423.5 551.5 Q392 520 348 520 Q303 520 271.5 551.5 Q240 583 240 628 Q240 672 271.5 704 Q303 736 347 736 Z M347 673 Q328 673 314.5 660 Q301 647 301 628 Q301 609 314.5 595.5 Q328 582 347 582 Q366 582 379.5 595.5 Q393 609 393 628 Q393 647 379.5 660 Q366 673 347 673 Z M386 0 L392 50 Q354 16 322 2.5 Q290 -11 250 -11 Q209 -11 172 4 Q135 19 106 46 Q74 78 58.5 118 Q43 158 43 211 Q43 287 73 346 Q103 405 157 438 Q211 471 280 471 Q330 471 365 455 Q400 439 435 400 L443 460 L550 460 L494 0 L386 0 Z M294 381 Q255 381 222 359.5 Q189 338 170 300.5 Q151 263 151 217 Q151 156 185.5 117.5 Q220 79 273 79 Q312 79 345.5 101.5 Q379 124 399 161.5 Q419 199 419 243 Q419 304 384 342.5 Q349 381 294 381 Z " />
<glyph glyph-name="aringacute" unicode="&#x1fb;" horiz-adv-x="601" d="M211 759 L342 921 L423 870 L266 728 L211 759 Z M347 736 Q393 736 424 704.5 Q455 673 455 627 Q455 583 423.5 551.5 Q392 520 348 520 Q303 520 271.5 551.5 Q240 583 240 628 Q240 672 271.5 704 Q303 736 347 736 Z M347 673 Q328 673 314.5 660 Q301 647 301 628 Q301 609 314.5 595.5 Q328 582 347 582 Q366 582 379.5 595.5 Q393 609 393 628 Q393 647 379.5 660 Q366 673 347 673 Z M386 0 L392 50 Q354 16 322 2.5 Q290 -11 250 -11 Q209 -11 172 4 Q135 19 106 46 Q74 78 58.5 118 Q43 158 43 211 Q43 287 73 346 Q103 405 157 438 Q211 471 280 471 Q330 471 365 455 Q400 439 435 400 L443 460 L550 460 L494 0 L386 0 Z M294 381 Q255 381 222 359.5 Q189 338 170 300.5 Q151 263 151 217 Q151 156 185.5 117.5 Q220 79 273 79 Q312 79 345.5 101.5 Q379 124 399 161.5 Q419 199 419 243 Q419 304 384 342.5 Q349 381 294 381 Z " />
<glyph glyph-name="atilde" unicode="&#xe3;" horiz-adv-x="601" d="M512 652 Q490 609 463 586.5 Q436 564 407 564 Q378 564 305 608 Q299 611 289 611 Q270 611 259 590 Q249 573 243 565 L186 603 Q215 650 238.5 669.5 Q262 689 289 689 Q303 689 316 684 Q329 679 358 662 Q393 641 408 641 Q434 641 455 690 L512 652 Z M386 0 L392 50 Q354 16 322 2.5 Q290 -11 250 -11 Q209 -11 172 4 Q135 19 106 46 Q74 78 58.5 118 Q43 158 43 211 Q43 287 73 346 Q103 405 157 438 Q211 471 280 471 Q330 471 365 455 Q400 439 435 400 L443 460 L550 460 L494 0 L386 0 Z M294 381 Q255 381 222 359.5 Q189 338 170 300.5 Q151 263 151 217 Q151 156 185.5 117.5 Q220 79 273 79 Q312 79 345.5 101.5 Q379 124 399 161.5 Q419 199 419 243 Q419 304 384 342.5 Q349 381 294 381 Z " />
<glyph glyph-name="ae" unicode="&#xe6;" horiz-adv-x="877" d="M460 198 Q461 143 498 109.5 Q535 76 597 76 Q635 76 663.5 90 Q692 104 718 136 L790 84 Q753 34 703.5 9.5 Q654 -15 588 -15 Q526 -15 482.5 6 Q439 27 408 72 Q368 25 327.5 5 Q287 -15 231 -15 Q175 -15 129 6.5 Q83 28 56 65 Q29 102 29 147 Q29 190 52.5 224.5 Q76 259 117.5 278.5 Q159 298 212 298 Q255 298 289 286 Q323 274 358 247 Q364 291 364 315 Q364 348 338.5 366 Q313 384 266 384 Q236 384 209.5 379 Q183 374 142 359 L155 454 Q202 466 227.5 470.5 Q253 475 281 475 Q338 475 378 457 Q418 439 444 402 Q508 475 605 475 Q670 475 721 444.5 Q772 414 800 359.5 Q828 305 828 236 Q828 214 827 198 L460 198 Z M721 277 Q717 329 685.5 356.5 Q654 384 601 384 Q547 384 515.5 358.5 Q484 333 468 277 L721 277 Z M234 208 Q190 208 164 191 Q138 174 138 145 Q138 115 166.5 95.5 Q195 76 238 76 Q285 76 315 94 Q345 112 345 141 Q345 171 314 189.5 Q283 208 234 208 Z " />
<glyph glyph-name="aeacute" unicode="&#x1fd;" horiz-adv-x="877" d="M382 565 L512 725 L593 675 L436 532 L382 565 Z M460 198 Q461 143 498 109.5 Q535 76 597 76 Q635 76 663.5 90 Q692 104 718 136 L790 84 Q753 34 703.5 9.5 Q654 -15 588 -15 Q526 -15 482.5 6 Q439 27 408 72 Q368 25 327.5 5 Q287 -15 231 -15 Q175 -15 129 6.5 Q83 28 56 65 Q29 102 29 147 Q29 190 52.5 224.5 Q76 259 117.5 278.5 Q159 298 212 298 Q255 298 289 286 Q323 274 358 247 Q364 291 364 315 Q364 348 338.5 366 Q313 384 266 384 Q236 384 209.5 379 Q183 374 142 359 L155 454 Q202 466 227.5 470.5 Q253 475 281 475 Q338 475 378 457 Q418 439 444 402 Q508 475 605 475 Q670 475 721 444.5 Q772 414 800 359.5 Q828 305 828 236 Q828 214 827 198 L460 198 Z M721 277 Q717 329 685.5 356.5 Q654 384 601 384 Q547 384 515.5 358.5 Q484 333 468 277 L721 277 Z M234 208 Q190 208 164 191 Q138 174 138 145 Q138 115 166.5 95.5 Q195 76 238 76 Q285 76 315 94 Q345 112 345 141 Q345 171 314 189.5 Q283 208 234 208 Z " />
<glyph glyph-name="b" unicode="b" horiz-adv-x="612" d="M203 418 Q247 449 277.5 460 Q308 471 348 471 Q410 471 459 442 Q508 413 536 361 Q564 309 564 244 Q564 174 532 115.5 Q500 57 445 23 Q390 -11 324 -11 Q273 -11 235 6 Q197 23 159 62 L151 0 L44 0 L146 824 L253 824 L203 418 Z M323 381 Q281 381 247.5 359.5 Q214 338 195 300.5 Q176 263 176 216 Q176 155 212 117 Q248 79 305 79 Q346 79 380.5 100.5 Q415 122 435 159.5 Q455 197 455 241 Q455 303 418.5 342 Q382 381 323 381 Z " />
<glyph glyph-name="c" unicode="c" horiz-adv-x="458" d="M427 306 Q394 349 363.5 366.5 Q333 384 293 384 Q231 384 192 339 Q153 294 153 223 Q153 156 190 116 Q227 76 287 76 Q319 76 345 86.5 Q371 97 405 124 L391 11 Q356 -3 328 -9 Q300 -15 271 -15 Q205 -15 153.5 15 Q102 45 73 99 Q44 153 44 223 Q44 293 75 351 Q106 409 160.5 442 Q215 475 281 475 Q326 475 362.5 461.5 Q399 448 440 416 L427 306 Z " />
<glyph glyph-name="cacute" unicode="&#x107;" horiz-adv-x="458" d="M247 565 L379 725 L459 675 L303 532 L247 565 Z M427 306 Q394 349 363.5 366.5 Q333 384 293 384 Q231 384 192 339 Q153 294 153 223 Q153 156 190 116 Q227 76 287 76 Q319 76 345 86.5 Q371 97 405 124 L391 11 Q356 -3 328 -9 Q300 -15 271 -15 Q205 -15 153.5 15 Q102 45 73 99 Q44 153 44 223 Q44 293 75 351 Q106 409 160.5 442 Q215 475 281 475 Q326 475 362.5 461.5 Q399 448 440 416 L427 306 Z " />
<glyph glyph-name="ccaron" unicode="&#x10d;" horiz-adv-x="458" d="M466 677 L303 532 L189 677 L237 724 L314 633 L420 725 L466 677 Z M427 306 Q394 349 363.5 366.5 Q333 384 293 384 Q231 384 192 339 Q153 294 153 223 Q153 156 190 116 Q227 76 287 76 Q319 76 345 86.5 Q371 97 405 124 L391 11 Q356 -3 328 -9 Q300 -15 271 -15 Q205 -15 153.5 15 Q102 45 73 99 Q44 153 44 223 Q44 293 75 351 Q106 409 160.5 442 Q215 475 281 475 Q326 475 362.5 461.5 Q399 448 440 416 L427 306 Z " />
<glyph glyph-name="ccedilla" unicode="&#xe7;" horiz-adv-x="458" d="M427 306 Q394 349 363.5 366.5 Q333 384 293 384 Q231 384 192 339 Q153 294 153 223 Q153 156 190 116 Q227 76 287 76 Q319 76 345 86.5 Q371 97 405 124 L391 11 Q356 -3 328 -9 Q300 -15 271 -15 Q205 -15 153.5 15 Q102 45 73 99 Q44 153 44 223 Q44 293 75 351 Q106 409 160.5 442 Q215 475 281 475 Q326 475 362.5 461.5 Q399 448 440 416 L427 306 Z M112 -202 L209 -53 L299 -101 L169 -235 L112 -202 Z " />
<glyph glyph-name="ccircumflex" unicode="&#x109;" horiz-adv-x="458" d="M148 582 L311 725 L426 581 L376 534 L301 626 L194 532 L148 582 Z M427 306 Q394 349 363.5 366.5 Q333 384 293 384 Q231 384 192 339 Q153 294 153 223 Q153 156 190 116 Q227 76 287 76 Q319 76 345 86.5 Q371 97 405 124 L391 11 Q356 -3 328 -9 Q300 -15 271 -15 Q205 -15 153.5 15 Q102 45 73 99 Q44 153 44 223 Q44 293 75 351 Q106 409 160.5 442 Q215 475 281 475 Q326 475 362.5 461.5 Q399 448 440 416 L427 306 Z " />
<glyph glyph-name="cdotaccent" unicode="&#x10b;" horiz-adv-x="458" d="M312 692 Q340 692 360.5 672 Q381 652 381 624 Q381 598 361 578.5 Q341 559 315 559 Q288 559 269 579 Q250 599 250 627 Q250 655 268 673.5 Q286 692 312 692 Z M427 306 Q394 349 363.5 366.5 Q333 384 293 384 Q231 384 192 339 Q153 294 153 223 Q153 156 190 116 Q227 76 287 76 Q319 76 345 86.5 Q371 97 405 124 L391 11 Q356 -3 328 -9 Q300 -15 271 -15 Q205 -15 153.5 15 Q102 45 73 99 Q44 153 44 223 Q44 293 75 351 Q106 409 160.5 442 Q215 475 281 475 Q326 475 362.5 461.5 Q399 448 440 416 L427 306 Z " />
<glyph glyph-name="d" unicode="d" horiz-adv-x="621" d="M399 0 L406 50 Q365 13 336.5 1 Q308 -11 264 -11 Q201 -11 151 18.5 Q101 48 73 100 Q45 152 45 219 Q45 290 76 348 Q107 406 160.5 438.5 Q214 471 281 471 Q333 471 370 453 Q407 435 447 390 L501 824 L608 824 L507 0 L399 0 Z M299 381 Q258 381 225 359.5 Q192 338 173 299.5 Q154 261 154 214 Q154 152 189.5 115.5 Q225 79 284 79 Q352 79 392 134 Q410 159 420.5 190 Q431 221 431 250 Q431 308 394.5 344.5 Q358 381 299 381 Z " />
<glyph glyph-name="eth" unicode="&#xf0;" horiz-adv-x="601" d="M185 828 Q221 819 264 798 Q307 777 347 749 L458 808 L519 747 L406 690 Q553 531 553 290 Q553 218 538.5 166.5 Q524 115 492 75 Q420 -15 301 -15 Q226 -15 168 16 Q110 47 77.5 101.5 Q45 156 45 226 Q45 295 78 352 Q111 409 167.5 442 Q224 475 293 475 Q338 475 370.5 461 Q403 447 441 410 Q425 485 394 545.5 Q363 606 322 647 L209 590 L150 646 L255 703 Q225 724 204.5 735.5 Q184 747 138 766 L185 828 Z M302 384 Q237 384 195 340 Q153 296 153 228 Q153 160 192.5 118 Q232 76 296 76 Q337 76 370.5 97 Q404 118 422.5 155.5 Q441 193 441 240 Q441 305 402.5 344.5 Q364 384 302 384 Z " />
<glyph glyph-name="dcaron" unicode="&#x10f;" horiz-adv-x="753" d="M692 618 L636 649 L725 828 L812 788 L692 618 Z M399 0 L406 50 Q365 13 336.5 1 Q308 -11 264 -11 Q201 -11 151 18.5 Q101 48 73 100 Q45 152 45 219 Q45 290 76 348 Q107 406 160.5 438.5 Q214 471 281 471 Q333 471 370 453 Q407 435 447 390 L501 824 L608 824 L507 0 L399 0 Z M299 381 Q258 381 225 359.5 Q192 338 173 299.5 Q154 261 154 214 Q154 152 189.5 115.5 Q225 79 284 79 Q352 79 392 134 Q410 159 420.5 190 Q431 221 431 250 Q431 308 394.5 344.5 Q358 381 299 381 Z " />
<glyph glyph-name="dslash" unicode="&#x111;" horiz-adv-x="621" d="M664 727 L653 636 L585 636 L507 0 L399 0 L406 50 Q365 13 336.5 1 Q308 -11 264 -11 Q201 -11 151 18.5 Q101 48 73 100 Q45 152 45 219 Q45 290 76 348 Q107 406 160.5 438.5 Q214 471 281 471 Q333 471 369.5 453 Q406 435 447 390 L478 636 L342 636 L353 727 L488 727 L501 824 L608 824 L597 727 L664 727 Z M299 381 Q258 381 225 359.5 Q192 338 173 299.5 Q154 261 154 214 Q154 152 189.5 115.5 Q225 79 284 79 Q352 79 392 134 Q410 159 420.5 190 Q431 221 431 250 Q431 308 394.5 344.5 Q358 381 299 381 Z " />
<glyph glyph-name="e" unicode="e" horiz-adv-x="560" d="M154 191 Q156 138 190 107 Q224 76 280 76 Q357 76 395 132 L476 87 Q434 31 389.5 8 Q345 -15 278 -15 Q208 -15 155 13.5 Q102 42 73 94.5 Q44 147 44 217 Q44 290 76 349 Q108 408 164 441.5 Q220 475 289 475 Q391 475 451 408.5 Q511 342 511 229 L510 191 L154 191 Z M401 278 Q385 384 284 384 Q235 384 204.5 358 Q174 332 160 278 L401 278 Z " />
<glyph glyph-name="eacute" unicode="&#xe9;" horiz-adv-x="560" d="M254 565 L385 725 L466 675 L310 532 L254 565 Z M154 191 Q156 138 190 107 Q224 76 280 76 Q357 76 395 132 L476 87 Q434 31 389.5 8 Q345 -15 278 -15 Q208 -15 155 13.5 Q102 42 73 94.5 Q44 147 44 217 Q44 290 76 349 Q108 408 164 441.5 Q220 475 289 475 Q391 475 451 408.5 Q511 342 511 229 L510 191 L154 191 Z M401 278 Q385 384 284 384 Q235 384 204.5 358 Q174 332 160 278 L401 278 Z " />
<glyph glyph-name="ebreve" unicode="&#x115;" horiz-adv-x="560" d="M273 688 Q273 656 288.5 638 Q304 620 330 620 Q356 620 375.5 639 Q395 658 409 698 L485 698 Q475 665 465.5 646 Q456 627 441 607 Q417 578 387 562.5 Q357 547 325 547 Q282 547 247 574.5 Q212 602 202 644 Q199 656 198.5 666 Q198 676 198 698 L273 698 L273 688 Z M154 191 Q156 138 190 107 Q224 76 280 76 Q357 76 395 132 L476 87 Q434 31 389.5 8 Q345 -15 278 -15 Q208 -15 155 13.5 Q102 42 73 94.5 Q44 147 44 217 Q44 290 76 349 Q108 408 164 441.5 Q220 475 289 475 Q391 475 451 408.5 Q511 342 511 229 L510 191 L154 191 Z M401 278 Q385 384 284 384 Q235 384 204.5 358 Q174 332 160 278 L401 278 Z " />
<glyph glyph-name="ecaron" unicode="&#x11b;" horiz-adv-x="560" d="M476 677 L314 532 L199 677 L249 724 L324 633 L431 725 L476 677 Z M154 191 Q156 138 190 107 Q224 76 280 76 Q357 76 395 132 L476 87 Q434 31 389.5 8 Q345 -15 278 -15 Q208 -15 155 13.5 Q102 42 73 94.5 Q44 147 44 217 Q44 290 76 349 Q108 408 164 441.5 Q220 475 289 475 Q391 475 451 408.5 Q511 342 511 229 L510 191 L154 191 Z M401 278 Q385 384 284 384 Q235 384 204.5 358 Q174 332 160 278 L401 278 Z " />
<glyph glyph-name="ecircumflex" unicode="&#xea;" horiz-adv-x="560" d="M176 582 L339 725 L453 581 L405 534 L328 626 L221 532 L176 582 Z M154 191 Q156 138 190 107 Q224 76 280 76 Q357 76 395 132 L476 87 Q434 31 389.5 8 Q345 -15 278 -15 Q208 -15 155 13.5 Q102 42 73 94.5 Q44 147 44 217 Q44 290 76 349 Q108 408 164 441.5 Q220 475 289 475 Q391 475 451 408.5 Q511 342 511 229 L510 191 L154 191 Z M401 278 Q385 384 284 384 Q235 384 204.5 358 Q174 332 160 278 L401 278 Z " />
<glyph glyph-name="edieresis" unicode="&#xeb;" horiz-adv-x="560" d="M225 686 Q252 686 271 667 Q290 648 290 620 Q290 596 271 577 Q252 558 227 558 Q202 558 183.5 577.5 Q165 597 165 624 Q165 651 182 668.5 Q199 686 225 686 Z M417 686 Q443 686 461.5 667 Q480 648 480 620 Q480 596 462 577 Q444 558 420 558 Q394 558 375.5 577.5 Q357 597 357 624 Q357 651 374 668.5 Q391 686 417 686 Z M154 191 Q156 138 190 107 Q224 76 280 76 Q357 76 395 132 L476 87 Q434 31 389.5 8 Q345 -15 278 -15 Q208 -15 155 13.5 Q102 42 73 94.5 Q44 147 44 217 Q44 290 76 349 Q108 408 164 441.5 Q220 475 289 475 Q391 475 451 408.5 Q511 342 511 229 L510 191 L154 191 Z M401 278 Q385 384 284 384 Q235 384 204.5 358 Q174 332 160 278 L401 278 Z " />
<glyph glyph-name="edotaccent" unicode="&#x117;" horiz-adv-x="560" d="M319 692 Q347 692 367.5 672 Q388 652 388 624 Q388 598 368 578.5 Q348 559 322 559 Q295 559 276 579 Q257 599 257 627 Q257 655 275 673.5 Q293 692 319 692 Z M154 191 Q156 138 190 107 Q224 76 280 76 Q357 76 395 132 L476 87 Q434 31 389.5 8 Q345 -15 278 -15 Q208 -15 155 13.5 Q102 42 73 94.5 Q44 147 44 217 Q44 290 76 349 Q108 408 164 441.5 Q220 475 289 475 Q391 475 451 408.5 Q511 342 511 229 L510 191 L154 191 Z M401 278 Q385 384 284 384 Q235 384 204.5 358 Q174 332 160 278 L401 278 Z " />
<glyph glyph-name="egrave" unicode="&#xe8;" horiz-adv-x="560" d="M375 566 L322 532 L202 672 L281 725 L375 566 Z M154 191 Q156 138 190 107 Q224 76 280 76 Q357 76 395 132 L476 87 Q434 31 389.5 8 Q345 -15 278 -15 Q208 -15 155 13.5 Q102 42 73 94.5 Q44 147 44 217 Q44 290 76 349 Q108 408 164 441.5 Q220 475 289 475 Q391 475 451 408.5 Q511 342 511 229 L510 191 L154 191 Z M401 278 Q385 384 284 384 Q235 384 204.5 358 Q174 332 160 278 L401 278 Z " />
<glyph glyph-name="emacron" unicode="&#x113;" horiz-adv-x="560" d="M472 576 L159 576 L169 654 L483 654 L472 576 Z M154 191 Q156 138 190 107 Q224 76 280 76 Q357 76 395 132 L476 87 Q434 31 389.5 8 Q345 -15 278 -15 Q208 -15 155 13.5 Q102 42 73 94.5 Q44 147 44 217 Q44 290 76 349 Q108 408 164 441.5 Q220 475 289 475 Q391 475 451 408.5 Q511 342 511 229 L510 191 L154 191 Z M401 278 Q385 384 284 384 Q235 384 204.5 358 Q174 332 160 278 L401 278 Z " />
<glyph glyph-name="eogonek" unicode="&#x119;" horiz-adv-x="560" d="M421 -190 Q386 -209 349 -209 Q307 -209 278.5 -182.5 Q250 -156 250 -116 Q250 -87 267.5 -63.5 Q285 -40 330 -10 Q299 -15 268 -15 Q203 -15 152 14.5 Q101 44 72.5 96.5 Q44 149 44 217 Q44 290 76 349 Q108 408 164 441.5 Q220 475 289 475 Q391 475 451 408.5 Q511 342 511 229 L510 191 L154 191 Q156 138 190 107 Q224 76 280 76 Q357 76 395 132 L476 87 Q465 71 453 59 Q441 47 420 28 Q377 -12 358 -40 Q339 -68 339 -92 Q339 -109 352.5 -120 Q366 -131 388 -131 Q407 -131 440 -122 L421 -190 Z M401 278 Q385 384 284 384 Q235 384 204.5 358 Q174 332 160 278 L401 278 Z " />
<glyph glyph-name="uni0259" unicode="&#x259;" horiz-adv-x="560" d="M266 -15 Q164 -15 104 51.5 Q44 118 44 231 L45 269 L401 269 Q399 322 365 353 Q331 384 275 384 Q198 384 160 328 L79 373 Q121 429 165.5 452 Q210 475 277 475 Q347 475 400 446.5 Q453 418 482 365.5 Q511 313 511 243 Q511 170 479 111 Q447 52 391 18.5 Q335 -15 266 -15 Z M271 76 Q320 76 350.5 102 Q381 128 395 182 L154 182 Q170 76 271 76 Z " />
<glyph glyph-name="f" unicode="f" horiz-adv-x="306" d="M51 0 L95 359 L25 359 L37 460 L107 460 L132 666 Q138 712 149.5 741 Q161 770 180 789 Q197 806 223 815.5 Q249 825 276 825 Q297 825 317.5 819.5 Q338 814 367 800 L356 705 Q339 719 327 724.5 Q315 730 299 730 Q270 730 256.5 709.5 Q243 689 236 635 L215 460 L313 460 L301 359 L202 359 L158 0 L51 0 Z " />
<glyph glyph-name="g" unicode="g" horiz-adv-x="612" d="M505 -5 Q496 -78 483 -116.5 Q470 -155 444 -184 Q412 -221 364.5 -240.5 Q317 -260 258 -260 Q200 -260 150.5 -241.5 Q101 -223 69 -190 Q42 -163 31.5 -131 Q21 -99 21 -46 L125 -46 Q127 -77 131 -93 Q135 -109 145 -122 Q159 -144 187 -156.5 Q215 -169 250 -169 Q281 -169 309 -159 Q337 -149 354 -132 Q387 -99 394 -23 L402 42 Q366 13 333.5 1 Q301 -11 259 -11 Q197 -11 147.5 18.5 Q98 48 70.5 100 Q43 152 43 217 Q43 289 75.5 347 Q108 405 165 438 Q222 471 293 471 Q342 471 376 456 Q410 441 447 403 L454 460 L562 460 L505 -5 Z M299 381 Q257 381 223.5 360 Q190 339 170.5 301.5 Q151 264 151 217 Q151 155 188 117 Q225 79 284 79 Q328 79 363 100 Q398 121 417.5 158.5 Q437 196 437 242 Q437 304 399 342.5 Q361 381 299 381 Z " />
<glyph glyph-name="gbreve" unicode="&#x11f;" horiz-adv-x="612" d="M298 687 Q298 656 313.5 638 Q329 620 355 620 Q382 620 401.5 639 Q421 658 435 698 L511 698 Q488 624 447 585.5 Q406 547 351 547 Q296 547 259.5 585.5 Q223 624 223 680 Q223 690 224 698 L298 698 L298 687 Z M505 -5 Q496 -78 483 -116.5 Q470 -155 444 -184 Q412 -221 364.5 -240.5 Q317 -260 258 -260 Q200 -260 150.5 -241.5 Q101 -223 69 -190 Q42 -163 31.5 -131 Q21 -99 21 -46 L125 -46 Q127 -77 131 -93 Q135 -109 145 -122 Q159 -144 187 -156.5 Q215 -169 250 -169 Q281 -169 309 -159 Q337 -149 354 -132 Q387 -99 394 -23 L402 42 Q366 13 333.5 1 Q301 -11 259 -11 Q197 -11 147.5 18.5 Q98 48 70.5 100 Q43 152 43 217 Q43 289 75.5 347 Q108 405 165 438 Q222 471 293 471 Q342 471 376 456 Q410 441 447 403 L454 460 L562 460 L505 -5 Z M299 381 Q257 381 223.5 360 Q190 339 170.5 301.5 Q151 264 151 217 Q151 155 188 117 Q225 79 284 79 Q328 79 363 100 Q398 121 417.5 158.5 Q437 196 437 242 Q437 304 399 342.5 Q361 381 299 381 Z " />
<glyph glyph-name="gcaron" unicode="&#x1e7;" horiz-adv-x="612" d="M502 677 L340 532 L225 677 L273 724 L350 633 L457 725 L502 677 Z M505 -5 Q496 -78 483 -116.5 Q470 -155 444 -184 Q412 -221 364.5 -240.5 Q317 -260 258 -260 Q200 -260 150.5 -241.5 Q101 -223 69 -190 Q42 -163 31.5 -131 Q21 -99 21 -46 L125 -46 Q127 -77 131 -93 Q135 -109 145 -122 Q159 -144 187 -156.5 Q215 -169 250 -169 Q281 -169 309 -159 Q337 -149 354 -132 Q387 -99 394 -23 L402 42 Q366 13 333.5 1 Q301 -11 259 -11 Q197 -11 147.5 18.5 Q98 48 70.5 100 Q43 152 43 217 Q43 289 75.5 347 Q108 405 165 438 Q222 471 293 471 Q342 471 376 456 Q410 441 447 403 L454 460 L562 460 L505 -5 Z M299 381 Q257 381 223.5 360 Q190 339 170.5 301.5 Q151 264 151 217 Q151 155 188 117 Q225 79 284 79 Q328 79 363 100 Q398 121 417.5 158.5 Q437 196 437 242 Q437 304 399 342.5 Q361 381 299 381 Z " />
<glyph glyph-name="gcircumflex" unicode="&#x11d;" horiz-adv-x="612" d="M202 582 L365 725 L480 581 L431 534 L355 626 L249 532 L202 582 Z M505 -5 Q496 -78 483 -116.5 Q470 -155 444 -184 Q412 -221 364.5 -240.5 Q317 -260 258 -260 Q200 -260 150.5 -241.5 Q101 -223 69 -190 Q42 -163 31.5 -131 Q21 -99 21 -46 L125 -46 Q127 -77 131 -93 Q135 -109 145 -122 Q159 -144 187 -156.5 Q215 -169 250 -169 Q281 -169 309 -159 Q337 -149 354 -132 Q387 -99 394 -23 L402 42 Q366 13 333.5 1 Q301 -11 259 -11 Q197 -11 147.5 18.5 Q98 48 70.5 100 Q43 152 43 217 Q43 289 75.5 347 Q108 405 165 438 Q222 471 293 471 Q342 471 376 456 Q410 441 447 403 L454 460 L562 460 L505 -5 Z M299 381 Q257 381 223.5 360 Q190 339 170.5 301.5 Q151 264 151 217 Q151 155 188 117 Q225 79 284 79 Q328 79 363 100 Q398 121 417.5 158.5 Q437 196 437 242 Q437 304 399 342.5 Q361 381 299 381 Z " />
<glyph glyph-name="uni0123" unicode="&#x123;" horiz-adv-x="612" d="M400 741 L455 711 L366 532 L279 573 L400 741 Z M505 -5 Q496 -78 483 -116.5 Q470 -155 444 -184 Q412 -221 364.5 -240.5 Q317 -260 258 -260 Q200 -260 150.5 -241.5 Q101 -223 69 -190 Q42 -163 31.5 -131 Q21 -99 21 -46 L125 -46 Q127 -77 131 -93 Q135 -109 145 -122 Q159 -144 187 -156.5 Q215 -169 250 -169 Q281 -169 309 -159 Q337 -149 354 -132 Q387 -99 394 -23 L402 42 Q366 13 333.5 1 Q301 -11 259 -11 Q197 -11 147.5 18.5 Q98 48 70.5 100 Q43 152 43 217 Q43 289 75.5 347 Q108 405 165 438 Q222 471 293 471 Q342 471 376 456 Q410 441 447 403 L454 460 L562 460 L505 -5 Z M299 381 Q257 381 223.5 360 Q190 339 170.5 301.5 Q151 264 151 217 Q151 155 188 117 Q225 79 284 79 Q328 79 363 100 Q398 121 417.5 158.5 Q437 196 437 242 Q437 304 399 342.5 Q361 381 299 381 Z " />
<glyph glyph-name="gdotaccent" unicode="&#x121;" horiz-adv-x="612" d="M346 692 Q374 692 394.5 672 Q415 652 415 624 Q415 598 395 578.5 Q375 559 349 559 Q322 559 303 579 Q284 599 284 627 Q284 655 302 673.5 Q320 692 346 692 Z M505 -5 Q496 -78 483 -116.5 Q470 -155 444 -184 Q412 -221 364.5 -240.5 Q317 -260 258 -260 Q200 -260 150.5 -241.5 Q101 -223 69 -190 Q42 -163 31.5 -131 Q21 -99 21 -46 L125 -46 Q127 -77 131 -93 Q135 -109 145 -122 Q159 -144 187 -156.5 Q215 -169 250 -169 Q281 -169 309 -159 Q337 -149 354 -132 Q387 -99 394 -23 L402 42 Q366 13 333.5 1 Q301 -11 259 -11 Q197 -11 147.5 18.5 Q98 48 70.5 100 Q43 152 43 217 Q43 289 75.5 347 Q108 405 165 438 Q222 471 293 471 Q342 471 376 456 Q410 441 447 403 L454 460 L562 460 L505 -5 Z M299 381 Q257 381 223.5 360 Q190 339 170.5 301.5 Q151 264 151 217 Q151 155 188 117 Q225 79 284 79 Q328 79 363 100 Q398 121 417.5 158.5 Q437 196 437 242 Q437 304 399 342.5 Q361 381 299 381 Z " />
<glyph glyph-name="h" unicode="h" horiz-adv-x="551" d="M203 420 Q239 448 268.5 459.5 Q298 471 334 471 Q401 471 442.5 435.5 Q484 400 484 344 Q484 330 478 272 L445 0 L337 0 L372 279 Q374 309 374 320 Q374 349 355 365 Q336 381 302 381 Q256 381 224 349 Q205 330 196 307 Q187 284 182 241 L151 0 L44 0 L146 824 L253 824 L203 420 Z " />
<glyph glyph-name="hbar" unicode="&#x127;" horiz-adv-x="551" d="M376 727 L366 636 L231 636 L203 420 Q240 448 269 459.5 Q298 471 334 471 Q401 471 442.5 435.5 Q484 400 484 344 Q484 330 478 272 L445 0 L337 0 L372 279 Q374 309 374 320 Q374 349 355 365 Q336 381 302 381 Q256 381 224 349 Q205 330 196 307 Q187 284 182 241 L151 0 L44 0 L122 636 L54 636 L66 727 L133 727 L146 824 L253 824 L241 727 L376 727 Z " />
<glyph glyph-name="hcircumflex" unicode="&#x125;" horiz-adv-x="551" d="M98 911 L276 1046 L401 910 L341 860 L264 944 L147 858 L98 911 Z M203 420 Q239 448 268.5 459.5 Q298 471 334 471 Q401 471 442.5 435.5 Q484 400 484 344 Q484 330 478 272 L445 0 L337 0 L372 279 Q374 309 374 320 Q374 349 355 365 Q336 381 302 381 Q256 381 224 349 Q205 330 196 307 Q187 284 182 241 L151 0 L44 0 L146 824 L253 824 L203 420 Z " />
<glyph glyph-name="i" unicode="i" horiz-adv-x="259" d="M179 746 Q207 746 227 726 Q247 706 247 678 Q247 652 227.5 633 Q208 614 182 614 Q155 614 135.5 633.5 Q116 653 116 681 Q116 709 134 727.5 Q152 746 179 746 Z M44 0 L101 460 L208 460 L151 0 L44 0 Z " />
<glyph glyph-name="dotlessi" unicode="&#x131;" horiz-adv-x="259" d="M44 0 L101 460 L208 460 L151 0 L44 0 Z " />
<glyph glyph-name="iacute" unicode="&#xed;" horiz-adv-x="259" d="M110 565 L229 725 L310 675 L164 532 L110 565 Z M44 0 L101 460 L208 460 L151 0 L44 0 Z " />
<glyph glyph-name="ibreve" unicode="&#x12d;" horiz-adv-x="259" d="M120 694 Q119 689 119 681 Q119 657 133 640.5 Q147 624 168 624 Q216 624 238 694 L313 694 Q294 626 255.5 590 Q217 554 166 554 Q116 554 80.5 591 Q45 628 45 680 L45 694 L120 694 Z M44 0 L101 460 L208 460 L151 0 L44 0 Z " />
<glyph glyph-name="icircumflex" unicode="&#xee;" horiz-adv-x="259" d="M34 582 L189 725 L296 581 L247 534 L179 626 L79 532 L34 582 Z M44 0 L101 460 L208 460 L151 0 L44 0 Z " />
<glyph glyph-name="idieresis" unicode="&#xef;" horiz-adv-x="259" d="M87 686 Q114 686 133.5 666.5 Q153 647 153 620 Q153 596 133.5 577 Q114 558 89 558 Q64 558 45.5 577.5 Q27 597 27 624 Q27 651 44 668.5 Q61 686 87 686 Z M252 686 Q278 686 296.5 667 Q315 648 315 620 Q315 596 297 577 Q279 558 255 558 Q229 558 210.5 577.5 Q192 597 192 624 Q192 651 209 668.5 Q226 686 252 686 Z M44 0 L101 460 L209 460 L153 0 L44 0 Z " />
<glyph glyph-name="igrave" unicode="&#xec;" horiz-adv-x="259" d="M217 566 L165 532 L53 672 L132 725 L217 566 Z M44 0 L101 460 L208 460 L151 0 L44 0 Z " />
<glyph glyph-name="ij" unicode="&#x133;" horiz-adv-x="525" d="M179 746 Q207 746 227 726 Q247 706 247 678 Q247 652 227.5 633 Q208 614 182 614 Q155 614 135.5 633.5 Q116 653 116 681 Q116 709 134 727.5 Q152 746 179 746 Z M44 0 L101 460 L208 460 L151 0 L44 0 Z M444 614 Q417 614 397.5 633.5 Q378 653 378 681 Q378 709 396 727.5 Q414 746 441 746 Q469 746 489 726 Q509 706 509 678 Q509 652 489.5 633 Q470 614 444 614 Z M247 -269 Q225 -269 205.5 -263.5 Q186 -258 173 -250 L183 -154 Q205 -175 231 -175 Q264 -175 276.5 -154.5 Q289 -134 296 -82 L363 460 L470 460 L401 -104 Q381 -269 247 -269 Z " />
<glyph glyph-name="imacron" unicode="&#x12b;" horiz-adv-x="259" d="M287 576 L50 576 L59 654 L297 654 L287 576 Z M44 0 L101 460 L208 460 L151 0 L44 0 Z " />
<glyph glyph-name="iogonek" unicode="&#x12f;" horiz-adv-x="259" d="M179 746 Q207 746 227 726 Q247 706 247 678 Q247 652 227.5 633 Q208 614 182 614 Q155 614 135.5 633.5 Q116 653 116 681 Q116 709 134 727.5 Q152 746 179 746 Z M147 0 Q88 -56 88 -96 Q88 -113 98 -122.5 Q108 -132 125 -132 Q145 -132 166 -122 L148 -190 Q133 -201 119.5 -205.5 Q106 -210 88 -210 Q51 -210 25 -183.5 Q-1 -157 -1 -120 Q-1 -87 21.5 -57.5 Q44 -28 92 0 L40 0 L96 460 L203 460 L147 0 Z " />
<glyph glyph-name="itilde" unicode="&#x129;" horiz-adv-x="259" d="M337 652 Q290 564 232 564 Q201 564 130 608 Q123 611 114 611 Q96 611 82 590 Q73 573 67 565 L11 603 Q40 650 63.5 669.5 Q87 689 114 689 Q128 689 140 684.5 Q152 680 183 662 Q218 641 232 641 Q245 641 256 652 Q267 663 280 690 L337 652 Z M44 0 L101 460 L208 460 L151 0 L44 0 Z " />
<glyph glyph-name="j" unicode="j" horiz-adv-x="263" d="M182 614 Q155 614 135.5 633.5 Q116 653 116 681 Q116 709 134 727.5 Q152 746 179 746 Q207 746 227 726 Q247 706 247 678 Q247 652 227.5 633 Q208 614 182 614 Z M-15 -269 Q-37 -269 -56.5 -263.5 Q-76 -258 -89 -250 L-79 -154 Q-57 -175 -31 -175 Q2 -175 14.5 -154.5 Q27 -134 34 -82 L101 460 L208 460 L139 -104 Q119 -269 -15 -269 Z " />
<glyph glyph-name="uni0237" unicode="&#x237;" horiz-adv-x="263" d="M-79 -154 Q-57 -175 -31 -175 Q2 -175 14.5 -154.5 Q27 -134 34 -82 L101 460 L208 460 L139 -104 Q119 -269 -15 -269 Q-37 -269 -56.5 -263.5 Q-76 -258 -89 -250 L-79 -154 Z " />
<glyph glyph-name="jcircumflex" unicode="&#x135;" horiz-adv-x="263" d="M20 582 L183 725 L297 581 L249 534 L172 626 L66 532 L20 582 Z M-79 -154 Q-57 -175 -31 -175 Q2 -175 14.5 -154.5 Q27 -134 34 -82 L101 460 L208 460 L139 -104 Q119 -269 -15 -269 Q-37 -269 -56.5 -263.5 Q-76 -258 -89 -250 L-79 -154 Z " />
<glyph glyph-name="k" unicode="k" horiz-adv-x="515" d="M380 460 L523 460 L283 250 L477 0 L346 0 L179 219 L151 0 L44 0 L146 824 L253 824 L186 281 L380 460 Z " />
<glyph glyph-name="uni0137" unicode="&#x137;" horiz-adv-x="515" d="M380 460 L523 460 L283 250 L477 0 L346 0 L179 219 L151 0 L44 0 L146 824 L253 824 L186 281 L380 460 Z M165 -269 L110 -238 L198 -60 L285 -101 L165 -269 Z " />
<glyph glyph-name="kgreenlandic" unicode="&#x138;" horiz-adv-x="515" d="M380 460 L523 460 L283 250 L477 0 L346 0 L179 219 L151 0 L44 0 L101 460 L208 460 L186 281 L380 460 Z " />
<glyph glyph-name="l" unicode="l" horiz-adv-x="259" d="M44 0 L146 824 L253 824 L151 0 L44 0 Z " />
<glyph glyph-name="lacute" unicode="&#x13a;" horiz-adv-x="259" d="M148 902 L271 1055 L349 1002 L203 867 L148 902 Z M44 0 L146 824 L253 824 L151 0 L44 0 Z " />
<glyph glyph-name="lcaron" unicode="&#x13e;" horiz-adv-x="397" d="M337 618 L281 649 L370 828 L458 788 L337 618 Z M44 0 L146 824 L253 824 L151 0 L44 0 Z " />
<glyph glyph-name="uni013C" unicode="&#x13c;" horiz-adv-x="259" d="M43 0 L145 824 L252 824 L151 0 L43 0 Z M25 -269 L-31 -238 L58 -60 L146 -101 L25 -269 Z " />
<glyph glyph-name="ldot" unicode="&#x140;" horiz-adv-x="428" d="M44 0 L146 824 L253 824 L151 0 L44 0 Z M357 493 Q394 493 420 467 Q446 441 446 405 Q446 371 420.5 346 Q395 321 360 321 Q325 321 300.5 346.5 Q276 372 276 409 Q276 445 299 469 Q322 493 357 493 Z " />
<glyph glyph-name="lslash" unicode="&#x142;" horiz-adv-x="259" d="M199 377 L153 0 L44 0 L85 331 L8 281 L21 392 L98 442 L146 824 L253 824 L212 489 L289 538 L276 426 L199 377 Z " />
<glyph glyph-name="m" unicode="m" horiz-adv-x="793" d="M207 417 Q236 447 264.5 459.5 Q293 472 333 472 Q377 472 400.5 456 Q424 440 442 398 Q480 438 513 454.5 Q546 471 590 471 Q657 471 692 439 Q727 407 727 346 Q727 329 725 311 Q723 293 718 253 L687 0 L579 0 L611 266 Q617 305 617 326 Q617 352 601 366.5 Q585 381 556 381 Q535 381 515 372.5 Q495 364 483 350 Q471 337 464 315 Q457 293 452 257 L420 0 L312 0 L346 272 Q350 314 350 324 Q350 352 334 367 Q318 382 288 382 Q267 382 247 372 Q227 362 214 347 Q192 319 183 257 L151 0 L44 0 L101 460 L212 460 L207 417 Z " />
<glyph glyph-name="n" unicode="n" horiz-adv-x="550" d="M203 417 Q238 447 267 459 Q296 471 332 471 Q367 471 398.5 459 Q430 447 450 425 Q467 406 473.5 385 Q480 364 480 331 Q480 301 473 246 L443 0 L336 0 L368 270 Q373 302 373 319 Q373 349 355.5 365 Q338 381 305 381 Q257 381 227 349 Q205 328 195.5 301.5 Q186 275 179 221 L151 0 L44 0 L101 460 L208 460 L203 417 Z " />
<glyph glyph-name="nacute" unicode="&#x144;" horiz-adv-x="550" d="M243 565 L373 725 L454 675 L297 532 L243 565 Z M203 417 Q238 447 267 459 Q296 471 332 471 Q367 471 398.5 459 Q430 447 450 425 Q467 406 473.5 385 Q480 364 480 331 Q480 301 473 246 L443 0 L336 0 L368 270 Q373 302 373 319 Q373 349 355.5 365 Q338 381 305 381 Q257 381 227 349 Q205 328 195.5 301.5 Q186 275 179 221 L151 0 L44 0 L101 460 L208 460 L203 417 Z " />
<glyph glyph-name="napostrophe" unicode="&#x149;" horiz-adv-x="706" d="M90 501 L229 768 L305 727 L150 469 L90 501 Z M359 417 Q395 447 424 459 Q453 471 489 471 Q524 471 555 459 Q586 447 606 425 Q623 406 629.5 385 Q636 364 636 331 Q636 301 631 246 L600 0 L492 0 L525 270 Q529 294 529 319 Q529 349 511.5 365 Q494 381 461 381 Q417 381 383 349 Q362 328 352.5 301.5 Q343 275 336 221 L308 0 L200 0 L257 460 L365 460 L359 417 Z " />
<glyph glyph-name="ncaron" unicode="&#x148;" horiz-adv-x="550" d="M460 677 L298 532 L183 677 L232 724 L308 633 L415 725 L460 677 Z M203 417 Q238 447 267 459 Q296 471 332 471 Q367 471 398.5 459 Q430 447 450 425 Q467 406 473.5 385 Q480 364 480 331 Q480 301 473 246 L443 0 L336 0 L368 270 Q373 302 373 319 Q373 349 355.5 365 Q338 381 305 381 Q257 381 227 349 Q205 328 195.5 301.5 Q186 275 179 221 L151 0 L44 0 L101 460 L208 460 L203 417 Z " />
<glyph glyph-name="uni0146" unicode="&#x146;" horiz-adv-x="550" d="M203 417 Q238 447 267 459 Q296 471 332 471 Q367 471 398.5 459 Q430 447 450 425 Q467 406 473.5 385 Q480 364 480 331 Q480 301 473 246 L443 0 L336 0 L368 270 Q373 302 373 319 Q373 349 355.5 365 Q338 381 305 381 Q257 381 227 349 Q205 328 195.5 301.5 Q186 275 179 221 L151 0 L44 0 L101 460 L208 460 L203 417 Z M177 -269 L122 -238 L210 -60 L298 -101 L177 -269 Z " />
<glyph glyph-name="eng" unicode="&#x14b;" horiz-adv-x="550" d="M203 417 Q238 447 267 459 Q296 471 332 471 Q401 471 440.5 433.5 Q480 396 480 331 Q480 298 473 246 L446 28 Q442 -18 431 -48 Q420 -78 402 -98 Q380 -123 346.5 -136.5 Q313 -150 276 -150 Q256 -150 239.5 -146.5 Q223 -143 198 -133 L211 -41 Q236 -49 246.5 -51.5 Q257 -54 270 -54 Q294 -54 307 -45.5 Q320 -37 328 -16 Q336 5 341 45 L368 270 Q373 302 373 319 Q373 349 355.5 365 Q338 381 305 381 Q257 381 227 349 Q205 328 195.5 301.5 Q186 275 179 221 L151 0 L44 0 L101 460 L208 460 L203 417 Z " />
<glyph glyph-name="ntilde" unicode="&#xf1;" horiz-adv-x="550" d="M471 652 Q427 564 366 564 Q337 564 264 608 Q258 611 249 611 Q229 611 218 590 Q208 573 202 565 L146 603 Q174 650 197.5 669.5 Q221 689 249 689 Q263 689 275.5 684 Q288 679 318 662 Q353 641 367 641 Q393 641 415 690 L471 652 Z M203 417 Q238 447 267 459 Q296 471 332 471 Q367 471 398.5 459 Q430 447 450 425 Q467 406 473.5 385 Q480 364 480 331 Q480 301 473 246 L443 0 L336 0 L368 270 Q373 302 373 319 Q373 349 355.5 365 Q338 381 305 381 Q257 381 227 349 Q205 328 195.5 301.5 Q186 275 179 221 L151 0 L44 0 L101 460 L208 460 L203 417 Z " />
<glyph glyph-name="o" unicode="o" horiz-adv-x="601" d="M304 475 Q376 475 432 444.5 Q488 414 519.5 359 Q551 304 551 234 Q551 165 518 108 Q485 51 427 18 Q369 -15 299 -15 Q226 -15 168 16 Q110 47 77.5 102 Q45 157 45 226 Q45 296 79 353 Q113 410 172 442.5 Q231 475 304 475 Z M304 384 Q239 384 196.5 340 Q154 296 154 228 Q154 160 193.5 118 Q233 76 297 76 Q361 76 402 122.5 Q443 169 443 240 Q443 305 405 344.5 Q367 384 304 384 Z " />
<glyph glyph-name="oacute" unicode="&#xf3;" horiz-adv-x="601" d="M271 565 L402 725 L483 675 L327 532 L271 565 Z M304 475 Q376 475 432 444.5 Q488 414 519.5 359 Q551 304 551 234 Q551 165 518 108 Q485 51 427 18 Q369 -15 299 -15 Q226 -15 168 16 Q110 47 77.5 102 Q45 157 45 226 Q45 296 79 353 Q113 410 172 442.5 Q231 475 304 475 Z M304 384 Q239 384 196.5 340 Q154 296 154 228 Q154 160 193.5 118 Q233 76 297 76 Q361 76 402 122.5 Q443 169 443 240 Q443 305 405 344.5 Q367 384 304 384 Z " />
<glyph glyph-name="obreve" unicode="&#x14f;" horiz-adv-x="601" d="M276 698 Q275 692 275 681 Q275 655 290.5 637.5 Q306 620 331 620 Q383 620 411 698 L487 698 Q477 665 467.5 646 Q458 627 442 607 Q419 578 389.5 562.5 Q360 547 328 547 Q273 547 236 585.5 Q199 624 199 680 L199 698 L276 698 Z M304 475 Q376 475 432 444.5 Q488 414 519.5 359 Q551 304 551 234 Q551 165 518 108 Q485 51 427 18 Q369 -15 299 -15 Q226 -15 168 16 Q110 47 77.5 102 Q45 157 45 226 Q45 296 79 353 Q113 410 172 442.5 Q231 475 304 475 Z M304 384 Q239 384 196.5 340 Q154 296 154 228 Q154 160 193.5 118 Q233 76 297 76 Q361 76 402 122.5 Q443 169 443 240 Q443 305 405 344.5 Q367 384 304 384 Z " />
<glyph glyph-name="ocircumflex" unicode="&#xf4;" horiz-adv-x="601" d="M197 582 L359 725 L475 581 L425 534 L349 626 L243 532 L197 582 Z M304 475 Q376 475 432 444.5 Q488 414 519.5 359 Q551 304 551 234 Q551 165 518 108 Q485 51 427 18 Q369 -15 299 -15 Q226 -15 168 16 Q110 47 77.5 102 Q45 157 45 226 Q45 296 79 353 Q113 410 172 442.5 Q231 475 304 475 Z M304 384 Q239 384 196.5 340 Q154 296 154 228 Q154 160 193.5 118 Q233 76 297 76 Q361 76 402 122.5 Q443 169 443 240 Q443 305 405 344.5 Q367 384 304 384 Z " />
<glyph glyph-name="odieresis" unicode="&#xf6;" horiz-adv-x="601" d="M240 686 Q267 686 286 667 Q305 648 305 620 Q305 596 286 577 Q267 558 242 558 Q217 558 198.5 577.5 Q180 597 180 624 Q180 651 197 668.5 Q214 686 240 686 Z M432 686 Q458 686 476.5 667 Q495 648 495 620 Q495 596 477 577 Q459 558 435 558 Q409 558 390.5 577.5 Q372 597 372 624 Q372 651 389 668.5 Q406 686 432 686 Z M304 475 Q376 475 432 444.5 Q488 414 519.5 359 Q551 304 551 234 Q551 165 518 108 Q485 51 427 18 Q369 -15 299 -15 Q226 -15 168 16 Q110 47 77.5 102 Q45 157 45 226 Q45 296 79 353 Q113 410 172 442.5 Q231 475 304 475 Z M304 384 Q239 384 196.5 340 Q154 296 154 228 Q154 160 193.5 118 Q233 76 297 76 Q361 76 402 122.5 Q443 169 443 240 Q443 305 405 344.5 Q367 384 304 384 Z " />
<glyph glyph-name="ograve" unicode="&#xf2;" horiz-adv-x="601" d="M392 566 L339 532 L219 672 L298 725 L392 566 Z M304 475 Q376 475 432 444.5 Q488 414 519.5 359 Q551 304 551 234 Q551 165 518 108 Q485 51 427 18 Q369 -15 299 -15 Q226 -15 168 16 Q110 47 77.5 102 Q45 157 45 226 Q45 296 79 353 Q113 410 172 442.5 Q231 475 304 475 Z M304 384 Q239 384 196.5 340 Q154 296 154 228 Q154 160 193.5 118 Q233 76 297 76 Q361 76 402 122.5 Q443 169 443 240 Q443 305 405 344.5 Q367 384 304 384 Z " />
<glyph glyph-name="ohorn" unicode="&#x1a1;" horiz-adv-x="601" d="M651 475 L539 318 Q551 279 551 237 Q551 166 518 108.5 Q485 51 427.5 18 Q370 -15 299 -15 Q226 -15 168 16 Q110 47 77.5 102 Q45 157 45 226 Q45 296 79 353 Q113 410 172.5 442.5 Q232 475 305 475 Q365 475 416.5 452 Q468 429 501 388 L563 514 L651 475 Z M304 384 Q239 384 196.5 340 Q154 296 154 228 Q154 160 193.5 118 Q233 76 297 76 Q361 76 402 122.5 Q443 169 443 240 Q443 305 405 344.5 Q367 384 304 384 Z " />
<glyph glyph-name="ohungarumlaut" unicode="&#x151;" horiz-adv-x="601" d="M215 566 L330 725 L401 675 L262 532 L215 566 Z M385 566 L501 725 L573 675 L433 532 L385 566 Z M304 475 Q376 475 432 444.5 Q488 414 519.5 359 Q551 304 551 234 Q551 165 518 108 Q485 51 427 18 Q369 -15 299 -15 Q226 -15 168 16 Q110 47 77.5 102 Q45 157 45 226 Q45 296 79 353 Q113 410 172 442.5 Q231 475 304 475 Z M304 384 Q239 384 196.5 340 Q154 296 154 228 Q154 160 193.5 118 Q233 76 297 76 Q361 76 402 122.5 Q443 169 443 240 Q443 305 405 344.5 Q367 384 304 384 Z " />
<glyph glyph-name="omacron" unicode="&#x14d;" horiz-adv-x="601" d="M495 576 L182 576 L191 654 L504 654 L495 576 Z M304 475 Q376 475 432 444.5 Q488 414 519.5 359 Q551 304 551 234 Q551 165 518 108 Q485 51 427 18 Q369 -15 299 -15 Q226 -15 168 16 Q110 47 77.5 102 Q45 157 45 226 Q45 296 79 353 Q113 410 172 442.5 Q231 475 304 475 Z M304 384 Q239 384 196.5 340 Q154 296 154 228 Q154 160 193.5 118 Q233 76 297 76 Q361 76 402 122.5 Q443 169 443 240 Q443 305 405 344.5 Q367 384 304 384 Z " />
<glyph glyph-name="oslash" unicode="&#xf8;" horiz-adv-x="601" d="M1 26 L81 95 Q62 129 53.5 159.5 Q45 190 45 226 Q45 296 79 353 Q113 410 172.5 442.5 Q232 475 305 475 Q350 475 387 463.5 Q424 452 464 425 L545 495 L592 440 L514 375 Q539 319 545 296 Q551 273 551 236 Q551 166 518 108.5 Q485 51 427.5 18 Q370 -15 299 -15 Q250 -15 208.5 -1 Q167 13 129 42 L47 -28 L1 26 Z M386 358 Q356 384 303 384 Q238 384 196 340 Q154 296 154 226 Q154 208 156 196 Q158 184 164 166 L386 358 Z M205 107 Q228 90 249 83 Q270 76 297 76 Q362 76 402.5 122.5 Q443 169 443 243 Q443 263 440.5 274 Q438 285 429 301 L205 107 Z " />
<glyph glyph-name="oslashacute" unicode="&#x1ff;" horiz-adv-x="601" d="M243 565 L374 725 L454 675 L298 532 L243 565 Z M1 26 L81 95 Q62 129 53.5 159.5 Q45 190 45 226 Q45 296 79 353 Q113 410 172.5 442.5 Q232 475 305 475 Q350 475 387 463.5 Q424 452 464 425 L545 495 L592 440 L514 375 Q539 319 545 296 Q551 273 551 236 Q551 166 518 108.5 Q485 51 427.5 18 Q370 -15 299 -15 Q250 -15 208.5 -1 Q167 13 129 42 L47 -28 L1 26 Z M386 358 Q356 384 303 384 Q238 384 196 340 Q154 296 154 226 Q154 208 156 196 Q158 184 164 166 L386 358 Z M205 107 Q228 90 249 83 Q270 76 297 76 Q362 76 402.5 122.5 Q443 169 443 243 Q443 263 440.5 274 Q438 285 429 301 L205 107 Z " />
<glyph glyph-name="otilde" unicode="&#xf5;" horiz-adv-x="601" d="M506 652 Q460 564 401 564 Q371 564 298 608 Q293 611 283 611 Q265 611 252 590 Q242 573 236 565 L181 603 Q208 650 232 669.5 Q256 689 283 689 Q298 689 310 684.5 Q322 680 351 662 Q389 641 401 641 Q427 641 449 690 L506 652 Z M304 475 Q376 475 432 444.5 Q488 414 519.5 359 Q551 304 551 234 Q551 165 518 108 Q485 51 427 18 Q369 -15 299 -15 Q226 -15 168 16 Q110 47 77.5 102 Q45 157 45 226 Q45 296 79 353 Q113 410 172 442.5 Q231 475 304 475 Z M304 384 Q239 384 196.5 340 Q154 296 154 228 Q154 160 193.5 118 Q233 76 297 76 Q361 76 402 122.5 Q443 169 443 240 Q443 305 405 344.5 Q367 384 304 384 Z " />
<glyph glyph-name="oe" unicode="&#x153;" horiz-adv-x="979" d="M563 194 Q565 169 571.5 151.5 Q578 134 590 119 Q604 100 633 88 Q662 76 695 76 Q735 76 765.5 92.5 Q796 109 815 141 L896 90 Q855 35 808 10 Q761 -15 696 -15 Q632 -15 585 7.5 Q538 30 501 77 Q458 26 414 5.5 Q370 -15 304 -15 Q229 -15 170 16 Q111 47 78 102.5 Q45 158 45 229 Q45 300 78.5 356 Q112 412 172 443.5 Q232 475 307 475 Q373 475 420 453.5 Q467 432 510 383 Q550 431 595.5 453 Q641 475 702 475 Q808 475 868.5 410.5 Q929 346 929 234 L929 194 L563 194 Z M306 384 Q263 384 228 363.5 Q193 343 173.5 306.5 Q154 270 154 225 Q154 160 195.5 118 Q237 76 302 76 Q368 76 411 120 Q454 164 454 233 Q454 301 413.5 342.5 Q373 384 306 384 Z M818 273 Q812 384 702 384 Q591 384 565 273 L818 273 Z " />
<glyph glyph-name="p" unicode="p" horiz-adv-x="612" d="M202 411 Q240 444 273 457.5 Q306 471 349 471 Q410 471 458.5 441.5 Q507 412 535 360.5 Q563 309 563 245 Q563 174 531 115.5 Q499 57 443.5 23 Q388 -11 321 -11 Q270 -11 234.5 6 Q199 23 159 66 L119 -263 L11 -263 L101 460 L208 460 L202 411 Z M330 381 Q287 381 252 359.5 Q217 338 197 300 Q177 262 177 215 Q177 156 214.5 117.5 Q252 79 310 79 Q350 79 383 100.5 Q416 122 435 159.5 Q454 197 454 242 Q454 303 419 342 Q384 381 330 381 Z " />
<glyph glyph-name="thorn" unicode="&#xfe;" horiz-adv-x="612" d="M202 411 Q241 444 273.5 457.5 Q306 471 349 471 Q410 471 458.5 441.5 Q507 412 535 360.5 Q563 309 563 245 Q563 174 531 115.5 Q499 57 443.5 23 Q388 -11 321 -11 Q270 -11 234 6 Q198 23 159 66 L119 -263 L11 -263 L145 824 L253 824 L202 411 Z M330 381 Q287 381 252 359.5 Q217 338 197 300 Q177 262 177 215 Q177 156 214.5 117.5 Q252 79 310 79 Q350 79 383 100.5 Q416 122 435 159.5 Q454 197 454 242 Q454 303 419 342 Q384 381 330 381 Z " />
<glyph glyph-name="q" unicode="q" horiz-adv-x="615" d="M367 -263 L405 42 Q368 12 336.5 0.5 Q305 -11 260 -11 Q197 -11 147.5 18.5 Q98 48 70.5 100 Q43 152 43 218 Q43 289 75 347 Q107 405 162.5 438 Q218 471 286 471 Q339 471 374.5 454 Q410 437 447 394 L455 460 L564 460 L475 -263 L367 -263 Z M302 381 Q260 381 225.5 359.5 Q191 338 171 301 Q151 264 151 219 Q151 158 189 118.5 Q227 79 285 79 Q325 79 359 101 Q393 123 413 160.5 Q433 198 433 242 Q433 302 395.5 341.5 Q358 381 302 381 Z " />
<glyph glyph-name="r" unicode="r" horiz-adv-x="382" d="M203 420 Q234 450 258 461 Q282 472 314 472 Q342 472 361 464.5 Q380 457 402 436 L333 348 Q317 362 304 368 Q291 374 275 374 Q233 374 211.5 340.5 Q190 307 180 229 L151 0 L44 0 L101 460 L208 460 L203 420 Z " />
<glyph glyph-name="racute" unicode="&#x155;" horiz-adv-x="382" d="M190 565 L320 725 L401 675 L244 532 L190 565 Z M203 420 Q234 450 258 461 Q282 472 314 472 Q342 472 361 464.5 Q380 457 402 436 L333 348 Q317 362 304 368 Q291 374 275 374 Q233 374 211.5 340.5 Q190 307 180 229 L151 0 L44 0 L101 460 L208 460 L203 420 Z " />
<glyph glyph-name="rcaron" unicode="&#x159;" horiz-adv-x="382" d="M407 677 L245 532 L130 677 L179 724 L255 633 L362 725 L407 677 Z M203 420 Q234 450 258 461 Q282 472 314 472 Q342 472 361 464.5 Q380 457 402 436 L333 348 Q317 362 304 368 Q291 374 275 374 Q233 374 211.5 340.5 Q190 307 180 229 L151 0 L44 0 L101 460 L208 460 L203 420 Z " />
<glyph glyph-name="uni0157" unicode="&#x157;" horiz-adv-x="382" d="M203 420 Q234 450 257.5 461 Q281 472 313 472 Q341 472 360.5 464.5 Q380 457 402 436 L333 348 Q317 362 303.5 368 Q290 374 273 374 Q232 374 210.5 340 Q189 306 180 229 L151 0 L44 0 L101 460 L208 460 L203 420 Z M28 -269 L-27 -238 L61 -60 L149 -101 L28 -269 Z " />
<glyph glyph-name="s" unicode="s" horiz-adv-x="403" d="M313 348 Q291 369 272 378.5 Q253 388 234 388 Q209 388 192.5 374 Q176 360 176 339 Q176 319 190 305 Q204 291 247 268 Q308 232 330.5 203.5 Q353 175 353 130 Q353 65 307.5 25 Q262 -15 186 -15 Q131 -15 93 6 Q55 27 19 77 L89 127 Q113 99 134.5 87 Q156 75 183 75 Q210 75 227 89.5 Q244 104 244 127 Q244 142 238.5 151 Q233 160 216 171.5 Q199 183 159 205 Q108 234 88 261.5 Q68 289 68 331 Q68 372 89 405.5 Q110 439 147.5 457.5 Q185 476 231 476 Q272 476 305.5 460.5 Q339 445 374 409 L313 348 Z " />
<glyph glyph-name="sacute" unicode="&#x15b;" horiz-adv-x="403" d="M185 565 L316 725 L397 675 L241 532 L185 565 Z M313 348 Q291 369 272 378.5 Q253 388 234 388 Q209 388 192.5 374 Q176 360 176 339 Q176 319 190 305 Q204 291 247 268 Q308 232 330.5 203.5 Q353 175 353 130 Q353 65 307.5 25 Q262 -15 186 -15 Q131 -15 93 6 Q55 27 19 77 L89 127 Q113 99 134.5 87 Q156 75 183 75 Q210 75 227 89.5 Q244 104 244 127 Q244 142 238.5 151 Q233 160 216 171.5 Q199 183 159 205 Q108 234 88 261.5 Q68 289 68 331 Q68 372 89 405.5 Q110 439 147.5 457.5 Q185 476 231 476 Q272 476 305.5 460.5 Q339 445 374 409 L313 348 Z " />
<glyph glyph-name="scaron" unicode="&#x161;" horiz-adv-x="403" d="M406 677 L243 532 L128 677 L177 724 L253 633 L360 725 L406 677 Z M313 348 Q291 369 272 378.5 Q253 388 234 388 Q209 388 192.5 374 Q176 360 176 339 Q176 319 190 305 Q204 291 247 268 Q308 232 330.5 203.5 Q353 175 353 130 Q353 65 307.5 25 Q262 -15 186 -15 Q131 -15 93 6 Q55 27 19 77 L89 127 Q113 99 134.5 87 Q156 75 183 75 Q210 75 227 89.5 Q244 104 244 127 Q244 142 238.5 151 Q233 160 216 171.5 Q199 183 159 205 Q108 234 88 261.5 Q68 289 68 331 Q68 372 89 405.5 Q110 439 147.5 457.5 Q185 476 231 476 Q272 476 305.5 460.5 Q339 445 374 409 L313 348 Z " />
<glyph glyph-name="scedilla" unicode="&#x15f;" horiz-adv-x="403" d="M313 348 Q291 369 272 378.5 Q253 388 234 388 Q209 388 192.5 374 Q176 360 176 339 Q176 319 190 305 Q204 291 247 268 Q308 232 330.5 203.5 Q353 175 353 130 Q353 65 307.5 25 Q262 -15 186 -15 Q131 -15 93 6 Q55 27 19 77 L89 127 Q113 99 134.5 87 Q156 75 183 75 Q210 75 227 89.5 Q244 104 244 127 Q244 142 238.5 151 Q233 160 216 171.5 Q199 183 159 205 Q108 234 88 261.5 Q68 289 68 331 Q68 372 89 405.5 Q110 439 147.5 457.5 Q185 476 231 476 Q272 476 305.5 460.5 Q339 445 374 409 L313 348 Z M37 -202 L136 -53 L226 -101 L95 -235 L37 -202 Z " />
<glyph glyph-name="scircumflex" unicode="&#x15d;" horiz-adv-x="403" d="M106 582 L268 725 L383 581 L334 534 L258 626 L151 532 L106 582 Z M313 348 Q291 369 272 378.5 Q253 388 234 388 Q209 388 192.5 374 Q176 360 176 339 Q176 319 190 305 Q204 291 247 268 Q308 232 330.5 203.5 Q353 175 353 130 Q353 65 307.5 25 Q262 -15 186 -15 Q131 -15 93 6 Q55 27 19 77 L89 127 Q113 99 134.5 87 Q156 75 183 75 Q210 75 227 89.5 Q244 104 244 127 Q244 142 238.5 151 Q233 160 216 171.5 Q199 183 159 205 Q108 234 88 261.5 Q68 289 68 331 Q68 372 89 405.5 Q110 439 147.5 457.5 Q185 476 231 476 Q272 476 305.5 460.5 Q339 445 374 409 L313 348 Z " />
<glyph glyph-name="uni0219" unicode="&#x219;" horiz-adv-x="403" d="M313 348 Q291 369 272 378.5 Q253 388 234 388 Q209 388 192.5 374 Q176 360 176 339 Q176 319 190 305 Q204 291 247 268 Q308 232 330.5 203.5 Q353 175 353 130 Q353 65 307.5 25 Q262 -15 186 -15 Q131 -15 93 6 Q55 27 19 77 L89 127 Q113 99 134.5 87 Q156 75 183 75 Q210 75 227 89.5 Q244 104 244 127 Q244 142 238.5 151 Q233 160 216 171.5 Q199 183 159 205 Q108 234 88 261.5 Q68 289 68 331 Q68 372 89 405.5 Q110 439 147.5 457.5 Q185 476 231 476 Q272 476 305.5 460.5 Q339 445 374 409 L313 348 Z M104 -269 L49 -238 L137 -60 L225 -101 L104 -269 Z " />
<glyph glyph-name="germandbls" unicode="&#xdf;" horiz-adv-x="586" d="M44 359 L56 460 L107 460 L128 620 Q135 678 146.5 713.5 Q158 749 179 772 Q232 837 336 837 Q429 837 484.5 785 Q540 733 540 646 Q540 582 512 536.5 Q484 491 424 459 Q481 429 507 383.5 Q533 338 533 269 Q533 208 511 151.5 Q489 95 449 56 Q385 -5 279 -5 Q264 -5 212 0 L225 94 Q249 86 275 86 Q343 86 384 137.5 Q425 189 425 275 Q425 345 385 379.5 Q345 414 263 414 L275 506 Q313 506 333 509.5 Q353 513 370 522 Q400 539 418.5 575 Q437 611 437 652 Q437 697 411.5 722 Q386 747 340 747 Q278 747 252 690 Q239 663 233 602 L159 0 L51 0 L96 359 L44 359 Z " />
<glyph glyph-name="longs" unicode="&#x17f;" horiz-adv-x="306" d="M95 359 L25 359 L37 460 L107 460 L132 666 Q138 712 149.5 741 Q161 770 180 789 Q197 806 223 815.5 Q249 825 276 825 Q297 825 317.5 819.5 Q338 814 367 800 L356 705 Q339 719 327 724.5 Q315 730 299 730 Q270 730 256.5 709.5 Q243 689 236 635 L158 0 L51 0 L95 359 Z " />
<glyph glyph-name="t" unicode="t" horiz-adv-x="312" d="M170 145 Q168 127 168 122 Q168 98 178 88.5 Q188 79 210 79 Q235 79 269 103 L256 10 Q241 -1 220 -7.5 Q199 -14 178 -14 Q125 -14 95 10 Q60 39 60 101 Q60 120 63 142 L90 359 L36 359 L48 460 L103 460 L126 647 L234 647 L210 460 L319 460 L307 359 L197 359 L170 145 Z " />
<glyph glyph-name="tbar" unicode="&#x167;" horiz-adv-x="305" d="M198 359 L189 287 L286 287 L274 199 L178 199 L171 145 Q169 127 169 122 Q169 99 179 89 Q189 79 210 79 Q235 79 269 103 L256 10 Q241 -1 220 -7.5 Q199 -14 178 -14 Q125 -14 95 10 Q60 39 60 101 Q60 120 63 142 L70 199 L19 199 L30 287 L81 287 L90 359 L36 359 L48 460 L103 460 L126 647 L234 647 L210 460 L309 460 L297 359 L198 359 Z " />
<glyph glyph-name="tcaron" unicode="&#x165;" horiz-adv-x="413" d="M465 757 L344 588 L289 618 L377 797 L465 757 Z M210 460 L319 460 L307 359 L197 359 L170 145 Q168 127 168 122 Q168 98 178 88.5 Q188 79 210 79 Q235 79 269 103 L256 10 Q241 -1 220 -7.5 Q199 -14 178 -14 Q125 -14 95 10 Q60 39 60 101 Q60 120 63 142 L90 359 L36 359 L48 460 L103 460 L126 647 L234 647 L210 460 Z " />
<glyph glyph-name="uni0163" unicode="&#x163;" horiz-adv-x="312" d="M170 145 Q168 127 168 122 Q168 98 178 88.5 Q188 79 210 79 Q235 79 269 103 L256 10 Q241 -1 220 -7.5 Q199 -14 178 -14 Q125 -14 95 10 Q60 39 60 101 Q60 120 63 142 L90 359 L36 359 L48 460 L103 460 L126 647 L234 647 L210 460 L319 460 L307 359 L197 359 L170 145 Z M82 -60 L171 -101 L50 -269 L-6 -238 L82 -60 Z " />
<glyph glyph-name="u" unicode="u" horiz-adv-x="547" d="M498 460 L441 0 L331 0 L337 45 Q311 18 276 3.5 Q241 -11 208 -11 Q128 -11 93 31 Q62 66 62 136 Q62 157 68 211 L98 460 L209 460 L175 197 Q172 175 172 157 Q172 115 189 96.5 Q206 78 246 78 Q289 78 318.5 108.5 Q348 139 355 192 L389 460 L498 460 Z " />
<glyph glyph-name="uacute" unicode="&#xfa;" horiz-adv-x="547" d="M498 460 L441 0 L331 0 L337 45 Q311 18 276 3.5 Q241 -11 208 -11 Q128 -11 93 31 Q62 66 62 136 Q62 157 68 211 L98 460 L209 460 L175 197 Q172 175 172 157 Q172 115 189 96.5 Q206 78 246 78 Q289 78 318.5 108.5 Q348 139 355 192 L389 460 L498 460 Z M251 565 L382 725 L462 675 L306 532 L251 565 Z " />
<glyph glyph-name="ubreve" unicode="&#x16d;" horiz-adv-x="547" d="M498 460 L441 0 L331 0 L337 45 Q311 18 276 3.5 Q241 -11 208 -11 Q128 -11 93 31 Q62 66 62 136 Q62 157 68 211 L98 460 L209 460 L175 197 Q172 175 172 157 Q172 115 189 96.5 Q206 78 246 78 Q289 78 318.5 108.5 Q348 139 355 192 L389 460 L498 460 Z M260 681 Q260 655 276 637.5 Q292 620 317 620 Q370 620 396 698 L473 698 Q462 664 452.5 645 Q443 626 427 607 Q404 578 374 562.5 Q344 547 312 547 Q258 547 221 585.5 Q184 624 184 680 L184 698 L260 698 L260 681 Z " />
<glyph glyph-name="ucircumflex" unicode="&#xfb;" horiz-adv-x="547" d="M498 460 L441 0 L331 0 L337 45 Q311 18 276 3.5 Q241 -11 208 -11 Q128 -11 93 31 Q62 66 62 136 Q62 157 68 211 L98 460 L209 460 L175 197 Q172 175 172 157 Q172 115 189 96.5 Q206 78 246 78 Q289 78 318.5 108.5 Q348 139 355 192 L389 460 L498 460 Z M171 582 L334 725 L448 581 L399 534 L322 626 L216 532 L171 582 Z " />
<glyph glyph-name="udieresis" unicode="&#xfc;" horiz-adv-x="547" d="M498 460 L441 0 L331 0 L337 45 Q311 18 276 3.5 Q241 -11 208 -11 Q128 -11 93 31 Q62 66 62 136 Q62 157 68 211 L98 460 L209 460 L175 197 Q172 175 172 157 Q172 115 189 96.5 Q206 78 246 78 Q289 78 318.5 108.5 Q348 139 355 192 L389 460 L498 460 Z M219 688 Q246 688 265.5 669 Q285 650 285 623 Q285 598 266 579 Q247 560 222 560 Q197 560 178.5 579.5 Q160 599 160 626 Q160 653 177 670.5 Q194 688 219 688 Z M417 688 Q443 688 462 669 Q481 650 481 623 Q481 598 463 579 Q445 560 421 560 Q395 560 376 579.5 Q357 599 357 626 Q357 653 374 670.5 Q391 688 417 688 Z " />
<glyph glyph-name="ugrave" unicode="&#xf9;" horiz-adv-x="547" d="M498 460 L441 0 L331 0 L337 45 Q311 18 276 3.5 Q241 -11 208 -11 Q128 -11 93 31 Q62 66 62 136 Q62 157 68 211 L98 460 L209 460 L175 197 Q172 175 172 157 Q172 115 189 96.5 Q206 78 246 78 Q289 78 318.5 108.5 Q348 139 355 192 L389 460 L498 460 Z M367 566 L315 532 L195 672 L274 725 L367 566 Z " />
<glyph glyph-name="uhorn" unicode="&#x1b0;" horiz-adv-x="547" d="M693 479 L572 310 L516 340 L605 520 L693 479 Z M389 460 L498 460 L441 0 L331 0 L337 45 Q311 18 276 3.5 Q241 -11 208 -11 Q128 -11 93 31 Q62 66 62 136 Q62 157 68 211 L98 460 L209 460 L175 197 Q172 175 172 157 Q172 115 189 96.5 Q206 78 246 78 Q289 78 318.5 108.5 Q348 139 355 192 L389 460 Z " />
<glyph glyph-name="uhungarumlaut" unicode="&#x171;" horiz-adv-x="547" d="M498 460 L441 0 L331 0 L337 45 Q311 18 276 3.5 Q241 -11 208 -11 Q128 -11 93 31 Q62 66 62 136 Q62 157 68 211 L98 460 L209 460 L175 197 Q172 175 172 157 Q172 115 189 96.5 Q206 78 246 78 Q289 78 318.5 108.5 Q348 139 355 192 L389 460 L498 460 Z M192 566 L307 725 L379 675 L239 532 L192 566 Z M363 566 L478 725 L550 675 L410 532 L363 566 Z " />
<glyph glyph-name="umacron" unicode="&#x16b;" horiz-adv-x="547" d="M498 460 L441 0 L331 0 L337 45 Q311 18 276 3.5 Q241 -11 208 -11 Q128 -11 93 31 Q62 66 62 136 Q62 157 68 211 L98 460 L209 460 L175 197 Q172 175 172 157 Q172 115 189 96.5 Q206 78 246 78 Q289 78 318.5 108.5 Q348 139 355 192 L389 460 L498 460 Z M472 576 L159 576 L168 654 L481 654 L472 576 Z " />
<glyph glyph-name="uni01C6" unicode="&#x1c6;" horiz-adv-x="1139" d="M399 0 L406 50 Q365 13 336.5 1 Q308 -11 264 -11 Q201 -11 151 18.5 Q101 48 73 100 Q45 152 45 219 Q45 290 76 348 Q107 406 160.5 438.5 Q214 471 281 471 Q333 471 370 453 Q407 435 447 390 L501 824 L608 824 L507 0 L399 0 Z M1080 677 L919 532 L803 677 L852 724 L929 633 L1035 725 L1080 677 Z M612 0 L921 359 L690 359 L703 460 L1136 460 L826 101 L1097 101 L1085 0 L612 0 Z M299 381 Q258 381 225 359.5 Q192 338 173 299.5 Q154 261 154 214 Q154 152 189.5 115.5 Q225 79 284 79 Q352 79 392 134 Q410 159 420.5 190 Q431 221 431 250 Q431 308 394.5 344.5 Q358 381 299 381 Z " />
<glyph glyph-name="uni01C9" unicode="&#x1c9;" horiz-adv-x="528" d="M44 0 L146 824 L253 824 L151 0 L44 0 Z M447 614 Q420 614 400.5 633.5 Q381 653 381 681 Q381 709 399 727.5 Q417 746 444 746 Q472 746 492 726 Q512 706 512 678 Q512 652 492.5 633 Q473 614 447 614 Z M250 -269 Q228 -269 208.5 -263.5 Q189 -258 176 -250 L186 -154 Q208 -175 234 -175 Q267 -175 279.5 -154.5 Q292 -134 299 -82 L366 460 L473 460 L404 -104 Q384 -269 250 -269 Z " />
<glyph glyph-name="uni01CC" unicode="&#x1cc;" horiz-adv-x="814" d="M203 417 Q238 447 267 459 Q296 471 332 471 Q367 471 398.5 459 Q430 447 450 425 Q467 406 473.5 385 Q480 364 480 331 Q480 301 473 246 L443 0 L336 0 L368 270 Q373 302 373 319 Q373 349 355.5 365 Q338 381 305 381 Q257 381 227 349 Q205 328 195.5 301.5 Q186 275 179 221 L151 0 L44 0 L101 460 L208 460 L203 417 Z M733 614 Q706 614 686.5 633.5 Q667 653 667 681 Q667 709 685 727.5 Q703 746 730 746 Q758 746 778 726 Q798 706 798 678 Q798 652 778.5 633 Q759 614 733 614 Z M536 -269 Q514 -269 494.5 -263.5 Q475 -258 462 -250 L472 -154 Q494 -175 520 -175 Q553 -175 565.5 -154.5 Q578 -134 585 -82 L652 460 L759 460 L690 -104 Q670 -269 536 -269 Z " />
<glyph glyph-name="uni01CE" unicode="&#x1ce;" horiz-adv-x="601" d="M496 677 L333 532 L218 677 L268 724 L344 633 L450 725 L496 677 Z M386 0 L392 50 Q354 16 322 2.5 Q290 -11 250 -11 Q209 -11 172 4 Q135 19 106 46 Q74 78 58.5 118 Q43 158 43 211 Q43 287 73 346 Q103 405 157 438 Q211 471 280 471 Q330 471 365 455 Q400 439 435 400 L443 460 L550 460 L494 0 L386 0 Z M294 381 Q255 381 222 359.5 Q189 338 170 300.5 Q151 263 151 217 Q151 156 185.5 117.5 Q220 79 273 79 Q312 79 345.5 101.5 Q379 124 399 161.5 Q419 199 419 243 Q419 304 384 342.5 Q349 381 294 381 Z " />
<glyph glyph-name="uni01D0" unicode="&#x1d0;" horiz-adv-x="259" d="M324 677 L163 532 L47 677 L96 724 L173 633 L279 725 L324 677 Z M44 0 L101 460 L208 460 L151 0 L44 0 Z " />
<glyph glyph-name="uni01D2" unicode="&#x1d2;" horiz-adv-x="601" d="M477 675 L314 531 L199 676 L249 722 L324 631 L431 724 L477 675 Z M304 475 Q376 475 432 444.5 Q488 414 519.5 359 Q551 304 551 234 Q551 165 518 108 Q485 51 427 18 Q369 -15 299 -15 Q226 -15 168 16 Q110 47 77.5 102 Q45 157 45 226 Q45 296 79 353 Q113 410 172 442.5 Q231 475 304 475 Z M304 384 Q239 384 196.5 340 Q154 296 154 228 Q154 160 193.5 118 Q233 76 297 76 Q361 76 402 122.5 Q443 169 443 240 Q443 305 405 344.5 Q367 384 304 384 Z " />
<glyph glyph-name="uni01D4" unicode="&#x1d4;" horiz-adv-x="547" d="M498 460 L441 0 L331 0 L337 45 Q311 18 276 3.5 Q241 -11 208 -11 Q128 -11 93 31 Q62 66 62 136 Q62 157 68 211 L98 460 L209 460 L175 197 Q172 175 172 157 Q172 115 189 96.5 Q206 78 246 78 Q289 78 318.5 108.5 Q348 139 355 192 L389 460 L498 460 Z M470 677 L308 532 L193 677 L242 724 L319 633 L425 725 L470 677 Z " />
<glyph glyph-name="uni01DD" unicode="&#x1dd;" horiz-adv-x="589" d="M432 283 Q432 336 398.5 370.5 Q365 405 313 405 Q268 405 234 386 Q200 367 172 327 L64 339 Q102 409 170 448 Q238 487 320 487 Q388 487 439.5 460.5 Q491 434 519 385.5 Q547 337 547 273 Q547 195 508.5 129.5 Q470 64 404.5 26 Q339 -12 260 -12 Q194 -12 143.5 15.5 Q93 43 65 93.5 Q37 144 37 209 L39 234 L42 257 L431 257 L432 283 Z M149 188 Q153 133 185 101 Q217 69 270 69 Q322 69 363.5 102 Q405 135 419 188 L149 188 Z " />
<glyph glyph-name="uni01F5" unicode="&#x1f5;" horiz-adv-x="612" d="M229 565 L360 725 L441 675 L285 532 L229 565 Z M505 -5 Q496 -78 483 -116.5 Q470 -155 444 -184 Q412 -221 364.5 -240.5 Q317 -260 258 -260 Q200 -260 150.5 -241.5 Q101 -223 69 -190 Q42 -163 31.5 -131 Q21 -99 21 -46 L125 -46 Q127 -77 131 -93 Q135 -109 145 -122 Q159 -144 187 -156.5 Q215 -169 250 -169 Q281 -169 309 -159 Q337 -149 354 -132 Q387 -99 394 -23 L402 42 Q366 13 333.5 1 Q301 -11 259 -11 Q197 -11 147.5 18.5 Q98 48 70.5 100 Q43 152 43 217 Q43 289 75.5 347 Q108 405 165 438 Q222 471 293 471 Q342 471 376 456 Q410 441 447 403 L454 460 L562 460 L505 -5 Z M299 381 Q257 381 223.5 360 Q190 339 170.5 301.5 Q151 264 151 217 Q151 155 188 117 Q225 79 284 79 Q328 79 363 100 Q398 121 417.5 158.5 Q437 196 437 242 Q437 304 399 342.5 Q361 381 299 381 Z " />
<glyph glyph-name="uni0201" unicode="&#x201;" horiz-adv-x="601" d="M305 566 L258 532 L118 675 L190 725 L305 566 Z M476 566 L428 532 L288 675 L360 725 L476 566 Z M386 0 L392 50 Q354 16 322 2.5 Q290 -11 250 -11 Q209 -11 172 4 Q135 19 106 46 Q74 78 58.5 118 Q43 158 43 211 Q43 287 73 346 Q103 405 157 438 Q211 471 280 471 Q330 471 365 455 Q400 439 435 400 L443 460 L550 460 L494 0 L386 0 Z M294 381 Q255 381 222 359.5 Q189 338 170 300.5 Q151 263 151 217 Q151 156 185.5 117.5 Q220 79 273 79 Q312 79 345.5 101.5 Q379 124 399 161.5 Q419 199 419 243 Q419 304 384 342.5 Q349 381 294 381 Z " />
<glyph glyph-name="uni021B" unicode="&#x21b;" horiz-adv-x="312" d="M170 145 Q168 127 168 122 Q168 98 178 88.5 Q188 79 210 79 Q235 79 269 103 L256 10 Q241 -1 220 -7.5 Q199 -14 178 -14 Q125 -14 95 10 Q60 39 60 101 Q60 120 63 142 L90 359 L36 359 L48 460 L103 460 L126 647 L234 647 L210 460 L319 460 L307 359 L197 359 L170 145 Z M82 -60 L171 -101 L50 -269 L-6 -238 L82 -60 Z " />
<glyph glyph-name="uni0227" unicode="&#x227;" horiz-adv-x="601" d="M342 692 Q370 692 390.5 672 Q411 652 411 624 Q411 598 391.5 578.5 Q372 559 346 559 Q319 559 299.5 579 Q280 599 280 627 Q280 655 298 673.5 Q316 692 342 692 Z M386 0 L392 50 Q354 16 322 2.5 Q290 -11 250 -11 Q209 -11 172 4 Q135 19 106 46 Q74 78 58.5 118 Q43 158 43 211 Q43 287 73 346 Q103 405 157 438 Q211 471 280 471 Q330 471 365 455 Q400 439 435 400 L443 460 L550 460 L494 0 L386 0 Z M294 381 Q255 381 222 359.5 Q189 338 170 300.5 Q151 263 151 217 Q151 156 185.5 117.5 Q220 79 273 79 Q312 79 345.5 101.5 Q379 124 399 161.5 Q419 199 419 243 Q419 304 384 342.5 Q349 381 294 381 Z " />
<glyph glyph-name="uni1EA1" unicode="&#x1ea1;" horiz-adv-x="601" d="M386 0 L392 50 Q354 16 322 2.5 Q290 -11 250 -11 Q209 -11 172 4 Q135 19 106 46 Q74 78 58.5 118 Q43 158 43 211 Q43 287 73 346 Q103 405 157 438 Q211 471 280 471 Q330 471 365 455 Q400 439 435 400 L443 460 L550 460 L494 0 L386 0 Z M294 381 Q255 381 222 359.5 Q189 338 170 300.5 Q151 263 151 217 Q151 156 185.5 117.5 Q220 79 273 79 Q312 79 345.5 101.5 Q379 124 399 161.5 Q419 199 419 243 Q419 304 384 342.5 Q349 381 294 381 Z M234 -53 Q262 -53 282.5 -73 Q303 -93 303 -121 Q303 -146 283 -165.5 Q263 -185 237 -185 Q210 -185 191 -165.5 Q172 -146 172 -118 Q172 -90 190 -71.5 Q208 -53 234 -53 Z " />
<glyph glyph-name="uni1EA3" unicode="&#x1ea3;" horiz-adv-x="601" d="M289 653 L298 655 L333 661 Q371 666 384.5 675.5 Q398 685 398 706 Q398 720 385.5 728 Q373 736 351 736 Q340 736 333 734 Q326 732 318.5 729 Q311 726 307 724 Q307 724 281 713 L272 764 L284 767 Q338 788 386 788 Q431 788 457.5 767 Q484 746 484 711 Q484 668 451 641 Q418 614 366 614 L341 614 L332 571 L272 571 L289 653 Z M386 0 L392 50 Q354 16 322 2.5 Q290 -11 250 -11 Q209 -11 172 4 Q135 19 106 46 Q74 78 58.5 118 Q43 158 43 211 Q43 287 73 346 Q103 405 157 438 Q211 471 280 471 Q330 471 365 455 Q400 439 435 400 L443 460 L550 460 L494 0 L386 0 Z M294 381 Q255 381 222 359.5 Q189 338 170 300.5 Q151 263 151 217 Q151 156 185.5 117.5 Q220 79 273 79 Q312 79 345.5 101.5 Q379 124 399 161.5 Q419 199 419 243 Q419 304 384 342.5 Q349 381 294 381 Z " />
<glyph glyph-name="uni1EA5" unicode="&#x1ea5;" horiz-adv-x="601" d="M599 733 L455 603 L473 581 L424 534 L348 626 L241 532 L195 582 L358 725 L414 655 L519 785 L599 733 Z M386 0 L392 50 Q354 16 322 2.5 Q290 -11 250 -11 Q209 -11 172 4 Q135 19 106 46 Q74 78 58.5 118 Q43 158 43 211 Q43 287 73 346 Q103 405 157 438 Q211 471 280 471 Q330 471 365 455 Q400 439 435 400 L443 460 L550 460 L494 0 L386 0 Z M294 381 Q255 381 222 359.5 Q189 338 170 300.5 Q151 263 151 217 Q151 156 185.5 117.5 Q220 79 273 79 Q312 79 345.5 101.5 Q379 124 399 161.5 Q419 199 419 243 Q419 304 384 342.5 Q349 381 294 381 Z " />
<glyph glyph-name="uni1EA7" unicode="&#x1ea7;" horiz-adv-x="601" d="M541 645 L483 610 L360 746 L445 799 L541 645 Z M162 583 L338 719 L463 582 L403 532 L328 616 L209 531 L162 583 Z M386 0 L392 50 Q354 16 322 2.5 Q290 -11 250 -11 Q209 -11 172 4 Q135 19 106 46 Q74 78 58.5 118 Q43 158 43 211 Q43 287 73 346 Q103 405 157 438 Q211 471 280 471 Q330 471 365 455 Q400 439 435 400 L443 460 L550 460 L494 0 L386 0 Z M294 381 Q255 381 222 359.5 Q189 338 170 300.5 Q151 263 151 217 Q151 156 185.5 117.5 Q220 79 273 79 Q312 79 345.5 101.5 Q379 124 399 161.5 Q419 199 419 243 Q419 304 384 342.5 Q349 381 294 381 Z " />
<glyph glyph-name="uni1EA9" unicode="&#x1ea9;" horiz-adv-x="601" d="M444 692 Q478 697 479 697 Q517 702 530.5 711.5 Q544 721 544 742 Q544 757 532 765 Q520 773 497 773 Q484 773 478 771 Q472 769 454 760 L435 753 L427 749 L418 800 L426 802 L429 805 Q486 825 532 825 Q577 825 603 804 Q629 783 629 748 Q629 704 597 677 Q565 650 513 650 Q499 650 487 651 L478 608 L452 608 L473 582 L424 534 L348 626 L241 533 L195 582 L358 727 L425 642 L435 690 L444 692 Z M386 0 L392 50 Q354 16 322 2.5 Q290 -11 250 -11 Q209 -11 172 4 Q135 19 106 46 Q74 78 58.5 118 Q43 158 43 211 Q43 287 73 346 Q103 405 157 438 Q211 471 280 471 Q330 471 365 455 Q400 439 435 400 L443 460 L550 460 L494 0 L386 0 Z M294 381 Q255 381 222 359.5 Q189 338 170 300.5 Q151 263 151 217 Q151 156 185.5 117.5 Q220 79 273 79 Q312 79 345.5 101.5 Q379 124 399 161.5 Q419 199 419 243 Q419 304 384 342.5 Q349 381 294 381 Z " />
<glyph glyph-name="uni1EAB" unicode="&#x1eab;" horiz-adv-x="601" d="M527 828 Q479 740 421 740 Q390 740 319 783 Q313 786 303 786 Q285 786 272 765 L257 740 L201 779 Q228 825 252 844.5 Q276 864 303 864 Q317 864 329.5 859 Q342 854 372 837 Q390 828 402.5 822.5 Q415 817 421 817 Q446 817 469 867 L527 828 Z M195 582 L358 725 L473 581 L424 534 L348 626 L241 532 L195 582 Z M386 0 L392 50 Q354 16 322 2.5 Q290 -11 250 -11 Q209 -11 172 4 Q135 19 106 46 Q74 78 58.5 118 Q43 158 43 211 Q43 287 73 346 Q103 405 157 438 Q211 471 280 471 Q330 471 365 455 Q400 439 435 400 L443 460 L550 460 L494 0 L386 0 Z M294 381 Q255 381 222 359.5 Q189 338 170 300.5 Q151 263 151 217 Q151 156 185.5 117.5 Q220 79 273 79 Q312 79 345.5 101.5 Q379 124 399 161.5 Q419 199 419 243 Q419 304 384 342.5 Q349 381 294 381 Z " />
<glyph glyph-name="uni1EAD" unicode="&#x1ead;" horiz-adv-x="601" d="M195 582 L358 725 L473 581 L424 534 L348 626 L241 532 L195 582 Z M386 0 L392 50 Q354 16 322 2.5 Q290 -11 250 -11 Q209 -11 172 4 Q135 19 106 46 Q74 78 58.5 118 Q43 158 43 211 Q43 287 73 346 Q103 405 157 438 Q211 471 280 471 Q330 471 365 455 Q400 439 435 400 L443 460 L550 460 L494 0 L386 0 Z M294 381 Q255 381 222 359.5 Q189 338 170 300.5 Q151 263 151 217 Q151 156 185.5 117.5 Q220 79 273 79 Q312 79 345.5 101.5 Q379 124 399 161.5 Q419 199 419 243 Q419 304 384 342.5 Q349 381 294 381 Z M257 -53 Q285 -53 305 -73 Q325 -93 325 -121 Q325 -147 305.5 -166 Q286 -185 260 -185 Q233 -185 213.5 -165.5 Q194 -146 194 -118 Q194 -90 212 -71.5 Q230 -53 257 -53 Z " />
<glyph glyph-name="uni1EAF" unicode="&#x1eaf;" horiz-adv-x="601" d="M319 692 L450 853 L530 801 L374 660 L319 692 Z M293 681 Q293 655 308.5 637.5 Q324 620 349 620 Q402 620 428 698 L505 698 Q494 664 484.5 645.5 Q475 627 460 607 Q411 547 345 547 Q290 547 253.5 585.5 Q217 624 217 680 L217 698 L293 698 L293 681 Z M386 0 L392 50 Q354 16 322 2.5 Q290 -11 250 -11 Q209 -11 172 4 Q135 19 106 46 Q74 78 58.5 118 Q43 158 43 211 Q43 287 73 346 Q103 405 157 438 Q211 471 280 471 Q330 471 365 455 Q400 439 435 400 L443 460 L550 460 L494 0 L386 0 Z M294 381 Q255 381 222 359.5 Q189 338 170 300.5 Q151 263 151 217 Q151 156 185.5 117.5 Q220 79 273 79 Q312 79 345.5 101.5 Q379 124 399 161.5 Q419 199 419 243 Q419 304 384 342.5 Q349 381 294 381 Z " />
<glyph glyph-name="uni1EB1" unicode="&#x1eb1;" horiz-adv-x="601" d="M398 695 L345 661 L226 801 L305 854 L398 695 Z M293 681 Q293 655 308.5 637.5 Q324 620 349 620 Q402 620 428 698 L505 698 Q494 664 484.5 645.5 Q475 627 460 607 Q411 547 345 547 Q290 547 253.5 585.5 Q217 624 217 680 L217 698 L293 698 L293 681 Z M386 0 L392 50 Q354 16 322 2.5 Q290 -11 250 -11 Q209 -11 172 4 Q135 19 106 46 Q74 78 58.5 118 Q43 158 43 211 Q43 287 73 346 Q103 405 157 438 Q211 471 280 471 Q330 471 365 455 Q400 439 435 400 L443 460 L550 460 L494 0 L386 0 Z M294 381 Q255 381 222 359.5 Q189 338 170 300.5 Q151 263 151 217 Q151 156 185.5 117.5 Q220 79 273 79 Q312 79 345.5 101.5 Q379 124 399 161.5 Q419 199 419 243 Q419 304 384 342.5 Q349 381 294 381 Z " />
<glyph glyph-name="uni1EB3" unicode="&#x1eb3;" horiz-adv-x="601" d="M347 747 L356 749 Q384 754 391 754 Q428 758 441.5 768 Q455 778 455 799 Q455 813 443 821 Q431 829 409 829 Q395 829 389.5 827.5 Q384 826 365 817 L351 811 L347 809 Q342 808 339 806 L330 857 L338 860 L341 861 Q397 881 444 881 Q489 881 515 860.5 Q541 840 541 805 Q541 761 508.5 734 Q476 707 424 707 L399 707 L390 664 L330 664 L347 747 Z M293 681 Q293 655 308.5 637.5 Q324 620 349 620 Q402 620 428 698 L505 698 Q494 664 484.5 645.5 Q475 627 460 607 Q411 547 345 547 Q290 547 253.5 585.5 Q217 624 217 680 L217 698 L293 698 L293 681 Z M386 0 L392 50 Q354 16 322 2.5 Q290 -11 250 -11 Q209 -11 172 4 Q135 19 106 46 Q74 78 58.5 118 Q43 158 43 211 Q43 287 73 346 Q103 405 157 438 Q211 471 280 471 Q330 471 365 455 Q400 439 435 400 L443 460 L550 460 L494 0 L386 0 Z M294 381 Q255 381 222 359.5 Q189 338 170 300.5 Q151 263 151 217 Q151 156 185.5 117.5 Q220 79 273 79 Q312 79 345.5 101.5 Q379 124 399 161.5 Q419 199 419 243 Q419 304 384 342.5 Q349 381 294 381 Z " />
<glyph glyph-name="uni1EB5" unicode="&#x1eb5;" horiz-adv-x="601" d="M540 807 Q494 719 435 719 Q403 719 333 762 Q327 765 316 765 Q300 765 286 744 L270 719 L215 758 Q244 804 267 823.5 Q290 843 316 843 Q331 843 343.5 838.5 Q356 834 385 816 Q424 796 435 796 Q461 796 483 845 L540 807 Z M293 681 Q293 655 308.5 637.5 Q324 620 349 620 Q402 620 428 698 L505 698 Q494 664 484.5 645.5 Q475 627 460 607 Q411 547 345 547 Q290 547 253.5 585.5 Q217 624 217 680 L217 698 L293 698 L293 681 Z M386 0 L392 50 Q354 16 322 2.5 Q290 -11 250 -11 Q209 -11 172 4 Q135 19 106 46 Q74 78 58.5 118 Q43 158 43 211 Q43 287 73 346 Q103 405 157 438 Q211 471 280 471 Q330 471 365 455 Q400 439 435 400 L443 460 L550 460 L494 0 L386 0 Z M294 381 Q255 381 222 359.5 Q189 338 170 300.5 Q151 263 151 217 Q151 156 185.5 117.5 Q220 79 273 79 Q312 79 345.5 101.5 Q379 124 399 161.5 Q419 199 419 243 Q419 304 384 342.5 Q349 381 294 381 Z " />
<glyph glyph-name="uni1EB7" unicode="&#x1eb7;" horiz-adv-x="601" d="M293 681 Q293 655 308.5 637.5 Q324 620 349 620 Q402 620 428 698 L505 698 Q494 664 484.5 645.5 Q475 627 460 607 Q411 547 345 547 Q290 547 253.5 585.5 Q217 624 217 680 L217 698 L293 698 L293 681 Z M386 0 L392 50 Q354 16 322 2.5 Q290 -11 250 -11 Q209 -11 172 4 Q135 19 106 46 Q74 78 58.5 118 Q43 158 43 211 Q43 287 73 346 Q103 405 157 438 Q211 471 280 471 Q330 471 365 455 Q400 439 435 400 L443 460 L550 460 L494 0 L386 0 Z M294 381 Q255 381 222 359.5 Q189 338 170 300.5 Q151 263 151 217 Q151 156 185.5 117.5 Q220 79 273 79 Q312 79 345.5 101.5 Q379 124 399 161.5 Q419 199 419 243 Q419 304 384 342.5 Q349 381 294 381 Z M250 -53 Q278 -53 298.5 -73 Q319 -93 319 -121 Q319 -146 299 -165.5 Q279 -185 253 -185 Q226 -185 207 -165.5 Q188 -146 188 -118 Q188 -90 206 -71.5 Q224 -53 250 -53 Z " />
<glyph glyph-name="uni1EB9" unicode="&#x1eb9;" horiz-adv-x="560" d="M154 191 Q156 138 190 107 Q224 76 280 76 Q357 76 395 132 L476 87 Q434 31 389.5 8 Q345 -15 278 -15 Q208 -15 155 13.5 Q102 42 73 94.5 Q44 147 44 217 Q44 290 76 349 Q108 408 164 441.5 Q220 475 289 475 Q391 475 451 408.5 Q511 342 511 229 L510 191 L154 191 Z M401 278 Q385 384 284 384 Q235 384 204.5 358 Q174 332 160 278 L401 278 Z M259 -53 Q287 -53 307.5 -73 Q328 -93 328 -121 Q328 -146 308 -165.5 Q288 -185 262 -185 Q235 -185 216 -165.5 Q197 -146 197 -118 Q197 -90 215 -71.5 Q233 -53 259 -53 Z " />
<glyph glyph-name="uni1EBB" unicode="&#x1ebb;" horiz-adv-x="560" d="M283 654 L292 655 L327 661 Q364 666 377.5 675.5 Q391 685 391 706 Q391 720 378.5 728 Q366 736 345 736 Q331 736 324.5 734.5 Q318 733 301 724 Q293 721 287 718 Q281 715 275 713 L266 764 Q275 767 277 768 Q336 789 380 789 Q425 789 451 768 Q477 747 477 712 Q477 668 444 641 Q411 614 359 614 L334 614 L325 571 L266 571 L283 654 Z M154 191 Q156 138 190 107 Q224 76 280 76 Q357 76 395 132 L476 87 Q434 31 389.5 8 Q345 -15 278 -15 Q208 -15 155 13.5 Q102 42 73 94.5 Q44 147 44 217 Q44 290 76 349 Q108 408 164 441.5 Q220 475 289 475 Q391 475 451 408.5 Q511 342 511 229 L510 191 L154 191 Z M401 278 Q385 384 284 384 Q235 384 204.5 358 Q174 332 160 278 L401 278 Z " />
<glyph glyph-name="uni1EBD" unicode="&#x1ebd;" horiz-adv-x="560" d="M489 652 Q445 564 384 564 Q354 564 283 608 Q276 611 267 611 Q247 611 236 590 Q226 573 219 565 L164 603 Q192 650 216 669.5 Q240 689 267 689 Q281 689 293.5 684 Q306 679 336 662 Q371 641 384 641 Q398 641 409.5 652.5 Q421 664 433 690 L489 652 Z M154 191 Q156 138 190 107 Q224 76 280 76 Q357 76 395 132 L476 87 Q434 31 389.5 8 Q345 -15 278 -15 Q208 -15 155 13.5 Q102 42 73 94.5 Q44 147 44 217 Q44 290 76 349 Q108 408 164 441.5 Q220 475 289 475 Q391 475 451 408.5 Q511 342 511 229 L510 191 L154 191 Z M401 278 Q385 384 284 384 Q235 384 204.5 358 Q174 332 160 278 L401 278 Z " />
<glyph glyph-name="uni1EBF" unicode="&#x1ebf;" horiz-adv-x="560" d="M585 733 L438 600 L453 581 L405 534 L328 626 L221 532 L176 582 L339 725 L398 652 L505 784 L585 733 Z M154 191 Q156 138 190 107 Q224 76 279 76 Q357 76 395 132 L476 87 Q434 31 389.5 8 Q345 -15 278 -15 Q208 -15 155 13.5 Q102 42 73 94.5 Q44 147 44 217 Q44 290 76 349 Q108 408 164 441.5 Q220 475 289 475 Q391 475 451 408.5 Q511 342 511 229 L510 191 L154 191 Z M401 278 Q385 384 284 384 Q235 384 204.5 358 Q174 332 160 278 L401 278 Z " />
<glyph glyph-name="uni1EC1" unicode="&#x1ec1;" horiz-adv-x="560" d="M511 658 L452 621 L330 757 L415 811 L511 658 Z M131 596 L308 731 L434 594 L374 545 L297 628 L180 542 L131 596 Z M154 191 Q156 138 190 107 Q224 76 279 76 Q357 76 395 132 L476 87 Q434 31 389.5 8 Q345 -15 278 -15 Q208 -15 155 13.5 Q102 42 73 94.5 Q44 147 44 217 Q44 290 76 349 Q108 408 164 441.5 Q220 475 289 475 Q391 475 451 408.5 Q511 342 511 229 L510 191 L154 191 Z M401 278 Q385 384 284 384 Q235 384 204.5 358 Q174 332 160 278 L401 278 Z " />
<glyph glyph-name="uni1EC3" unicode="&#x1ec3;" horiz-adv-x="560" d="M426 690 L461 696 Q498 701 511.5 710.5 Q525 720 525 740 Q525 754 513 762.5 Q501 771 479 771 Q466 771 460 769.5 Q454 768 436 759 Q435 758 418 751 L410 748 L400 799 L412 802 Q467 823 515 823 Q559 823 585 802.5 Q611 782 611 747 Q611 703 579 676 Q547 649 495 649 L470 650 L461 606 L434 606 L453 582 L405 534 L328 626 L221 533 L176 582 L339 727 L408 640 L418 689 L426 690 Z M154 191 Q156 138 190 107 Q224 76 279 76 Q357 76 395 132 L476 87 Q434 31 389.5 8 Q345 -15 278 -15 Q208 -15 155 13.5 Q102 42 73 94.5 Q44 147 44 217 Q44 290 76 349 Q108 408 164 441.5 Q220 475 289 475 Q391 475 451 408.5 Q511 342 511 229 L510 191 L154 191 Z M401 278 Q385 384 284 384 Q235 384 204.5 358 Q174 332 160 278 L401 278 Z " />
<glyph glyph-name="uni1EC5" unicode="&#x1ec5;" horiz-adv-x="560" d="M505 828 Q460 740 400 740 Q371 740 298 783 Q293 786 283 786 Q263 786 252 765 L236 740 L180 779 Q208 825 231.5 844.5 Q255 864 283 864 Q297 864 309.5 859 Q322 854 351 837 Q370 828 382.5 822.5 Q395 817 401 817 Q426 817 449 867 L505 828 Z M176 582 L339 725 L453 581 L405 534 L328 626 L221 532 L176 582 Z M154 191 Q156 138 190 107 Q224 76 280 76 Q357 76 395 132 L476 87 Q434 31 389.5 8 Q345 -15 278 -15 Q208 -15 155 13.5 Q102 42 73 94.5 Q44 147 44 217 Q44 290 76 349 Q108 408 164 441.5 Q220 475 289 475 Q391 475 451 408.5 Q511 342 511 229 L510 191 L154 191 Z M401 278 Q385 384 284 384 Q235 384 204.5 358 Q174 332 160 278 L401 278 Z " />
<glyph glyph-name="uni1EC7" unicode="&#x1ec7;" horiz-adv-x="560" d="M176 582 L339 725 L453 581 L405 534 L328 626 L221 532 L176 582 Z M154 191 Q156 138 190 107 Q224 76 280 76 Q357 76 395 132 L476 87 Q434 31 389.5 8 Q345 -15 278 -15 Q208 -15 155 13.5 Q102 42 73 94.5 Q44 147 44 217 Q44 290 76 349 Q108 408 164 441.5 Q220 475 289 475 Q391 475 451 408.5 Q511 342 511 229 L510 191 L154 191 Z M401 278 Q385 384 284 384 Q235 384 204.5 358 Q174 332 160 278 L401 278 Z M259 -53 Q287 -53 307.5 -73 Q328 -93 328 -121 Q328 -146 308 -165.5 Q288 -185 262 -185 Q235 -185 216 -165.5 Q197 -146 197 -118 Q197 -90 215 -71.5 Q233 -53 259 -53 Z " />
<glyph glyph-name="uni1EC9" unicode="&#x1ec9;" horiz-adv-x="259" d="M154 651 L162 652 L173 654 Q190 658 197 658 Q234 662 247.5 672 Q261 682 261 703 Q261 717 249 725 Q237 733 215 733 Q202 733 195.5 731 Q189 729 172 721 L146 710 L136 760 L144 764 L148 765 Q201 785 251 785 Q295 785 321 764.5 Q347 744 347 709 Q347 666 314.5 638.5 Q282 611 231 611 L206 611 L197 568 L136 568 L154 651 Z M44 0 L101 460 L208 460 L151 0 L44 0 Z " />
<glyph glyph-name="uni1ECB" unicode="&#x1ecb;" horiz-adv-x="259" d="M179 746 Q207 746 227 726 Q247 706 247 678 Q247 652 227.5 633 Q208 614 182 614 Q155 614 135.5 633.5 Q116 653 116 681 Q116 709 134 727.5 Q152 746 179 746 Z M44 0 L101 460 L208 460 L151 0 L44 0 Z M85 -53 Q113 -53 133.5 -73 Q154 -93 154 -121 Q154 -146 134 -165.5 Q114 -185 88 -185 Q61 -185 42 -165.5 Q23 -146 23 -118 Q23 -90 41 -71.5 Q59 -53 85 -53 Z " />
<glyph glyph-name="uni1ECD" unicode="&#x1ecd;" horiz-adv-x="601" d="M304 475 Q376 475 432 444.5 Q488 414 519.5 359 Q551 304 551 234 Q551 165 518 108 Q485 51 427 18 Q369 -15 299 -15 Q226 -15 168 16 Q110 47 77.5 102 Q45 157 45 226 Q45 296 79 353 Q113 410 172 442.5 Q231 475 304 475 Z M304 384 Q239 384 196.5 340 Q154 296 154 228 Q154 160 193.5 118 Q233 76 297 76 Q361 76 402 122.5 Q443 169 443 240 Q443 305 405 344.5 Q367 384 304 384 Z M280 -53 Q308 -53 328.5 -73 Q349 -93 349 -121 Q349 -147 329.5 -166 Q310 -185 284 -185 Q256 -185 237 -165.5 Q218 -146 218 -118 Q218 -90 236 -71.5 Q254 -53 280 -53 Z " />
<glyph glyph-name="uni1ECF" unicode="&#x1ecf;" horiz-adv-x="601" d="M308 634 L316 636 L328 637 Q343 641 351 641 Q388 645 402 655 Q416 665 416 686 Q416 700 404 707.5 Q392 715 370 715 Q355 715 349.5 713.5 Q344 712 327 704 L312 698 L308 696 L299 694 L290 745 L302 748 Q336 759 358.5 763.5 Q381 768 406 768 Q450 768 476 747.5 Q502 727 502 692 Q502 649 469.5 621.5 Q437 594 385 594 L360 594 L350 551 L290 551 L308 634 Z M304 475 Q376 475 432 444.5 Q488 414 519.5 359 Q551 304 551 234 Q551 165 518 108 Q485 51 427 18 Q369 -15 299 -15 Q226 -15 168 16 Q110 47 77.5 102 Q45 157 45 226 Q45 296 79 353 Q113 410 172 442.5 Q231 475 304 475 Z M304 384 Q239 384 196.5 340 Q154 296 154 228 Q154 160 193.5 118 Q233 76 297 76 Q361 76 402 122.5 Q443 169 443 240 Q443 305 405 344.5 Q367 384 304 384 Z " />
<glyph glyph-name="uni1ED1" unicode="&#x1ed1;" horiz-adv-x="601" d="M597 739 L453 608 L475 581 L425 534 L349 626 L243 532 L197 582 L359 725 L411 661 L516 791 L597 739 Z M305 475 Q376 475 432 444.5 Q488 414 519.5 360 Q551 306 551 237 Q551 166 518 108.5 Q485 51 427.5 18 Q370 -15 298 -15 Q225 -15 167.5 16 Q110 47 77.5 102 Q45 157 45 226 Q45 296 79 353 Q113 410 172.5 442.5 Q232 475 305 475 Z M304 384 Q239 384 196.5 340 Q154 296 154 228 Q154 160 193.5 118 Q233 76 297 76 Q361 76 402 122.5 Q443 169 443 240 Q443 305 405 344.5 Q367 384 304 384 Z " />
<glyph glyph-name="uni1ED3" unicode="&#x1ed3;" horiz-adv-x="601" d="M541 635 L483 600 L360 736 L445 789 L541 635 Z M162 573 L339 709 L464 573 L405 522 L328 606 L210 521 L162 573 Z M305 475 Q376 475 432 444.5 Q488 414 519.5 360 Q551 306 551 237 Q551 166 518 108.5 Q485 51 427.5 18 Q370 -15 298 -15 Q225 -15 167.5 16 Q110 47 77.5 102 Q45 157 45 226 Q45 296 79 353 Q113 410 172.5 442.5 Q232 475 305 475 Z M304 384 Q239 384 196.5 340 Q154 296 154 228 Q154 160 193.5 118 Q233 76 297 76 Q361 76 402 122.5 Q443 169 443 240 Q443 305 405 344.5 Q367 384 304 384 Z " />
<glyph glyph-name="uni1ED5" unicode="&#x1ed5;" horiz-adv-x="601" d="M418 690 L453 696 Q491 701 504.5 710.5 Q518 720 518 740 Q518 754 505.5 762.5 Q493 771 471 771 Q458 771 452 769.5 Q446 768 428 759 Q427 758 410 751 L402 748 L393 799 L400 801 L405 802 Q459 823 507 823 Q551 823 577 802.5 Q603 782 603 747 Q603 703 571 676 Q539 649 487 649 L462 650 L453 606 L429 606 L449 582 L399 534 L323 626 L217 533 L171 582 L333 727 L400 642 L410 689 L418 690 Z M305 475 Q376 475 432 444.5 Q488 414 519.5 360 Q551 306 551 237 Q551 166 518 108.5 Q485 51 427.5 18 Q370 -15 298 -15 Q225 -15 167.5 16 Q110 47 77.5 102 Q45 157 45 226 Q45 296 79 353 Q113 410 172.5 442.5 Q232 475 305 475 Z M304 384 Q239 384 196.5 340 Q154 296 154 228 Q154 160 193.5 118 Q233 76 297 76 Q361 76 402 122.5 Q443 169 443 240 Q443 305 405 344.5 Q367 384 304 384 Z " />
<glyph glyph-name="uni1ED7" unicode="&#x1ed7;" horiz-adv-x="601" d="M508 825 Q462 737 403 737 Q388 737 361.5 748 Q335 759 301 781 Q295 784 285 784 Q268 784 254 763 Q244 746 238 738 L183 776 Q210 822 234 842 Q258 862 285 862 Q300 862 312 857.5 Q324 853 354 835 Q391 814 403 814 Q429 814 451 863 L508 825 Z M175 582 L337 725 L452 581 L403 534 L327 626 L220 532 L175 582 Z M304 475 Q376 475 432 444.5 Q488 414 519.5 359 Q551 304 551 234 Q551 165 518 108 Q485 51 427 18 Q369 -15 299 -15 Q226 -15 168 16 Q110 47 77.5 102 Q45 157 45 226 Q45 296 79 353 Q113 410 172 442.5 Q231 475 304 475 Z M304 384 Q239 384 196.5 340 Q154 296 154 228 Q154 160 193.5 118 Q233 76 297 76 Q361 76 402 122.5 Q443 169 443 240 Q443 305 405 344.5 Q367 384 304 384 Z " />
<glyph glyph-name="uni1ED9" unicode="&#x1ed9;" horiz-adv-x="601" d="M181 582 L344 725 L459 581 L409 534 L333 626 L226 532 L181 582 Z M304 475 Q376 475 432 444.5 Q488 414 519.5 359 Q551 304 551 234 Q551 165 518 108 Q485 51 427 18 Q369 -15 299 -15 Q226 -15 168 16 Q110 47 77.5 102 Q45 157 45 226 Q45 296 79 353 Q113 410 172 442.5 Q231 475 304 475 Z M304 384 Q239 384 196.5 340 Q154 296 154 228 Q154 160 193.5 118 Q233 76 297 76 Q361 76 402 122.5 Q443 169 443 240 Q443 305 405 344.5 Q367 384 304 384 Z M280 -53 Q308 -53 328.5 -73 Q349 -93 349 -121 Q349 -147 329.5 -166 Q310 -185 284 -185 Q256 -185 237 -165.5 Q218 -146 218 -118 Q218 -90 236 -71.5 Q254 -53 280 -53 Z " />
<glyph glyph-name="uni1EDB" unicode="&#x1edb;" horiz-adv-x="601" d="M297 565 L428 725 L508 675 L351 532 L297 565 Z M651 475 L539 318 Q551 279 551 237 Q551 166 518 108.5 Q485 51 427.5 18 Q370 -15 299 -15 Q226 -15 168 16 Q110 47 77.5 102 Q45 157 45 226 Q45 296 79 353 Q113 410 172.5 442.5 Q232 475 305 475 Q365 475 416.5 452 Q468 429 501 388 L563 514 L651 475 Z M304 384 Q239 384 196.5 340 Q154 296 154 228 Q154 160 193.5 118 Q233 76 297 76 Q361 76 402 122.5 Q443 169 443 240 Q443 305 405 344.5 Q367 384 304 384 Z " />
<glyph glyph-name="uni1EDD" unicode="&#x1edd;" horiz-adv-x="601" d="M425 566 L373 532 L253 672 L332 725 L425 566 Z M651 475 L539 318 Q551 279 551 237 Q551 166 518 108.5 Q485 51 427.5 18 Q370 -15 299 -15 Q226 -15 168 16 Q110 47 77.5 102 Q45 157 45 226 Q45 296 79 353 Q113 410 172.5 442.5 Q232 475 305 475 Q365 475 416.5 452 Q468 429 501 388 L563 514 L651 475 Z M304 384 Q239 384 196.5 340 Q154 296 154 228 Q154 160 193.5 118 Q233 76 297 76 Q361 76 402 122.5 Q443 169 443 240 Q443 305 405 344.5 Q367 384 304 384 Z " />
<glyph glyph-name="uni1EDF" unicode="&#x1edf;" horiz-adv-x="601" d="M311 663 L319 664 Q350 670 354 670 Q391 675 404.5 684.5 Q418 694 418 715 Q418 729 406 737.5 Q394 746 372 746 Q358 746 351.5 744 Q345 742 329 733 Q323 732 310 725 L302 722 L293 773 L301 776 L304 777 Q365 798 407 798 Q452 798 478 777 Q504 756 504 721 Q504 678 472 651 Q440 624 388 624 L362 624 L353 581 L293 581 L311 663 Z M651 475 L539 318 Q551 279 551 237 Q551 166 518 108.5 Q485 51 427.5 18 Q370 -15 299 -15 Q226 -15 168 16 Q110 47 77.5 102 Q45 157 45 226 Q45 296 79 353 Q113 410 172.5 442.5 Q232 475 305 475 Q365 475 416.5 452 Q468 429 501 388 L563 514 L651 475 Z M304 384 Q239 384 196.5 340 Q154 296 154 228 Q154 160 193.5 118 Q233 76 297 76 Q361 76 402 122.5 Q443 169 443 240 Q443 305 405 344.5 Q367 384 304 384 Z " />
<glyph glyph-name="uni1EE1" unicode="&#x1ee1;" horiz-adv-x="601" d="M511 652 Q464 564 406 564 Q374 564 303 608 Q297 611 287 611 Q270 611 257 590 L241 565 L185 603 Q213 650 236.5 669.5 Q260 689 287 689 Q302 689 314 684.5 Q326 680 356 662 Q393 641 406 641 Q419 641 430 652.5 Q441 664 453 690 L511 652 Z M651 475 L539 318 Q551 279 551 237 Q551 166 518 108.5 Q485 51 427.5 18 Q370 -15 299 -15 Q226 -15 168 16 Q110 47 77.5 102 Q45 157 45 226 Q45 296 79 353 Q113 410 172.5 442.5 Q232 475 305 475 Q365 475 416.5 452 Q468 429 501 388 L563 514 L651 475 Z M304 384 Q239 384 196.5 340 Q154 296 154 228 Q154 160 193.5 118 Q233 76 297 76 Q361 76 402 122.5 Q443 169 443 240 Q443 305 405 344.5 Q367 384 304 384 Z " />
<glyph glyph-name="uni1EE3" unicode="&#x1ee3;" horiz-adv-x="601" d="M651 475 L539 318 Q551 279 551 237 Q551 166 518 108.5 Q485 51 427.5 18 Q370 -15 299 -15 Q226 -15 168 16 Q110 47 77.5 102 Q45 157 45 226 Q45 296 79 353 Q113 410 172.5 442.5 Q232 475 305 475 Q365 475 416.5 452 Q468 429 501 388 L563 514 L651 475 Z M304 384 Q239 384 196.5 340 Q154 296 154 228 Q154 160 193.5 118 Q233 76 297 76 Q361 76 402 122.5 Q443 169 443 240 Q443 305 405 344.5 Q367 384 304 384 Z M280 -53 Q308 -53 328.5 -73 Q349 -93 349 -121 Q349 -147 329.5 -166 Q310 -185 284 -185 Q256 -185 237 -165.5 Q218 -146 218 -118 Q218 -90 236 -71.5 Q254 -53 280 -53 Z " />
<glyph glyph-name="uni1EE5" unicode="&#x1ee5;" horiz-adv-x="547" d="M498 460 L441 0 L331 0 L337 45 Q311 18 276 3.5 Q241 -11 208 -11 Q128 -11 93 31 Q62 66 62 136 Q62 157 68 211 L98 460 L209 460 L175 197 Q172 175 172 157 Q172 115 189 96.5 Q206 78 246 78 Q289 78 318.5 108.5 Q348 139 355 192 L389 460 L498 460 Z M234 -53 Q262 -53 282.5 -73 Q303 -93 303 -121 Q303 -146 283 -165.5 Q263 -185 237 -185 Q210 -185 191 -165.5 Q172 -146 172 -118 Q172 -90 190 -71.5 Q208 -53 234 -53 Z " />
<glyph glyph-name="uni1EE7" unicode="&#x1ee7;" horiz-adv-x="547" d="M498 460 L441 0 L331 0 L337 45 Q311 18 276 3.5 Q241 -11 208 -11 Q128 -11 93 31 Q62 66 62 136 Q62 157 68 211 L98 460 L209 460 L175 197 Q172 175 172 157 Q172 115 189 96.5 Q206 78 246 78 Q289 78 318.5 108.5 Q348 139 355 192 L389 460 L498 460 Z M293 653 L302 655 L337 661 Q375 667 388 676 Q401 685 401 706 Q401 720 389 728 Q377 736 355 736 Q344 736 337 734 Q330 732 322.5 729 Q315 726 311 724 Q308 722 300.5 719 Q293 716 285 713 L276 764 L284 766 L287 767 Q341 788 390 788 Q435 788 461 767 Q487 746 487 711 Q487 668 454.5 641 Q422 614 370 614 L345 614 L336 571 L276 571 L293 653 Z " />
<glyph glyph-name="uni1EE9" unicode="&#x1ee9;" horiz-adv-x="547" d="M693 479 L572 310 L516 340 L605 520 L693 479 Z M389 460 L498 460 L441 0 L331 0 L337 45 Q311 18 276 3.5 Q241 -11 208 -11 Q128 -11 93 31 Q62 66 62 136 Q62 157 68 211 L98 460 L209 460 L175 197 Q172 175 172 157 Q172 115 189 96.5 Q206 78 246 78 Q289 78 318.5 108.5 Q348 139 355 192 L389 460 Z M270 565 L401 725 L481 675 L325 532 L270 565 Z " />
<glyph glyph-name="uni1EEB" unicode="&#x1eeb;" horiz-adv-x="547" d="M693 479 L572 310 L516 340 L605 520 L693 479 Z M389 460 L498 460 L441 0 L331 0 L337 45 Q311 18 276 3.5 Q241 -11 208 -11 Q128 -11 93 31 Q62 66 62 136 Q62 157 68 211 L98 460 L209 460 L175 197 Q172 175 172 157 Q172 115 189 96.5 Q206 78 246 78 Q289 78 318.5 108.5 Q348 139 355 192 L389 460 Z M397 566 L345 532 L225 672 L304 725 L397 566 Z " />
<glyph glyph-name="uni1EED" unicode="&#x1eed;" horiz-adv-x="547" d="M693 479 L572 310 L516 340 L605 520 L693 479 Z M389 460 L498 460 L441 0 L331 0 L337 45 Q311 18 276 3.5 Q241 -11 208 -11 Q128 -11 93 31 Q62 66 62 136 Q62 157 68 211 L98 460 L209 460 L175 197 Q172 175 172 157 Q172 115 189 96.5 Q206 78 246 78 Q289 78 318.5 108.5 Q348 139 355 192 L389 460 Z M278 653 L287 655 L322 661 Q360 667 373 676 Q386 685 386 706 Q386 720 374 728 Q362 736 340 736 Q329 736 322 734 Q315 732 307.5 729 Q300 726 296 724 Q293 722 285.5 719 Q278 716 270 713 L261 764 L269 766 L272 767 Q326 788 375 788 Q420 788 446 767 Q472 746 472 711 Q472 668 439.5 641 Q407 614 355 614 L330 614 L321 571 L261 571 L278 653 Z " />
<glyph glyph-name="uni1EEF" unicode="&#x1eef;" horiz-adv-x="547" d="M693 479 L572 310 L516 340 L605 520 L693 479 Z M389 460 L498 460 L441 0 L331 0 L337 45 Q311 18 276 3.5 Q241 -11 208 -11 Q128 -11 93 31 Q62 66 62 136 Q62 157 68 211 L98 460 L209 460 L175 197 Q172 175 172 157 Q172 115 189 96.5 Q206 78 246 78 Q289 78 318.5 108.5 Q348 139 355 192 L389 460 Z M486 652 Q439 564 380 564 Q350 564 279 608 Q272 611 263 611 Q244 611 231 590 Q226 580 222.5 575 Q219 570 215 565 L160 603 Q189 650 212.5 669.5 Q236 689 263 689 Q277 689 289 684.5 Q301 680 332 662 Q367 641 380 641 Q394 641 405 652 Q416 663 429 690 L486 652 Z " />
<glyph glyph-name="uni1EF1" unicode="&#x1ef1;" horiz-adv-x="547" d="M693 479 L572 310 L516 340 L605 520 L693 479 Z M389 460 L498 460 L441 0 L331 0 L337 45 Q311 18 276 3.5 Q241 -11 208 -11 Q128 -11 93 31 Q62 66 62 136 Q62 157 68 211 L98 460 L209 460 L175 197 Q172 175 172 157 Q172 115 189 96.5 Q206 78 246 78 Q289 78 318.5 108.5 Q348 139 355 192 L389 460 Z M234 -53 Q262 -53 282.5 -73 Q303 -93 303 -121 Q303 -146 283 -165.5 Q263 -185 237 -185 Q210 -185 191 -165.5 Q172 -146 172 -118 Q172 -90 190 -71.5 Q208 -53 234 -53 Z " />
<glyph glyph-name="uni1EF5" unicode="&#x1ef5;" horiz-adv-x="527" d="M5 -263 L190 58 L25 460 L140 460 L254 166 L420 460 L544 460 L128 -263 L5 -263 Z M342 -53 Q370 -53 390.5 -73 Q411 -93 411 -121 Q411 -147 391.5 -166 Q372 -185 346 -185 Q319 -185 299.5 -165.5 Q280 -146 280 -118 Q280 -90 298 -71.5 Q316 -53 342 -53 Z " />
<glyph glyph-name="uni1EF7" unicode="&#x1ef7;" horiz-adv-x="527" d="M270 678 L279 680 Q307 685 314 685 Q351 690 365 700 Q379 710 379 730 Q379 744 366.5 752 Q354 760 332 760 Q319 760 313 758.5 Q307 757 289 748 Q286 747 279.5 744 Q273 741 262 737 L253 788 L261 791 L264 792 Q320 812 367 812 Q412 812 438 791.5 Q464 771 464 736 Q464 692 431.5 665 Q399 638 347 638 L322 638 L313 596 L253 596 L270 678 Z M5 -263 L190 58 L25 460 L140 460 L254 166 L420 460 L544 460 L128 -263 L5 -263 Z " />
<glyph glyph-name="uni1EF9" unicode="&#x1ef9;" horiz-adv-x="527" d="M449 652 Q403 564 344 564 Q313 564 242 608 Q234 611 226 611 Q207 611 194 590 Q185 573 179 565 L123 603 Q152 650 175.5 669.5 Q199 689 226 689 Q240 689 252 684.5 Q264 680 295 662 Q330 641 344 641 Q357 641 368 652 Q379 663 392 690 L449 652 Z M5 -263 L190 58 L25 460 L140 460 L254 166 L420 460 L544 460 L128 -263 L5 -263 Z " />
<glyph glyph-name="uogonek" unicode="&#x173;" horiz-adv-x="547" d="M348 -93 Q348 -110 361.5 -120.5 Q375 -131 397 -131 Q416 -131 449 -122 L431 -190 Q411 -200 394.5 -204.5 Q378 -209 358 -209 Q316 -209 287.5 -182.5 Q259 -156 259 -116 Q259 -83 283 -55.5 Q307 -28 358 0 L331 0 L337 45 Q311 18 276 3.5 Q241 -11 208 -11 Q128 -11 93 31 Q62 66 62 136 Q62 157 68 211 L98 460 L209 460 L175 197 Q172 175 172 157 Q172 115 189 96.5 Q206 78 246 78 Q289 78 318.5 108.5 Q348 139 355 192 L389 460 L498 460 L441 0 Q433 -5 416 -15.5 Q399 -26 392.5 -30.5 Q386 -35 381 -40 Q366 -52 357 -66.5 Q348 -81 348 -93 Z " />
<glyph glyph-name="uring" unicode="&#x16f;" horiz-adv-x="547" d="M498 460 L441 0 L331 0 L337 45 Q311 18 276 3.5 Q241 -11 208 -11 Q128 -11 93 31 Q62 66 62 136 Q62 157 68 211 L98 460 L209 460 L175 197 Q172 175 172 157 Q172 115 189 96.5 Q206 78 246 78 Q289 78 318.5 108.5 Q348 139 355 192 L389 460 L498 460 Z M322 736 Q368 736 399 704.5 Q430 673 430 627 Q430 583 398.5 551.5 Q367 520 323 520 Q278 520 246 551.5 Q214 583 214 628 Q214 672 246 704 Q278 736 322 736 Z M322 673 Q303 673 289.5 660 Q276 647 276 628 Q276 609 289.5 595.5 Q303 582 322 582 Q341 582 354.5 595.5 Q368 609 368 628 Q368 647 354.5 660 Q341 673 322 673 Z " />
<glyph glyph-name="utilde" unicode="&#x169;" horiz-adv-x="547" d="M498 460 L441 0 L331 0 L337 45 Q311 18 276 3.5 Q241 -11 208 -11 Q128 -11 93 31 Q62 66 62 136 Q62 157 68 211 L98 460 L209 460 L175 197 Q172 175 172 157 Q172 115 189 96.5 Q206 78 246 78 Q289 78 318.5 108.5 Q348 139 355 192 L389 460 L498 460 Z M485 652 Q438 564 379 564 Q349 564 278 608 Q271 611 262 611 Q243 611 230 590 Q225 580 221.5 575 Q218 570 214 565 L159 603 Q188 650 211.5 669.5 Q235 689 262 689 Q276 689 288 684.5 Q300 680 331 662 Q366 641 379 641 Q393 641 404 652 Q415 663 428 690 L485 652 Z " />
<glyph glyph-name="v" unicode="v" horiz-adv-x="487" d="M25 460 L137 460 L216 166 L381 460 L504 460 L189 -60 L25 460 Z " />
<glyph glyph-name="w" unicode="w" horiz-adv-x="727" d="M356 249 L192 -49 L25 460 L139 460 L219 180 L383 472 L471 180 L621 460 L745 460 L449 -49 L356 249 Z " />
<glyph glyph-name="wacute" unicode="&#x1e83;" horiz-adv-x="727" d="M315 565 L445 725 L527 675 L370 532 L315 565 Z M356 249 L192 -49 L25 460 L139 460 L219 180 L383 472 L471 180 L621 460 L745 460 L449 -49 L356 249 Z " />
<glyph glyph-name="wcircumflex" unicode="&#x175;" horiz-adv-x="727" d="M246 582 L408 725 L523 581 L475 534 L398 626 L292 532 L246 582 Z M356 249 L192 -49 L25 460 L139 460 L219 180 L383 472 L471 180 L621 460 L745 460 L449 -49 L356 249 Z " />
<glyph glyph-name="wdieresis" unicode="&#x1e85;" horiz-adv-x="727" d="M286 686 Q313 686 332 667 Q351 648 351 620 Q351 596 332 577 Q313 558 288 558 Q263 558 244.5 577.5 Q226 597 226 624 Q226 651 243 668.5 Q260 686 286 686 Z M478 686 Q504 686 522.5 667 Q541 648 541 620 Q541 596 523 577 Q505 558 481 558 Q455 558 436.5 577.5 Q418 597 418 624 Q418 651 435 668.5 Q452 686 478 686 Z M356 249 L192 -49 L25 460 L139 460 L219 180 L383 472 L471 180 L621 460 L745 460 L449 -49 L356 249 Z " />
<glyph glyph-name="wgrave" unicode="&#x1e81;" horiz-adv-x="727" d="M471 566 L418 532 L298 672 L377 725 L471 566 Z M356 249 L192 -49 L25 460 L139 460 L219 180 L383 472 L471 180 L621 460 L745 460 L449 -49 L356 249 Z " />
<glyph glyph-name="x" unicode="x" horiz-adv-x="541" d="M374 0 L266 175 L116 0 L-23 0 L211 255 L75 460 L198 460 L279 328 L389 460 L527 460 L333 247 L499 0 L374 0 Z " />
<glyph glyph-name="y" unicode="y" horiz-adv-x="527" d="M5 -263 L190 58 L25 460 L140 460 L254 166 L420 460 L544 460 L128 -263 L5 -263 Z " />
<glyph glyph-name="yacute" unicode="&#xfd;" horiz-adv-x="527" d="M236 565 L367 725 L447 675 L292 532 L236 565 Z M5 -263 L190 58 L25 460 L140 460 L254 166 L420 460 L544 460 L128 -263 L5 -263 Z " />
<glyph glyph-name="ycircumflex" unicode="&#x177;" horiz-adv-x="527" d="M156 582 L319 725 L434 581 L384 534 L308 626 L202 532 L156 582 Z M5 -263 L190 58 L25 460 L140 460 L254 166 L420 460 L544 460 L128 -263 L5 -263 Z " />
<glyph glyph-name="ydieresis" unicode="&#xff;" horiz-adv-x="527" d="M201 686 Q228 686 247.5 666.5 Q267 647 267 620 Q267 596 247.5 577 Q228 558 203 558 Q178 558 159.5 577.5 Q141 597 141 624 Q141 651 158 668.5 Q175 686 201 686 Z M393 686 Q419 686 438 667 Q457 648 457 620 Q457 596 439 577 Q421 558 397 558 Q371 558 352 577.5 Q333 597 333 624 Q333 651 350 668.5 Q367 686 393 686 Z M5 -263 L190 58 L25 460 L140 460 L254 166 L420 460 L544 460 L128 -263 L5 -263 Z " />
<glyph glyph-name="ygrave" unicode="&#x1ef3;" horiz-adv-x="527" d="M360 566 L307 532 L188 672 L267 725 L360 566 Z M5 -263 L190 58 L25 460 L140 460 L254 166 L420 460 L544 460 L128 -263 L5 -263 Z " />
<glyph glyph-name="z" unicode="z" horiz-adv-x="518" d="M-9 0 L299 359 L69 359 L81 460 L514 460 L205 101 L476 101 L463 0 L-9 0 Z " />
<glyph glyph-name="zacute" unicode="&#x17a;" horiz-adv-x="518" d="M245 565 L375 725 L457 675 L299 532 L245 565 Z M-9 0 L299 359 L69 359 L81 460 L514 460 L205 101 L476 101 L463 0 L-9 0 Z " />
<glyph glyph-name="zcaron" unicode="&#x17e;" horiz-adv-x="518" d="M459 677 L297 532 L182 677 L231 724 L307 633 L414 725 L459 677 Z M-9 0 L299 359 L69 359 L81 460 L514 460 L205 101 L476 101 L463 0 L-9 0 Z " />
<glyph glyph-name="zdotaccent" unicode="&#x17c;" horiz-adv-x="518" d="M304 692 Q332 692 352.5 672 Q373 652 373 624 Q373 598 353 578.5 Q333 559 307 559 Q280 559 261 579 Q242 599 242 627 Q242 655 260 673.5 Q278 692 304 692 Z M-9 0 L299 359 L69 359 L81 460 L514 460 L205 101 L476 101 L463 0 L-9 0 Z " />
<glyph glyph-name="ff" unicode="&#xfb00;" horiz-adv-x="614" d="M51 0 L95 359 L25 359 L37 460 L107 460 L132 666 Q138 712 149.5 741 Q161 770 180 789 Q197 806 223 815.5 Q249 825 276 825 Q297 825 317.5 819.5 Q338 814 367 800 L356 705 Q339 719 327 724.5 Q315 730 299 730 Q270 730 256.5 709.5 Q243 689 236 635 L215 460 L276 460 L263 359 L202 359 L158 0 L51 0 Z M325 0 L370 359 L310 359 L322 460 L382 460 L408 666 Q413 712 424 740.5 Q435 769 455 789 Q472 806 497.5 815.5 Q523 825 551 825 Q572 825 592 819.5 Q612 814 642 800 L631 705 Q614 719 601.5 724.5 Q589 730 575 730 Q546 730 532.5 709.5 Q519 689 512 635 L490 460 L588 460 L575 359 L478 359 L434 0 L325 0 Z " />
<glyph glyph-name="ffi" unicode="&#xfb03;" horiz-adv-x="808" d="M51 0 L95 359 L25 359 L37 460 L107 460 L132 666 Q138 712 149.5 741 Q161 770 180 789 Q197 806 223 815.5 Q249 825 276 825 Q297 825 317.5 819.5 Q338 814 367 800 L356 705 Q339 719 327 724.5 Q315 730 299 730 Q270 730 256.5 709.5 Q243 689 236 635 L215 460 L276 460 L263 359 L202 359 L158 0 L51 0 Z M325 0 L370 359 L310 359 L322 460 L382 460 L408 666 Q413 712 424 740.5 Q435 769 455 789 Q472 806 497.5 815.5 Q523 825 551 825 Q572 825 592 819.5 Q612 814 642 800 L631 705 Q614 719 601.5 724.5 Q589 730 575 730 Q546 730 532.5 709.5 Q519 689 512 635 L490 460 L588 460 L575 359 L478 359 L434 0 L325 0 Z M731 739 Q756 739 773.5 721 Q791 703 791 679 Q791 655 773.5 638 Q756 621 733 621 Q710 621 692.5 639 Q675 657 675 681 Q675 705 691.5 722 Q708 739 731 739 Z M593 0 L650 460 L757 460 L701 0 L593 0 Z " />
<glyph glyph-name="ffl" unicode="&#xfb04;" horiz-adv-x="808" d="M51 0 L95 359 L25 359 L37 460 L107 460 L132 666 Q138 712 149.5 741 Q161 770 180 789 Q197 806 223 815.5 Q249 825 276 825 Q297 825 317.5 819.5 Q338 814 367 800 L356 705 Q339 719 327 724.5 Q315 730 299 730 Q270 730 256.5 709.5 Q243 689 236 635 L215 460 L276 460 L263 359 L202 359 L158 0 L51 0 Z M325 0 L370 359 L310 359 L322 460 L382 460 L408 666 Q413 712 424 740.5 Q435 769 455 789 Q472 806 497.5 815.5 Q523 825 551 825 Q572 825 592 819.5 Q612 814 642 800 L631 705 Q614 719 601.5 724.5 Q589 730 575 730 Q546 730 532.5 709.5 Q519 689 512 635 L490 460 L588 460 L575 359 L478 359 L434 0 L325 0 Z M593 0 L695 824 L802 824 L701 0 L593 0 Z " />
<glyph glyph-name="fi" unicode="&#xfb01;" horiz-adv-x="533" d="M51 0 L95 359 L25 359 L37 460 L107 460 L132 666 Q138 712 149.5 741 Q161 770 180 789 Q197 806 223 815.5 Q249 825 276 825 Q297 825 317.5 819.5 Q338 814 367 800 L356 705 Q339 719 327 724.5 Q315 730 299 730 Q270 730 256.5 709.5 Q243 689 236 635 L215 460 L313 460 L301 359 L202 359 L158 0 L51 0 Z M457 739 Q481 739 498.5 721 Q516 703 516 679 Q516 655 499 638 Q482 621 459 621 Q435 621 417.5 639 Q400 657 400 681 Q400 705 417 722 Q434 739 457 739 Z M319 0 L375 460 L483 460 L426 0 L319 0 Z " />
<glyph glyph-name="fl" unicode="&#xfb02;" horiz-adv-x="533" d="M51 0 L95 359 L25 359 L37 460 L107 460 L132 666 Q138 712 149.5 741 Q161 770 180 789 Q197 806 223 815.5 Q249 825 276 825 Q297 825 317.5 819.5 Q338 814 367 800 L356 705 Q339 719 327 724.5 Q315 730 299 730 Q270 730 256.5 709.5 Q243 689 236 635 L215 460 L313 460 L301 359 L202 359 L158 0 L51 0 Z M319 0 L419 824 L528 824 L426 0 L319 0 Z " />
<glyph glyph-name="ordfeminine" unicode="&#xaa;" horiz-adv-x="384" d="M292 472 L292 490 Q268 476 251 471 Q234 466 212 466 Q153 466 115.5 504.5 Q78 543 78 603 Q78 672 121 716 Q164 760 232 760 Q261 760 282 752.5 Q303 745 322 728 L325 754 L408 754 L373 472 L292 472 Z M240 693 Q206 693 183 668.5 Q160 644 160 608 Q160 575 180 554 Q200 533 231 533 Q265 533 288.5 558.5 Q312 584 312 620 Q312 651 291.5 672 Q271 693 240 693 Z " />
<glyph glyph-name="ordmasculine" unicode="&#xba;" horiz-adv-x="384" d="M240 760 Q310 760 355 719 Q400 678 400 615 Q400 572 378.5 537 Q357 502 320 481.5 Q283 461 237 461 Q164 461 117.5 502.5 Q71 544 71 609 Q71 652 93 686.5 Q115 721 153.5 740.5 Q192 760 240 760 Z M237 693 Q201 693 177.5 670 Q154 647 154 611 Q154 575 177 552 Q200 529 236 529 Q273 529 295.5 553 Q318 577 318 616 Q318 650 295.5 671.5 Q273 693 237 693 Z " />
<glyph glyph-name="uni0410" unicode="&#x410;" horiz-adv-x="705" d="M-1 0 L416 807 L676 0 L559 0 L505 177 L212 177 L121 0 L-1 0 Z M392 541 L261 273 L473 273 L392 541 Z " />
<glyph glyph-name="uni0411" unicode="&#x411;" horiz-adv-x="605" d="M151 754 L567 754 L555 650 L250 650 L227 461 L343 461 Q404 461 452.5 436 Q501 411 529.5 362 Q558 313 558 243 Q558 161 524 106.5 Q490 52 433 26 Q376 0 306 0 L59 0 L151 754 Z M305 107 Q373 107 408 142 Q443 177 443 237 Q443 303 405.5 328.5 Q368 354 314 354 L214 354 L184 107 L305 107 Z " />
<glyph glyph-name="uni0412" unicode="&#x412;" horiz-adv-x="582" d="M290 754 Q352 754 389 742.5 Q426 731 454 704 Q480 678 495 640.5 Q510 603 510 563 Q510 504 483.5 462 Q457 420 400 389 Q469 372 501 331.5 Q533 291 533 223 Q533 160 505 107.5 Q477 55 428 28 Q398 12 362 6 Q326 0 258 0 L59 0 L151 754 L290 754 Z M254 424 Q295 424 321.5 432.5 Q348 441 364 460 Q380 478 389 504 Q398 530 398 558 Q398 605 371.5 627.5 Q345 650 288 650 L250 650 L223 424 L254 424 Z M258 104 Q304 104 329.5 108.5 Q355 113 373 124 Q396 140 408.5 168 Q421 196 421 231 Q421 286 388.5 310 Q356 334 279 334 L211 334 L183 104 L258 104 Z " />
<glyph glyph-name="uni0413" unicode="&#x413;" horiz-adv-x="526" d="M249 650 L170 0 L58 0 L150 754 L566 754 L554 650 L249 650 Z " />
<glyph glyph-name="uni0403" unicode="&#x403;" horiz-adv-x="526" d="M290 867 L467 1024 L555 956 L339 822 L290 867 Z M249 650 L170 0 L58 0 L150 754 L566 754 L554 650 L249 650 Z " />
<glyph glyph-name="uni0490" unicode="&#x490;" horiz-adv-x="526" d="M577 829 L555 650 L250 650 L171 0 L59 0 L151 754 L464 754 L473 829 L577 829 Z " />
<glyph glyph-name="uni0414" unicode="&#x414;" horiz-adv-x="729" d="M-5 107 Q27 105 63.5 131 Q100 157 119 195 Q141 237 178.5 404 Q216 571 243 754 L690 754 L611 107 L678 107 L646 -145 L542 -145 L560 0 L51 0 L33 -145 L-71 -145 L-41 107 L-5 107 Z M564 646 L337 646 Q326 573 306 472 Q286 371 268 299 Q254 244 241 213 Q228 182 209 159 Q190 136 157 107 L497 107 L564 646 Z " />
<glyph glyph-name="uni0415" unicode="&#x415;" horiz-adv-x="531" d="M250 650 L226 454 L503 454 L490 358 L215 358 L183 104 L460 104 L446 0 L59 0 L151 754 L539 754 L527 650 L250 650 Z " />
<glyph glyph-name="uni0400" unicode="&#x400;" horiz-adv-x="531" d="M419 857 L360 822 L238 957 L323 1010 L419 857 Z M250 650 L226 454 L503 454 L490 358 L215 358 L183 104 L460 104 L446 0 L59 0 L151 754 L539 754 L527 650 L250 650 Z " />
<glyph glyph-name="uni0401" unicode="&#x401;" horiz-adv-x="531" d="M261 967 Q288 967 307.5 948 Q327 929 327 902 Q327 877 308 858.5 Q289 840 263 840 Q237 840 219 859 Q201 878 201 905 Q201 932 218 949.5 Q235 967 261 967 Z M459 967 Q485 967 503.5 948 Q522 929 522 902 Q522 877 504.5 858.5 Q487 840 462 840 Q436 840 417.5 859 Q399 878 399 905 Q399 932 416 949.5 Q433 967 459 967 Z M250 650 L226 454 L503 454 L490 358 L215 358 L183 104 L460 104 L446 0 L59 0 L151 754 L539 754 L527 650 L250 650 Z " />
<glyph glyph-name="uni0416" unicode="&#x416;" horiz-adv-x="1009" d="M424 337 L114 0 L-29 0 L330 386 L87 754 L220 754 L427 437 L471 437 L510 754 L621 754 L583 437 L627 437 L911 754 L1045 754 L711 386 L975 0 L833 0 L606 337 L571 337 L529 0 L417 0 L459 337 L424 337 Z " />
<glyph glyph-name="uni0417" unicode="&#x417;" horiz-adv-x="608" d="M423 393 Q560 338 560 225 Q560 109 475.5 47 Q391 -15 244 -15 Q177 -15 114.5 -3 Q52 9 11 32 L28 150 Q113 90 246 90 Q352 90 400 124.5 Q448 159 448 224 Q448 280 394 313 Q340 346 219 346 L188 346 L200 441 L258 441 Q351 441 409.5 466.5 Q468 492 468 558 Q468 607 428 635 Q388 663 317 663 Q255 663 208.5 654 Q162 645 104 621 L118 737 Q203 768 325 768 Q404 768 461.5 743 Q519 718 549 673.5 Q579 629 579 572 Q579 507 539.5 460 Q500 413 423 393 Z " />
<glyph glyph-name="uni0418" unicode="&#x418;" horiz-adv-x="776" d="M261 754 L197 234 L751 799 L653 0 L544 0 L607 513 L52 -51 L150 754 L261 754 Z " />
<glyph glyph-name="uni0419" unicode="&#x419;" horiz-adv-x="776" d="M455 825 Q389 825 351 862 Q313 899 313 962 Q313 975 314 982 L395 982 Q394 944 411.5 923.5 Q429 903 463 903 Q531 903 555 982 L635 982 Q619 909 571 867 Q523 825 455 825 Z M261 754 L197 234 L751 799 L653 0 L544 0 L607 513 L52 -51 L150 754 L261 754 Z " />
<glyph glyph-name="uni040D" unicode="&#x40d;" horiz-adv-x="776" d="M514 857 L455 822 L333 957 L418 1010 L514 857 Z M261 754 L197 234 L751 799 L653 0 L544 0 L607 513 L52 -51 L150 754 L261 754 Z " />
<glyph glyph-name="uni041A" unicode="&#x41a;" horiz-adv-x="673" d="M528 754 L669 754 L318 403 L634 0 L499 0 L216 367 L171 0 L59 0 L151 754 L263 754 L224 434 L528 754 Z " />
<glyph glyph-name="uni040C" unicode="&#x40c;" horiz-adv-x="673" d="M344 867 L519 1024 L608 956 L392 822 L344 867 Z M528 754 L669 754 L318 403 L634 0 L499 0 L216 367 L171 0 L59 0 L151 754 L263 754 L224 434 L528 754 Z " />
<glyph glyph-name="uni041B" unicode="&#x41b;" horiz-adv-x="699" d="M575 0 L463 0 L542 647 L322 647 Q297 496 277.5 404 Q258 312 237 241 Q199 114 141.5 56 Q84 -2 -3 -2 Q-24 -2 -42 0 L-28 108 Q-8 105 -1 105 Q34 105 62.5 130.5 Q91 156 111 205 Q136 265 167.5 413.5 Q199 562 228 754 L668 754 L575 0 Z " />
<glyph glyph-name="uni041C" unicode="&#x41c;" horiz-adv-x="958" d="M774 0 L740 480 L448 -53 L287 480 L136 0 L22 0 L283 807 L473 191 L818 824 L880 0 L774 0 Z " />
<glyph glyph-name="uni041D" unicode="&#x41d;" horiz-adv-x="715" d="M481 0 L527 367 L216 367 L171 0 L59 0 L151 754 L263 754 L227 458 L538 458 L574 754 L686 754 L593 0 L481 0 Z " />
<glyph glyph-name="uni041E" unicode="&#x41e;" horiz-adv-x="886" d="M466 768 Q580 768 668 721 Q756 674 804 589 Q852 504 852 392 Q852 277 799.5 184 Q747 91 655 38 Q563 -15 449 -15 Q337 -15 250 34.5 Q163 84 114.5 172.5 Q66 261 66 374 Q66 486 118 576 Q170 666 261 717 Q352 768 466 768 Z M469 663 Q387 663 320.5 625 Q254 587 215.5 521 Q177 455 177 373 Q177 293 212.5 228 Q248 163 310.5 126.5 Q373 90 451 90 Q532 90 598 129.5 Q664 169 701.5 238 Q739 307 739 392 Q739 474 706 535 Q673 596 612 629.5 Q551 663 469 663 Z " />
<glyph glyph-name="uni041F" unicode="&#x41f;" horiz-adv-x="762" d="M733 754 L640 0 L528 0 L608 647 L250 647 L171 0 L59 0 L151 754 L733 754 Z " />
<glyph glyph-name="uni0420" unicode="&#x420;" horiz-adv-x="557" d="M304 754 Q356 754 392.5 746 Q429 738 457 721 Q499 694 523.5 645.5 Q548 597 548 539 Q548 493 533 451.5 Q518 410 489 380 Q455 342 406.5 323.5 Q358 305 290 305 L208 305 L171 0 L59 0 L151 754 L304 754 Z M293 403 Q363 403 398 438 Q415 456 425.5 484 Q436 512 436 541 Q436 571 423.5 595 Q411 619 389 633 Q360 650 298 650 L250 650 L220 403 L293 403 Z " />
<glyph glyph-name="uni0421" unicode="&#x421;" horiz-adv-x="689" d="M679 564 Q580 663 445 663 Q366 663 305.5 625 Q245 587 211 517.5 Q177 448 177 359 Q177 231 248.5 160.5 Q320 90 449 90 Q508 90 551.5 105 Q595 120 640 156 L623 24 Q565 2 521.5 -6.5 Q478 -15 429 -15 Q321 -15 238.5 32.5 Q156 80 111 166 Q66 252 66 364 Q66 479 114.5 571 Q163 663 248.5 715.5 Q334 768 440 768 Q509 768 567.5 749.5 Q626 731 694 686 L679 564 Z " />
<glyph glyph-name="uni0422" unicode="&#x422;" horiz-adv-x="479" d="M156 0 L235 650 L55 650 L68 754 L532 754 L520 650 L347 650 L267 0 L156 0 Z " />
<glyph glyph-name="uni0423" unicode="&#x423;" horiz-adv-x="610" d="M664 754 L153 0 L25 0 L240 313 L55 754 L178 754 L311 412 L533 754 L664 754 Z " />
<glyph glyph-name="uni040E" unicode="&#x40e;" horiz-adv-x="610" d="M375 825 Q309 825 271 862 Q233 899 233 962 Q233 975 234 982 L315 982 Q314 944 331.5 923.5 Q349 903 383 903 Q451 903 475 982 L555 982 Q539 909 491 867 Q443 825 375 825 Z M664 754 L153 0 L25 0 L240 313 L55 754 L178 754 L311 412 L533 754 L664 754 Z " />
<glyph glyph-name="uni0424" unicode="&#x424;" horiz-adv-x="956" d="M940 395 Q940 292 887.5 210 Q835 128 737.5 81 Q640 34 508 34 L496 -61 L386 -61 L398 39 Q290 52 211.5 96 Q133 140 91.5 208 Q50 276 50 360 Q50 462 102 543 Q154 624 251.5 670 Q349 716 479 716 L481 716 L493 814 L603 814 L591 712 Q702 699 780.5 656 Q859 613 899.5 546 Q940 479 940 395 Z M162 364 Q162 268 227.5 210 Q293 152 414 140 L471 615 Q375 613 305.5 581 Q236 549 199 493 Q162 437 162 364 Z M517 136 Q665 138 746.5 206.5 Q828 275 828 395 Q828 489 764.5 544.5 Q701 600 575 611 L517 136 Z " />
<glyph glyph-name="uni0425" unicode="&#x425;" horiz-adv-x="611" d="M455 0 L315 299 L107 0 L-24 0 L262 403 L97 754 L216 754 L332 495 L508 754 L640 754 L385 392 L573 0 L455 0 Z " />
<glyph glyph-name="uni0427" unicode="&#x427;" horiz-adv-x="680" d="M651 754 L558 0 L446 0 L476 249 Q405 229 332 229 Q208 229 140.5 293 Q73 357 73 481 Q73 515 77 544 L103 754 L215 754 L190 550 Q185 507 185 480 Q185 399 223 363.5 Q261 328 354 328 Q386 328 416.5 332.5 Q447 337 489 347 L539 754 L651 754 Z " />
<glyph glyph-name="uni0426" unicode="&#x426;" horiz-adv-x="759" d="M263 754 L182 107 L530 107 L609 754 L721 754 L641 107 L708 107 L677 -145 L573 -145 L590 0 L59 0 L151 754 L263 754 Z " />
<glyph glyph-name="uni0428" unicode="&#x428;" horiz-adv-x="1049" d="M263 754 L182 107 L450 107 L529 754 L641 754 L562 107 L829 107 L908 754 L1020 754 L927 0 L59 0 L151 754 L263 754 Z " />
<glyph glyph-name="uni0429" unicode="&#x429;" horiz-adv-x="1057" d="M940 107 L1005 107 L975 -145 L871 -145 L889 0 L59 0 L151 754 L263 754 L182 107 L450 107 L529 754 L641 754 L562 107 L829 107 L908 754 L1020 754 L940 107 Z " />
<glyph glyph-name="uni040F" unicode="&#x40f;" horiz-adv-x="749" d="M263 754 L182 107 L529 107 L608 754 L720 754 L628 0 L395 0 L377 -145 L273 -145 L291 0 L59 0 L151 754 L263 754 Z " />
<glyph glyph-name="uni042C" unicode="&#x42c;" horiz-adv-x="604" d="M343 461 Q404 461 452.5 436 Q501 411 529.5 362 Q558 313 558 243 Q558 161 524 106.5 Q490 52 433 26 Q376 0 306 0 L59 0 L151 754 L263 754 L227 461 L343 461 Z M305 107 Q373 107 408 142 Q443 177 443 237 Q443 303 405.5 328.5 Q368 354 314 354 L214 354 L184 107 L305 107 Z " />
<glyph glyph-name="uni042A" unicode="&#x42a;" horiz-adv-x="730" d="M264 646 L52 646 L66 754 L389 754 L353 461 L469 461 Q530 461 578.5 436 Q627 411 655.5 362 Q684 313 684 243 Q684 161 650 106.5 Q616 52 559 26 Q502 0 432 0 L185 0 L264 646 Z M431 107 Q499 107 534 142 Q569 177 569 237 Q569 303 531.5 328.5 Q494 354 440 354 L340 354 L310 107 L431 107 Z " />
<glyph glyph-name="uni042B" unicode="&#x42b;" horiz-adv-x="866" d="M343 461 Q404 461 452.5 436 Q501 411 529.5 362 Q558 313 558 243 Q558 161 524 106.5 Q490 52 433 26 Q376 0 306 0 L59 0 L151 754 L263 754 L227 461 L343 461 Z M837 754 L745 0 L633 0 L725 754 L837 754 Z M305 107 Q373 107 408 142 Q443 177 443 237 Q443 303 405.5 328.5 Q368 354 314 354 L214 354 L184 107 L305 107 Z " />
<glyph glyph-name="uni0409" unicode="&#x409;" horiz-adv-x="1009" d="M-3 -2 Q-24 -2 -42 0 L-28 108 Q-8 105 -1 105 Q34 105 62.5 130.5 Q91 156 111 205 Q136 265 167.5 413.5 Q199 562 228 754 L667 754 L631 461 L747 461 Q808 461 856.5 436 Q905 411 933.5 362 Q962 313 962 243 Q962 161 928 106.5 Q894 52 837 26 Q780 0 710 0 L463 0 L542 647 L322 647 Q296 492 277 400.5 Q258 309 237 241 Q198 113 141 55.5 Q84 -2 -3 -2 Z M709 107 Q777 107 812 142 Q847 177 847 237 Q847 303 809.5 328.5 Q772 354 718 354 L618 354 L588 107 L709 107 Z " />
<glyph glyph-name="uni040A" unicode="&#x40a;" horiz-adv-x="1027" d="M151 754 L263 754 L227 458 L538 458 L574 754 L686 754 L650 461 L766 461 Q827 461 875.5 436 Q924 411 952.5 362 Q981 313 981 243 Q981 161 947 106.5 Q913 52 856 26 Q799 0 729 0 L482 0 L527 367 L216 367 L171 0 L59 0 L151 754 Z M728 107 Q796 107 831 142 Q866 177 866 237 Q866 303 828.5 328.5 Q791 354 737 354 L637 354 L607 107 L728 107 Z " />
<glyph glyph-name="uni0405" unicode="&#x405;" horiz-adv-x="558" d="M472 586 Q443 629 415.5 646.5 Q388 664 350 664 Q301 664 268 633 Q235 602 235 556 Q235 519 258 492.5 Q281 466 345 428 Q410 390 444.5 358.5 Q479 327 493 291.5 Q507 256 507 205 Q507 141 478 91 Q449 41 396.5 13 Q344 -15 276 -15 Q228 -15 182.5 0.5 Q137 16 104 43 Q83 60 67.5 80.5 Q52 101 31 139 L115 197 Q150 136 183.5 113 Q217 90 269 90 Q328 90 361.5 122 Q395 154 395 210 Q395 237 385 257 Q375 277 349.5 297.5 Q324 318 273 348 Q215 383 183 413 Q151 443 137 477.5 Q123 512 123 558 Q123 618 152 666.5 Q181 715 232 742.5 Q283 770 346 770 Q408 770 454 744.5 Q500 719 547 658 L472 586 Z " />
<glyph glyph-name="uni0404" unicode="&#x404;" horiz-adv-x="713" d="M433 -15 Q323 -15 240 32.5 Q157 80 111.5 165.5 Q66 251 66 364 Q66 479 115.5 571.5 Q165 664 253 716 Q341 768 454 768 Q528 768 587 749.5 Q646 731 715 686 L700 564 Q601 663 459 663 Q349 663 276.5 602 Q204 541 184 435 L561 435 L548 333 L178 333 Q186 217 257 153.5 Q328 90 453 90 Q529 90 576 104.5 Q623 119 669 156 L652 24 Q592 2 546 -6.5 Q500 -15 433 -15 Z " />
<glyph glyph-name="uni042D" unicode="&#x42d;" horiz-adv-x="727" d="M326 768 Q436 768 519 723 Q602 678 647.5 595 Q693 512 693 400 Q693 270 644 176.5 Q595 83 507.5 34 Q420 -15 305 -15 Q231 -15 172 3.5 Q113 22 44 67 L59 189 Q158 90 300 90 Q418 90 489 150 Q560 210 578 333 L192 333 L205 435 L580 435 Q569 549 499 606 Q429 663 306 663 Q234 663 188 648 Q142 633 96 597 L113 729 Q172 751 218 759.5 Q264 768 326 768 Z " />
<glyph glyph-name="uni0406" unicode="&#x406;" horiz-adv-x="293" d="M59 0 L151 754 L263 754 L171 0 L59 0 Z " />
<glyph glyph-name="uni0407" unicode="&#x407;" horiz-adv-x="293" d="M131 967 Q158 967 177.5 948 Q197 929 197 902 Q197 877 178 858.5 Q159 840 133 840 Q107 840 89 859 Q71 878 71 905 Q71 932 88 949.5 Q105 967 131 967 Z M308 967 Q335 967 353.5 948 Q372 929 372 902 Q372 877 354.5 858.5 Q337 840 312 840 Q286 840 267.5 859 Q249 878 249 905 Q249 932 266 949.5 Q283 967 308 967 Z M59 0 L151 754 L263 754 L171 0 L59 0 Z " />
<glyph glyph-name="uni0408" unicode="&#x408;" horiz-adv-x="426" d="M330 211 Q322 141 308 102 Q294 63 269 36 Q247 11 213.5 -2 Q180 -15 139 -15 Q93 -15 56.5 2.5 Q20 20 -17 58 L41 140 Q70 112 90.5 101 Q111 90 134 90 Q162 90 179 107.5 Q196 125 207 167.5 Q218 210 228 290 L285 754 L397 754 L330 211 Z " />
<glyph glyph-name="uni040B" unicode="&#x40b;" horiz-adv-x="761" d="M651 420 Q672 400 681.5 374.5 Q691 349 691 310 Q691 281 688 254 L657 0 L547 0 L575 229 Q577 244 577 270 Q577 313 547 335.5 Q517 358 458 358 Q355 358 269 268 L236 0 L125 0 L204 650 L55 650 L68 754 L536 754 L524 650 L316 650 L283 384 Q343 429 395.5 448.5 Q448 468 507 468 Q597 468 651 420 Z " />
<glyph glyph-name="uni042E" unicode="&#x42e;" horiz-adv-x="1184" d="M766 768 Q880 768 968 721 Q1056 674 1104 589 Q1152 504 1152 392 Q1152 277 1099.5 184 Q1047 91 955 38 Q863 -15 749 -15 Q644 -15 560 29 Q476 73 426 152.5 Q376 232 368 335 L212 335 L171 0 L59 0 L151 754 L263 754 L223 426 L369 426 Q381 525 435 603 Q489 681 575 724.5 Q661 768 766 768 Z M751 90 Q832 90 898 129.5 Q964 169 1001.5 238 Q1039 307 1039 392 Q1039 474 1006 535 Q973 596 912 629.5 Q851 663 769 663 Q687 663 620.5 625 Q554 587 515.5 521 Q477 455 477 373 Q477 293 512.5 228 Q548 163 610.5 126.5 Q673 90 751 90 Z " />
<glyph glyph-name="uni042F" unicode="&#x42f;" horiz-adv-x="618" d="M589 754 L497 0 L385 0 L423 308 L397 308 L137 0 L-2 0 L278 322 Q219 335 174 374 Q102 435 102 527 Q102 607 140 657.5 Q178 708 239 731 Q300 754 371 754 L589 754 Z M465 651 L366 651 Q299 651 256.5 621.5 Q214 592 214 521 Q214 470 257 438 Q300 406 380 406 L435 406 L465 651 Z " />
<glyph glyph-name="uni0402" unicode="&#x402;" horiz-adv-x="767" d="M58 646 L71 754 L545 754 L531 646 L321 646 L288 383 Q348 428 400.5 448 Q453 468 513 468 Q603 468 657 420 Q678 400 687.5 374.5 Q697 349 697 310 Q697 281 694 254 L635 -224 L525 -224 L581 229 Q583 244 583 270 Q583 313 553 335.5 Q523 358 464 358 Q361 358 275 268 L242 0 L127 0 L206 646 L58 646 Z " />
<glyph glyph-name="uni0492" unicode="&#x492;" horiz-adv-x="526" d="M249 650 L223 437 L409 437 L397 336 L211 336 L170 0 L58 0 L99 336 L31 336 L43 437 L111 437 L150 754 L566 754 L554 650 L249 650 Z " />
<glyph glyph-name="uni0496" unicode="&#x496;" horiz-adv-x="1009" d="M902 107 L973 107 L942 -145 L838 -145 L855 0 L833 0 L606 337 L571 337 L529 0 L417 0 L459 337 L424 337 L114 0 L-29 0 L330 386 L87 754 L220 754 L427 437 L471 437 L510 754 L621 754 L583 437 L627 437 L911 754 L1045 754 L711 386 L902 107 Z " />
<glyph glyph-name="uni049A" unicode="&#x49a;" horiz-adv-x="675" d="M550 107 L639 107 L608 -145 L504 -145 L521 0 L499 0 L216 367 L171 0 L59 0 L151 754 L263 754 L224 434 L528 754 L669 754 L318 403 L550 107 Z " />
<glyph glyph-name="uni049C" unicode="&#x49c;" horiz-adv-x="713" d="M441 388 L674 0 L539 0 L336 346 L311 139 L250 139 L273 330 L211 330 L171 0 L59 0 L151 754 L263 754 L224 431 L286 431 L308 616 L370 616 L346 423 L608 754 L749 754 L441 388 Z " />
<glyph glyph-name="uni04A2" unicode="&#x4a2;" horiz-adv-x="724" d="M555 0 L481 0 L527 367 L216 367 L171 0 L59 0 L151 754 L263 754 L227 458 L538 458 L574 754 L686 754 L606 107 L673 107 L642 -145 L538 -145 L555 0 Z " />
<glyph glyph-name="uni04AE" unicode="&#x4ae;" horiz-adv-x="583" d="M203 0 L246 345 L51 754 L171 754 L310 454 L507 754 L636 754 L357 338 L315 0 L203 0 Z " />
<glyph glyph-name="uni04B0" unicode="&#x4b0;" horiz-adv-x="583" d="M352 298 L483 298 L469 193 L339 193 L315 0 L203 0 L227 193 L101 193 L115 298 L240 298 L246 345 L51 754 L171 754 L310 454 L507 754 L636 754 L357 338 L352 298 Z " />
</font>
</svg>
