<?xml version="1.0" encoding="UTF-8"?>
<svg xmlns="http://www.w3.org/2000/svg" xmlns:xlink="http://www.w3.org/1999/xlink" version="1.2" >
<font id="ShellLightItalic">
<font-face  font-family="ShellLightItalic" units-per-em="1000" ascent="1050" descent="-300" font-style="normal" font-weight="400" font-stretch="normal" slope="-7" cap-height="754" x-height="452" underline-position="-85" underline-thickness="46" />
<missing-glyph  horiz-adv-x="283" d="" />
<glyph glyph-name="space" unicode="&#x20;" horiz-adv-x="283" d="" />
<glyph glyph-name="A" unicode="A" horiz-adv-x="666" d="M612 0 L563 0 L498 255 L183 255 L49 0 L-3 0 L410 788 L612 0 Z M207 299 L487 299 L393 660 L207 299 Z " />
<glyph glyph-name="Aacute" unicode="&#xc1;" horiz-adv-x="666" d="M373 828 L510 966 L553 927 L402 806 L373 828 Z M612 0 L563 0 L498 255 L183 255 L49 0 L-3 0 L410 788 L612 0 Z M207 299 L487 299 L393 660 L207 299 Z " />
<glyph glyph-name="Abreve" unicode="&#x102;" horiz-adv-x="666" d="M332 950 Q336 901 354.5 879.5 Q373 858 412 858 Q451 858 477 880 Q503 902 519 950 L565 950 Q552 887 509.5 849 Q467 811 408 811 Q350 811 318.5 846.5 Q287 882 285 950 L332 950 Z M612 0 L563 0 L498 255 L183 255 L49 0 L-3 0 L410 788 L612 0 Z M207 299 L487 299 L393 660 L207 299 Z " />
<glyph glyph-name="Acircumflex" unicode="&#xc2;" horiz-adv-x="666" d="M272 840 L431 966 L550 836 L518 806 L425 905 L299 806 L272 840 Z M612 0 L563 0 L498 255 L183 255 L49 0 L-3 0 L410 788 L612 0 Z M207 299 L487 299 L393 660 L207 299 Z " />
<glyph glyph-name="Adieresis" unicode="&#xc4;" horiz-adv-x="666" d="M508 913 Q523 913 532.5 903 Q542 893 542 878 Q542 859 530.5 846 Q519 833 502 833 Q488 833 478.5 843 Q469 853 469 869 Q469 887 480.5 900 Q492 913 508 913 Z M329 912 Q343 912 352.5 901.5 Q362 891 362 876 Q362 859 349.5 846 Q337 833 321 833 Q307 833 297 842.5 Q287 852 287 867 Q287 886 299.5 899 Q312 912 329 912 Z M612 0 L563 0 L498 255 L183 255 L49 0 L-3 0 L410 788 L612 0 Z M207 299 L487 299 L393 660 L207 299 Z " />
<glyph glyph-name="Agrave" unicode="&#xc0;" horiz-adv-x="666" d="M449 826 L419 806 L316 933 L364 966 L449 826 Z M612 0 L563 0 L498 255 L183 255 L49 0 L-3 0 L410 788 L612 0 Z M207 299 L487 299 L393 660 L207 299 Z " />
<glyph glyph-name="Amacron" unicode="&#x100;" horiz-adv-x="666" d="M568 853 L259 853 L264 897 L574 897 L568 853 Z M612 0 L563 0 L498 255 L183 255 L49 0 L-3 0 L410 788 L612 0 Z M207 299 L487 299 L393 660 L207 299 Z " />
<glyph glyph-name="Aogonek" unicode="&#x104;" horiz-adv-x="666" d="M612 0 Q552 -33 525 -60.5 Q498 -88 498 -116 Q498 -139 513 -152 Q528 -165 554 -165 Q572 -165 587 -160 Q602 -155 631 -139 L612 -185 Q589 -196 574 -200.5 Q559 -205 541 -205 Q502 -205 477 -182 Q452 -159 452 -122 Q452 -46 565 0 L498 255 L183 255 L49 0 L-3 0 L410 788 L612 0 Z M207 299 L487 299 L393 660 L207 299 Z " />
<glyph glyph-name="Aring" unicode="&#xc5;" horiz-adv-x="666" d="M419 976 Q453 976 478 951 Q503 926 503 892 Q503 856 478 831 Q453 806 418 806 Q382 806 357 831 Q332 856 332 892 Q332 927 357.5 951.5 Q383 976 419 976 Z M418 937 Q399 937 385.5 923.5 Q372 910 372 892 Q372 872 385.5 858.5 Q399 845 418 845 Q437 845 450 858.5 Q463 872 463 892 Q463 910 450 923.5 Q437 937 418 937 Z M612 0 L563 0 L498 255 L183 255 L49 0 L-3 0 L410 788 L612 0 Z M207 299 L487 299 L393 660 L207 299 Z " />
<glyph glyph-name="Aringacute" unicode="&#x1fa;" horiz-adv-x="666" d="M292 971 L427 1107 L471 1069 L320 948 L292 971 Z M419 976 Q453 976 478 951 Q503 926 503 892 Q503 856 478 831 Q453 806 418 806 Q382 806 357 831 Q332 856 332 892 Q332 927 357.5 951.5 Q383 976 419 976 Z M418 937 Q399 937 385.5 923.5 Q372 910 372 892 Q372 872 385.5 858.5 Q399 845 418 845 Q437 845 450 858.5 Q463 872 463 892 Q463 910 450 923.5 Q437 937 418 937 Z M612 0 L563 0 L498 255 L183 255 L49 0 L-3 0 L410 788 L612 0 Z M207 299 L487 299 L393 660 L207 299 Z " />
<glyph glyph-name="Atilde" unicode="&#xc3;" horiz-adv-x="666" d="M591 912 Q554 835 486 835 Q448 835 382 868 Q362 879 352.5 882 Q343 885 332 885 Q302 885 281 842 L237 853 Q254 892 277.5 910.5 Q301 929 333 929 Q353 929 367.5 924 Q382 919 431 896 Q468 879 487 879 Q525 879 547 923 L591 912 Z M612 0 L563 0 L498 255 L183 255 L49 0 L-3 0 L410 788 L612 0 Z M207 299 L487 299 L393 660 L207 299 Z " />
<glyph glyph-name="AE" unicode="&#xc6;" horiz-adv-x="954" d="M728 754 L737 710 L429 710 L501 435 L807 435 L817 391 L512 391 L601 44 L905 44 L916 0 L560 0 L495 252 L179 252 L46 0 L-10 0 L389 754 L728 754 Z M201 296 L486 296 L393 659 L201 296 Z " />
<glyph glyph-name="AEacute" unicode="&#x1fc;" horiz-adv-x="954" d="M449 828 L584 966 L628 927 L477 806 L449 828 Z M728 754 L737 710 L429 710 L501 435 L807 435 L817 391 L512 391 L601 44 L905 44 L916 0 L560 0 L495 252 L179 252 L46 0 L-10 0 L389 754 L728 754 Z M201 296 L486 296 L393 659 L201 296 Z " />
<glyph glyph-name="B" unicode="B" horiz-adv-x="610" d="M302 754 Q365 754 398.5 746 Q432 738 457 716 Q485 693 500 656.5 Q515 620 515 577 Q515 512 485 468.5 Q455 425 390 395 Q429 384 449.5 374.5 Q470 365 487 349 Q514 324 530 285.5 Q546 247 546 205 Q546 163 530.5 124.5 Q515 86 487 58 Q456 26 413 13 Q370 0 296 0 L80 0 L173 754 L302 754 Z M268 410 Q327 410 360 420 Q393 430 418 455 Q441 477 453.5 508.5 Q466 540 466 575 Q466 608 455.5 635 Q445 662 425 679 Q405 697 378.5 703.5 Q352 710 298 710 L216 710 L179 410 L268 410 Z M307 44 Q357 44 384 50.5 Q411 57 435 75 Q465 96 480.5 129 Q496 162 496 203 Q496 243 481.5 276.5 Q467 310 442 329 Q416 349 377 357.5 Q338 366 277 366 L173 366 L134 44 L307 44 Z " />
<glyph glyph-name="C" unicode="C" horiz-adv-x="757" d="M736 593 Q687 659 623.5 691 Q560 723 476 723 Q407 723 347 699 Q287 675 242 631 Q191 581 161 504.5 Q131 428 131 349 Q131 255 170 183 Q209 111 279.5 71 Q350 31 441 31 Q508 31 565 53 Q622 75 678 122 L670 56 Q609 18 556 1.5 Q503 -15 438 -15 Q335 -15 253.5 31.5 Q172 78 126.5 161 Q81 244 81 349 Q81 436 111.5 517 Q142 598 197 654 Q304 768 476 768 Q535 768 589.5 753 Q644 738 684 710 Q710 692 744 657 L736 593 Z " />
<glyph glyph-name="Cacute" unicode="&#x106;" horiz-adv-x="757" d="M440 828 L575 966 L619 927 L468 806 L440 828 Z M736 593 Q687 659 623.5 691 Q560 723 476 723 Q407 723 347 699 Q287 675 242 631 Q191 581 161 504.5 Q131 428 131 349 Q131 255 170 183 Q209 111 279.5 71 Q350 31 441 31 Q508 31 565 53 Q622 75 678 122 L670 56 Q609 18 556 1.5 Q503 -15 438 -15 Q335 -15 253.5 31.5 Q172 78 126.5 161 Q81 244 81 349 Q81 436 111.5 517 Q142 598 197 654 Q304 768 476 768 Q535 768 589.5 753 Q644 738 684 710 Q710 692 744 657 L736 593 Z " />
<glyph glyph-name="Ccaron" unicode="&#x10c;" horiz-adv-x="757" d="M651 933 L493 806 L373 936 L406 966 L498 867 L624 966 L651 933 Z M736 593 Q687 659 623.5 691 Q560 723 476 723 Q407 723 347 699 Q287 675 242 631 Q191 581 161 504.5 Q131 428 131 349 Q131 255 170 183 Q209 111 279.5 71 Q350 31 441 31 Q508 31 565 53 Q622 75 678 122 L670 56 Q609 18 556 1.5 Q503 -15 438 -15 Q335 -15 253.5 31.5 Q172 78 126.5 161 Q81 244 81 349 Q81 436 111.5 517 Q142 598 197 654 Q304 768 476 768 Q535 768 589.5 753 Q644 738 684 710 Q710 692 744 657 L736 593 Z " />
<glyph glyph-name="Ccedilla" unicode="&#xc7;" horiz-adv-x="757" d="M736 593 Q687 659 623.5 691 Q560 723 476 723 Q407 723 347 699 Q287 675 242 631 Q191 581 161 504.5 Q131 428 131 349 Q131 255 170 183 Q209 111 279.5 71 Q350 31 441 31 Q508 31 565 53 Q622 75 678 122 L670 56 Q609 18 556 1.5 Q503 -15 438 -15 Q335 -15 253.5 31.5 Q172 78 126.5 161 Q81 244 81 349 Q81 436 111.5 517 Q142 598 197 654 Q304 768 476 768 Q535 768 589.5 753 Q644 738 684 710 Q710 692 744 657 L736 593 Z M301 -202 L386 -53 L434 -80 L332 -223 L301 -202 Z " />
<glyph glyph-name="Ccircumflex" unicode="&#x108;" horiz-adv-x="757" d="M358 840 L516 966 L636 836 L603 806 L511 905 L385 806 L358 840 Z M736 593 Q687 659 623.5 691 Q560 723 476 723 Q407 723 347 699 Q287 675 242 631 Q191 581 161 504.5 Q131 428 131 349 Q131 255 170 183 Q209 111 279.5 71 Q350 31 441 31 Q508 31 565 53 Q622 75 678 122 L670 56 Q609 18 556 1.5 Q503 -15 438 -15 Q335 -15 253.5 31.5 Q172 78 126.5 161 Q81 244 81 349 Q81 436 111.5 517 Q142 598 197 654 Q304 768 476 768 Q535 768 589.5 753 Q644 738 684 710 Q710 692 744 657 L736 593 Z " />
<glyph glyph-name="Cdotaccent" unicode="&#x10a;" horiz-adv-x="757" d="M507 915 Q522 915 531.5 904.5 Q541 894 541 878 Q541 860 528 846.5 Q515 833 498 833 Q483 833 473 843 Q463 853 463 869 Q463 888 476.5 901.5 Q490 915 507 915 Z M736 593 Q687 659 623.5 691 Q560 723 476 723 Q407 723 347 699 Q287 675 242 631 Q191 581 161 504.5 Q131 428 131 349 Q131 255 170 183 Q209 111 279.5 71 Q350 31 441 31 Q508 31 565 53 Q622 75 678 122 L670 56 Q609 18 556 1.5 Q503 -15 438 -15 Q335 -15 253.5 31.5 Q172 78 126.5 161 Q81 244 81 349 Q81 436 111.5 517 Q142 598 197 654 Q304 768 476 768 Q535 768 589.5 753 Q644 738 684 710 Q710 692 744 657 L736 593 Z " />
<glyph glyph-name="D" unicode="D" horiz-adv-x="718" d="M323 754 Q409 754 461 739.5 Q513 725 554 689 Q607 643 637 569 Q667 495 667 411 Q667 320 631.5 236.5 Q596 153 533 94 Q477 41 411.5 20.5 Q346 0 236 0 L80 0 L173 754 L323 754 Z M240 44 Q339 44 400.5 65 Q462 86 511 137 Q561 189 589 261.5 Q617 334 617 412 Q617 487 592 550.5 Q567 614 522 654 Q488 685 443 697.5 Q398 710 322 710 L216 710 L134 44 L240 44 Z " />
<glyph glyph-name="Eth" unicode="&#xd0;" horiz-adv-x="718" d="M322 754 Q409 754 461 739.5 Q513 725 554 689 Q607 643 637 569 Q667 495 667 410 Q667 319 631.5 236 Q596 153 533 94 Q477 41 411 20.5 Q345 0 235 0 L79 0 L128 393 L49 393 L54 437 L133 437 L172 754 L322 754 Z M392 437 L386 393 L176 393 L133 44 L238 44 Q338 44 400 65 Q462 86 511 137 Q561 188 589 261 Q617 334 617 412 Q617 487 592 550.5 Q567 614 522 654 Q487 685 442.5 697.5 Q398 710 322 710 L215 710 L182 437 L392 437 Z " />
<glyph glyph-name="Dcaron" unicode="&#x10e;" horiz-adv-x="718" d="M539 933 L381 806 L261 936 L294 966 L386 867 L512 966 L539 933 Z M323 754 Q409 754 461 739.5 Q513 725 554 689 Q607 643 637 569 Q667 495 667 411 Q667 320 631.5 236.5 Q596 153 533 94 Q477 41 411.5 20.5 Q346 0 236 0 L80 0 L173 754 L323 754 Z M240 44 Q339 44 400.5 65 Q462 86 511 137 Q561 189 589 261.5 Q617 334 617 412 Q617 487 592 550.5 Q567 614 522 654 Q488 685 443 697.5 Q398 710 322 710 L216 710 L134 44 L240 44 Z " />
<glyph glyph-name="Dcroat" unicode="&#x110;" horiz-adv-x="718" d="M322 754 Q409 754 461 739.5 Q513 725 554 689 Q607 643 637 569 Q667 495 667 410 Q667 319 631.5 236 Q596 153 533 94 Q477 41 411 20.5 Q345 0 235 0 L79 0 L128 393 L49 393 L54 437 L133 437 L172 754 L322 754 Z M392 437 L386 393 L176 393 L133 44 L238 44 Q338 44 400 65 Q462 86 511 137 Q561 188 589 261 Q617 334 617 412 Q617 487 592 550.5 Q567 614 522 654 Q487 685 442.5 697.5 Q398 710 322 710 L215 710 L182 437 L392 437 Z " />
<glyph glyph-name="E" unicode="E" horiz-adv-x="516" d="M216 710 L182 435 L480 435 L475 391 L176 391 L134 44 L433 44 L427 0 L80 0 L173 754 L520 754 L514 710 L216 710 Z " />
<glyph glyph-name="Eacute" unicode="&#xc9;" horiz-adv-x="516" d="M310 828 L445 966 L489 927 L338 806 L310 828 Z M216 710 L182 435 L480 435 L475 391 L176 391 L134 44 L433 44 L427 0 L80 0 L173 754 L520 754 L514 710 L216 710 Z " />
<glyph glyph-name="Ebreve" unicode="&#x114;" horiz-adv-x="516" d="M276 950 Q278 901 297 879.5 Q316 858 355 858 Q395 858 420.5 880 Q446 902 461 950 L508 950 Q494 887 451.5 849 Q409 811 351 811 Q292 811 260.5 847 Q229 883 228 950 L276 950 Z M216 710 L182 435 L480 435 L475 391 L176 391 L134 44 L433 44 L427 0 L80 0 L173 754 L520 754 L514 710 L216 710 Z " />
<glyph glyph-name="Ecaron" unicode="&#x11a;" horiz-adv-x="516" d="M508 933 L350 806 L231 936 L263 966 L356 867 L481 966 L508 933 Z M216 710 L182 435 L480 435 L475 391 L176 391 L134 44 L433 44 L427 0 L80 0 L173 754 L520 754 L514 710 L216 710 Z " />
<glyph glyph-name="Ecircumflex" unicode="&#xca;" horiz-adv-x="516" d="M211 840 L370 966 L489 836 L457 806 L364 905 L238 806 L211 840 Z M216 710 L182 435 L480 435 L475 391 L176 391 L134 44 L433 44 L427 0 L80 0 L173 754 L520 754 L514 710 L216 710 Z " />
<glyph glyph-name="Edieresis" unicode="&#xcb;" horiz-adv-x="516" d="M450 913 Q464 913 474 903 Q484 893 484 878 Q484 859 472 846 Q460 833 443 833 Q429 833 419.5 843 Q410 853 410 869 Q410 887 422 900 Q434 913 450 913 Z M270 912 Q284 912 293.5 901.5 Q303 891 303 876 Q303 859 290.5 846 Q278 833 262 833 Q248 833 238 842.5 Q228 852 228 867 Q228 886 240.5 899 Q253 912 270 912 Z M216 710 L182 435 L480 435 L475 391 L176 391 L134 44 L433 44 L427 0 L80 0 L173 754 L520 754 L514 710 L216 710 Z " />
<glyph glyph-name="Edotaccent" unicode="&#x116;" horiz-adv-x="516" d="M362 915 Q376 915 385.5 904.5 Q395 894 395 878 Q395 860 382.5 846.5 Q370 833 353 833 Q337 833 327.5 843 Q318 853 318 869 Q318 888 331 901.5 Q344 915 362 915 Z M216 710 L182 435 L480 435 L475 391 L176 391 L134 44 L433 44 L427 0 L80 0 L173 754 L520 754 L514 710 L216 710 Z " />
<glyph glyph-name="Egrave" unicode="&#xc8;" horiz-adv-x="516" d="M403 826 L375 806 L271 933 L320 966 L403 826 Z M216 710 L182 435 L480 435 L475 391 L176 391 L134 44 L433 44 L427 0 L80 0 L173 754 L520 754 L514 710 L216 710 Z " />
<glyph glyph-name="Emacron" unicode="&#x112;" horiz-adv-x="516" d="M510 853 L200 853 L206 897 L514 897 L510 853 Z M216 710 L182 435 L480 435 L475 391 L176 391 L134 44 L433 44 L427 0 L80 0 L173 754 L520 754 L514 710 L216 710 Z " />
<glyph glyph-name="Eogonek" unicode="&#x118;" horiz-adv-x="516" d="M427 0 Q367 -33 339.5 -60.5 Q312 -88 312 -116 Q312 -139 326.5 -152 Q341 -165 367 -165 Q386 -165 402 -159.5 Q418 -154 444 -139 L427 -185 Q402 -197 387.5 -201 Q373 -205 356 -205 Q316 -205 291 -182 Q266 -159 266 -122 Q266 -47 379 0 L80 0 L173 754 L520 754 L514 710 L216 710 L182 435 L480 435 L475 391 L176 391 L134 44 L433 44 L427 0 Z " />
<glyph glyph-name="F" unicode="F" horiz-adv-x="472" d="M216 710 L182 435 L443 435 L438 391 L176 391 L129 0 L80 0 L173 754 L483 754 L477 710 L216 710 Z " />
<glyph glyph-name="G" unicode="G" horiz-adv-x="887" d="M833 363 Q822 286 802.5 234.5 Q783 183 746 134 Q691 63 612.5 24 Q534 -15 444 -15 Q366 -15 292.5 15.5 Q219 46 171 98 Q127 145 103.5 209.5 Q80 274 80 347 Q80 430 110.5 511 Q141 592 195 652 Q246 708 317.5 738 Q389 768 471 768 Q702 768 805 570 L765 545 Q745 585 727 608 Q709 631 683 653 Q641 686 585.5 704.5 Q530 723 471 723 Q373 723 295.5 674 Q218 625 174 538 Q130 451 130 342 Q130 252 169.5 181 Q209 110 279.5 70.5 Q350 31 440 31 Q524 31 597 67.5 Q670 104 716 169 Q739 202 753 235 Q767 268 780 319 L512 319 L518 363 L833 363 Z " />
<glyph glyph-name="Gbreve" unicode="&#x11e;" horiz-adv-x="887" d="M424 950 Q427 901 446 879.5 Q465 858 504 858 Q543 858 568.5 880 Q594 902 610 950 L657 950 Q644 887 601.5 849 Q559 811 499 811 Q441 811 409.5 846.5 Q378 882 376 950 L424 950 Z M833 363 Q822 286 802.5 234.5 Q783 183 746 134 Q691 63 612.5 24 Q534 -15 444 -15 Q366 -15 292.5 15.5 Q219 46 171 98 Q127 145 103.5 209.5 Q80 274 80 347 Q80 430 110.5 511 Q141 592 195 652 Q246 708 317.5 738 Q389 768 471 768 Q702 768 805 570 L765 545 Q745 585 727 608 Q709 631 683 653 Q641 686 585.5 704.5 Q530 723 471 723 Q373 723 295.5 674 Q218 625 174 538 Q130 451 130 342 Q130 252 169.5 181 Q209 110 279.5 70.5 Q350 31 440 31 Q524 31 597 67.5 Q670 104 716 169 Q739 202 753 235 Q767 268 780 319 L512 319 L518 363 L833 363 Z " />
<glyph glyph-name="Gcaron" unicode="&#x1e6;" horiz-adv-x="887" d="M657 933 L497 806 L377 936 L410 966 L503 867 L628 966 L657 933 Z M833 363 Q822 286 802.5 234.5 Q783 183 746 134 Q691 63 612.5 24 Q534 -15 444 -15 Q366 -15 292.5 15.5 Q219 46 171 98 Q127 145 103.5 209.5 Q80 274 80 347 Q80 430 110.5 511 Q141 592 195 652 Q246 708 317.5 738 Q389 768 471 768 Q702 768 805 570 L765 545 Q745 585 727 608 Q709 631 683 653 Q641 686 585.5 704.5 Q530 723 471 723 Q373 723 295.5 674 Q218 625 174 538 Q130 451 130 342 Q130 252 169.5 181 Q209 110 279.5 70.5 Q350 31 440 31 Q524 31 597 67.5 Q670 104 716 169 Q739 202 753 235 Q767 268 780 319 L512 319 L518 363 L833 363 Z " />
<glyph glyph-name="Gcircumflex" unicode="&#x11c;" horiz-adv-x="887" d="M363 840 L521 966 L641 836 L608 806 L515 905 L390 806 L363 840 Z M833 363 Q822 286 802.5 234.5 Q783 183 746 134 Q691 63 612.5 24 Q534 -15 444 -15 Q366 -15 292.5 15.5 Q219 46 171 98 Q127 145 103.5 209.5 Q80 274 80 347 Q80 430 110.5 511 Q141 592 195 652 Q246 708 317.5 738 Q389 768 471 768 Q702 768 805 570 L765 545 Q745 585 727 608 Q709 631 683 653 Q641 686 585.5 704.5 Q530 723 471 723 Q373 723 295.5 674 Q218 625 174 538 Q130 451 130 342 Q130 252 169.5 181 Q209 110 279.5 70.5 Q350 31 440 31 Q524 31 597 67.5 Q670 104 716 169 Q739 202 753 235 Q767 268 780 319 L512 319 L518 363 L833 363 Z " />
<glyph glyph-name="uni0122" unicode="&#x122;" horiz-adv-x="887" d="M833 363 Q822 286 802.5 234.5 Q783 183 746 134 Q691 63 612.5 24 Q534 -15 444 -15 Q366 -15 292.5 15.5 Q219 46 171 98 Q127 145 103.5 209.5 Q80 274 80 347 Q80 430 110.5 511 Q141 592 195 652 Q246 708 317.5 738 Q389 768 471 768 Q702 768 805 570 L765 545 Q745 585 727 608 Q709 631 683 653 Q641 686 585.5 704.5 Q530 723 471 723 Q373 723 295.5 674 Q218 625 174 538 Q130 451 130 342 Q130 252 169.5 181 Q209 110 279.5 70.5 Q350 31 440 31 Q524 31 597 67.5 Q670 104 716 169 Q739 202 753 235 Q767 268 780 319 L512 319 L518 363 L833 363 Z M354 -235 L323 -220 L410 -53 L462 -77 L354 -235 Z " />
<glyph glyph-name="Gdotaccent" unicode="&#x120;" horiz-adv-x="887" d="M512 915 Q526 915 536 904.5 Q546 894 546 878 Q546 860 533 846.5 Q520 833 503 833 Q488 833 477.5 843 Q467 853 467 869 Q467 888 480 901.5 Q493 915 512 915 Z M833 363 Q822 286 802.5 234.5 Q783 183 746 134 Q691 63 612.5 24 Q534 -15 444 -15 Q366 -15 292.5 15.5 Q219 46 171 98 Q127 145 103.5 209.5 Q80 274 80 347 Q80 430 110.5 511 Q141 592 195 652 Q246 708 317.5 738 Q389 768 471 768 Q702 768 805 570 L765 545 Q745 585 727 608 Q709 631 683 653 Q641 686 585.5 704.5 Q530 723 471 723 Q373 723 295.5 674 Q218 625 174 538 Q130 451 130 342 Q130 252 169.5 181 Q209 110 279.5 70.5 Q350 31 440 31 Q524 31 597 67.5 Q670 104 716 169 Q739 202 753 235 Q767 268 780 319 L512 319 L518 363 L833 363 Z " />
<glyph glyph-name="H" unicode="H" horiz-adv-x="747" d="M556 0 L605 393 L176 393 L129 0 L80 0 L173 754 L221 754 L182 437 L610 437 L649 754 L697 754 L605 0 L556 0 Z " />
<glyph glyph-name="Hbar" unicode="&#x126;" horiz-adv-x="747" d="M676 585 L605 0 L556 0 L605 393 L176 393 L128 0 L80 0 L151 585 L71 585 L77 629 L157 629 L173 754 L220 754 L206 629 L634 629 L649 754 L697 754 L681 629 L762 629 L757 585 L676 585 Z M610 437 L628 585 L200 585 L182 437 L610 437 Z " />
<glyph glyph-name="Hcircumflex" unicode="&#x124;" horiz-adv-x="747" d="M310 840 L468 966 L588 836 L556 806 L462 905 L337 806 L310 840 Z M556 0 L605 393 L176 393 L129 0 L80 0 L173 754 L221 754 L182 437 L610 437 L649 754 L697 754 L605 0 L556 0 Z " />
<glyph glyph-name="I" unicode="I" horiz-adv-x="271" d="M80 0 L173 754 L221 754 L129 0 L80 0 Z " />
<glyph glyph-name="IJ" unicode="&#x132;" horiz-adv-x="643" d="M80 0 L173 754 L221 754 L129 0 L80 0 Z M519 153 Q513 104 503.5 75.5 Q494 47 477 27 Q460 7 434 -4 Q408 -15 380 -15 Q338 -15 306.5 6.5 Q275 28 251 72 L288 98 Q308 61 328 46 Q348 31 379 31 Q420 31 441.5 61 Q463 91 471 158 L545 754 L593 754 L519 153 Z " />
<glyph glyph-name="Iacute" unicode="&#xcd;" horiz-adv-x="271" d="M166 828 L290 966 L332 929 L195 806 L166 828 Z M80 0 L173 754 L221 754 L129 0 L80 0 Z " />
<glyph glyph-name="Ibreve" unicode="&#x12c;" horiz-adv-x="271" d="M128 950 Q130 901 149 879.5 Q168 858 207 858 Q247 858 272.5 880 Q298 902 313 950 L360 950 Q348 887 305.5 849 Q263 811 203 811 Q145 811 113.5 846.5 Q82 882 80 950 L128 950 Z M80 0 L173 754 L221 754 L129 0 L80 0 Z " />
<glyph glyph-name="Icircumflex" unicode="&#xce;" horiz-adv-x="271" d="M82 837 L223 966 L323 834 L292 806 L217 905 L111 806 L82 837 Z M80 0 L173 754 L221 754 L129 0 L80 0 Z " />
<glyph glyph-name="Idieresis" unicode="&#xcf;" horiz-adv-x="271" d="M277 916 Q292 916 301.5 906.5 Q311 897 311 881 Q311 863 298.5 849.5 Q286 836 270 836 Q255 836 245.5 846 Q236 856 236 872 Q236 890 248 903 Q260 916 277 916 Z M156 915 Q170 915 179.5 904.5 Q189 894 189 879 Q189 862 176.5 849 Q164 836 148 836 Q134 836 124 846 Q114 856 114 870 Q114 889 126.5 902 Q139 915 156 915 Z M80 0 L173 754 L221 754 L129 0 L80 0 Z " />
<glyph glyph-name="Idot" unicode="&#x130;" horiz-adv-x="271" d="M216 915 Q230 915 240 904.5 Q250 894 250 878 Q250 860 237 846.5 Q224 833 207 833 Q191 833 181.5 843 Q172 853 172 869 Q172 888 185 901.5 Q198 915 216 915 Z M80 0 L173 754 L221 754 L129 0 L80 0 Z " />
<glyph glyph-name="Igrave" unicode="&#xcc;" horiz-adv-x="271" d="M219 826 L191 806 L97 938 L144 968 L219 826 Z M80 0 L173 754 L221 754 L129 0 L80 0 Z " />
<glyph glyph-name="Imacron" unicode="&#x12a;" horiz-adv-x="271" d="M310 853 L103 853 L108 897 L315 897 L310 853 Z M80 0 L173 754 L221 754 L129 0 L80 0 Z " />
<glyph glyph-name="Iogonek" unicode="&#x12e;" horiz-adv-x="271" d="M128 0 Q92 -26 72 -58.5 Q52 -91 52 -123 Q52 -164 93 -164 Q106 -164 116.5 -160 Q127 -156 156 -140 L139 -186 Q113 -203 79 -203 Q46 -203 26 -182.5 Q6 -162 6 -128 Q6 -92 25 -59 Q44 -26 79 0 L172 754 L220 754 L128 0 Z " />
<glyph glyph-name="Itilde" unicode="&#x128;" horiz-adv-x="271" d="M395 912 Q359 835 290 835 Q254 835 186 868 Q166 879 156.5 882 Q147 885 137 885 Q122 885 109.5 874.5 Q97 864 86 842 L42 853 Q74 929 138 929 Q159 929 173.5 924 Q188 919 235 896 Q274 879 293 879 Q310 879 325.5 890.5 Q341 902 351 923 L395 912 Z M80 0 L173 754 L220 754 L129 0 L80 0 Z " />
<glyph glyph-name="J" unicode="J" horiz-adv-x="375" d="M251 153 Q245 103 235.5 74.5 Q226 46 209 27 Q192 7 166 -4 Q140 -15 112 -15 Q70 -15 38.5 6.5 Q7 28 -17 72 L20 98 Q40 61 60 46 Q80 31 111 31 Q152 31 173.5 61 Q195 91 203 158 L277 754 L324 754 L251 153 Z " />
<glyph glyph-name="Jcircumflex" unicode="&#x134;" horiz-adv-x="375" d="M166 840 L324 966 L444 836 L411 806 L319 905 L193 806 L166 840 Z M251 153 Q245 103 235.5 74.5 Q226 46 209 27 Q192 7 166 -4 Q140 -15 112 -15 Q70 -15 38.5 6.5 Q7 28 -17 72 L20 98 Q40 61 60 46 Q80 31 111 31 Q152 31 173.5 61 Q195 91 203 158 L277 754 L324 754 L251 153 Z " />
<glyph glyph-name="K" unicode="K" horiz-adv-x="589" d="M221 754 L180 415 L554 754 L625 754 L220 393 L548 0 L485 0 L174 375 L129 0 L80 0 L173 754 L221 754 Z " />
<glyph glyph-name="uni0136" unicode="&#x136;" horiz-adv-x="589" d="M221 754 L180 415 L554 754 L625 754 L220 393 L548 0 L485 0 L174 375 L129 0 L80 0 L173 754 L221 754 Z M211 -235 L182 -220 L268 -53 L320 -77 L211 -235 Z " />
<glyph glyph-name="L" unicode="L" horiz-adv-x="431" d="M384 44 L379 0 L80 0 L173 754 L221 754 L134 44 L384 44 Z " />
<glyph glyph-name="Lacute" unicode="&#x139;" horiz-adv-x="431" d="M173 828 L308 966 L353 927 L201 806 L173 828 Z M384 44 L379 0 L80 0 L173 754 L221 754 L134 44 L384 44 Z " />
<glyph glyph-name="Lcaron" unicode="&#x13d;" horiz-adv-x="431" d="M306 579 L276 593 L363 765 L415 741 L306 579 Z M384 44 L379 0 L80 0 L173 754 L221 754 L134 44 L384 44 Z " />
<glyph glyph-name="uni013B" unicode="&#x13b;" horiz-adv-x="431" d="M384 44 L379 0 L80 0 L173 754 L221 754 L134 44 L384 44 Z M159 -235 L129 -220 L215 -53 L267 -77 L159 -235 Z " />
<glyph glyph-name="Ldot" unicode="&#x13f;" horiz-adv-x="431" d="M384 44 L379 0 L80 0 L173 754 L221 754 L134 44 L384 44 Z M368 438 Q390 438 404.5 423 Q419 408 419 385 Q419 363 403 347 Q387 331 365 331 Q344 331 329.5 346 Q315 361 315 383 Q315 407 330 422.5 Q345 438 368 438 Z " />
<glyph glyph-name="Lslash" unicode="&#x141;" horiz-adv-x="431" d="M319 508 L312 455 L173 360 L133 44 L384 44 L379 0 L80 0 L122 340 L34 280 L41 334 L129 394 L173 754 L220 754 L180 415 L319 508 Z " />
<glyph glyph-name="M" unicode="M" horiz-adv-x="1005" d="M492 106 L806 779 L957 0 L905 0 L788 632 L475 -33 L341 632 L46 0 L-8 0 L359 773 L492 106 Z " />
<glyph glyph-name="N" unicode="N" horiz-adv-x="849" d="M670 98 L750 754 L799 754 L703 -26 L209 657 L129 0 L80 0 L176 781 L670 98 Z " />
<glyph glyph-name="Nacute" unicode="&#x143;" horiz-adv-x="849" d="M447 828 L583 966 L627 927 L477 806 L447 828 Z M670 98 L750 754 L799 754 L703 -26 L209 657 L129 0 L80 0 L176 781 L670 98 Z " />
<glyph glyph-name="Ncaron" unicode="&#x147;" horiz-adv-x="849" d="M652 933 L494 806 L374 936 L407 966 L499 867 L625 966 L652 933 Z M670 98 L750 754 L799 754 L703 -26 L209 657 L129 0 L80 0 L176 781 L670 98 Z " />
<glyph glyph-name="uni0145" unicode="&#x145;" horiz-adv-x="849" d="M670 98 L750 754 L799 754 L703 -26 L209 657 L129 0 L80 0 L176 781 L670 98 Z M324 -235 L295 -220 L381 -53 L433 -77 L324 -235 Z " />
<glyph glyph-name="Eng" unicode="&#x14a;" horiz-adv-x="747" d="M206 627 Q228 657 245 674 Q262 691 285 709 Q363 764 458 764 Q508 764 552 746 Q596 728 624 697 Q668 650 668 559 Q668 517 662 469 L617 99 Q602 -26 557 -77 Q526 -114 482 -134.5 Q438 -155 389 -155 Q370 -155 356 -152 Q342 -149 321 -140 L327 -101 Q347 -108 358.5 -110.5 Q370 -113 384 -113 Q469 -113 511 -66 Q553 -19 567 88 L615 475 Q620 525 620 562 Q620 637 574.5 678.5 Q529 720 445 720 Q384 720 332.5 694 Q281 668 245 618 Q217 580 203 535.5 Q189 491 180 415 L129 0 L80 0 L173 754 L221 754 L206 627 Z " />
<glyph glyph-name="Ntilde" unicode="&#xd1;" horiz-adv-x="849" d="M685 912 Q647 835 579 835 Q541 835 475 868 Q454 879 445.5 882 Q437 885 426 885 Q396 885 374 842 L330 853 Q347 892 371 910.5 Q395 929 427 929 Q447 929 461.5 924 Q476 919 523 896 Q562 879 581 879 Q617 879 641 923 L685 912 Z M670 98 L750 754 L799 754 L703 -26 L209 657 L129 0 L80 0 L176 781 L670 98 Z " />
<glyph glyph-name="O" unicode="O" horiz-adv-x="888" d="M475 768 Q582 768 664 722 Q746 676 791 593 Q836 510 836 402 Q836 328 811.5 255 Q787 182 744 127 Q689 57 613 21 Q537 -15 445 -15 Q340 -15 256.5 31 Q173 77 126.5 158.5 Q80 240 80 344 Q80 463 131.5 560 Q183 657 273.5 712.5 Q364 768 475 768 Z M475 723 Q377 723 298 674.5 Q219 626 174.5 541.5 Q130 457 130 351 Q130 258 170 185 Q210 112 282 71.5 Q354 31 446 31 Q542 31 619.5 79.5 Q697 128 741.5 212.5 Q786 297 786 402 Q786 558 695 642 Q605 723 475 723 Z " />
<glyph glyph-name="Oacute" unicode="&#xd3;" horiz-adv-x="888" d="M455 828 L591 966 L635 927 L484 806 L455 828 Z M475 768 Q582 768 664 722 Q746 676 791 593 Q836 510 836 402 Q836 328 811.5 255 Q787 182 744 127 Q689 57 613 21 Q537 -15 445 -15 Q340 -15 256.5 31 Q173 77 126.5 158.5 Q80 240 80 344 Q80 463 131.5 560 Q183 657 273.5 712.5 Q364 768 475 768 Z M475 723 Q377 723 298 674.5 Q219 626 174.5 541.5 Q130 457 130 351 Q130 258 170 185 Q210 112 282 71.5 Q354 31 446 31 Q542 31 619.5 79.5 Q697 128 741.5 212.5 Q786 297 786 402 Q786 558 695 642 Q605 723 475 723 Z " />
<glyph glyph-name="Obreve" unicode="&#x14e;" horiz-adv-x="888" d="M409 950 Q411 901 430 879.5 Q449 858 488 858 Q528 858 553.5 880 Q579 902 594 950 L642 950 Q628 887 585.5 849 Q543 811 485 811 Q426 811 394.5 846.5 Q363 882 362 950 L409 950 Z M475 768 Q582 768 664 722 Q746 676 791 593 Q836 510 836 402 Q836 328 811.5 255 Q787 182 744 127 Q689 57 613 21 Q537 -15 445 -15 Q340 -15 256.5 31 Q173 77 126.5 158.5 Q80 240 80 344 Q80 463 131.5 560 Q183 657 273.5 712.5 Q364 768 475 768 Z M475 723 Q377 723 298 674.5 Q219 626 174.5 541.5 Q130 457 130 351 Q130 258 170 185 Q210 112 282 71.5 Q354 31 446 31 Q542 31 619.5 79.5 Q697 128 741.5 212.5 Q786 297 786 402 Q786 558 695 642 Q605 723 475 723 Z " />
<glyph glyph-name="Ocircumflex" unicode="&#xd4;" horiz-adv-x="888" d="M373 840 L531 966 L651 836 L618 806 L525 905 L400 806 L373 840 Z M475 768 Q582 768 664 722 Q746 676 791 593 Q836 510 836 402 Q836 328 811.5 255 Q787 182 744 127 Q689 57 613 21 Q537 -15 445 -15 Q340 -15 256.5 31 Q173 77 126.5 158.5 Q80 240 80 344 Q80 463 131.5 560 Q183 657 273.5 712.5 Q364 768 475 768 Z M475 723 Q377 723 298 674.5 Q219 626 174.5 541.5 Q130 457 130 351 Q130 258 170 185 Q210 112 282 71.5 Q354 31 446 31 Q542 31 619.5 79.5 Q697 128 741.5 212.5 Q786 297 786 402 Q786 558 695 642 Q605 723 475 723 Z " />
<glyph glyph-name="Odieresis" unicode="&#xd6;" horiz-adv-x="888" d="M608 913 Q622 913 632 903 Q642 893 642 878 Q642 859 630 846 Q618 833 601 833 Q587 833 577.5 843 Q568 853 568 869 Q568 887 580 900 Q592 913 608 913 Z M428 912 Q442 912 451.5 901.5 Q461 891 461 876 Q461 859 448.5 846 Q436 833 420 833 Q406 833 396 842.5 Q386 852 386 867 Q386 886 398.5 899 Q411 912 428 912 Z M475 768 Q582 768 664 722 Q746 676 791 593 Q836 510 836 402 Q836 328 811.5 255 Q787 182 744 127 Q689 57 613 21 Q537 -15 445 -15 Q340 -15 256.5 31 Q173 77 126.5 158.5 Q80 240 80 344 Q80 463 131.5 560 Q183 657 273.5 712.5 Q364 768 475 768 Z M475 723 Q377 723 298 674.5 Q219 626 174.5 541.5 Q130 457 130 351 Q130 258 170 185 Q210 112 282 71.5 Q354 31 446 31 Q542 31 619.5 79.5 Q697 128 741.5 212.5 Q786 297 786 402 Q786 558 695 642 Q605 723 475 723 Z " />
<glyph glyph-name="Ograve" unicode="&#xd2;" horiz-adv-x="888" d="M562 826 L533 806 L429 933 L478 966 L562 826 Z M475 768 Q582 768 664 722 Q746 676 791 593 Q836 510 836 402 Q836 328 811.5 255 Q787 182 744 127 Q689 57 613 21 Q537 -15 445 -15 Q340 -15 256.5 31 Q173 77 126.5 158.5 Q80 240 80 344 Q80 463 131.5 560 Q183 657 273.5 712.5 Q364 768 475 768 Z M475 723 Q377 723 298 674.5 Q219 626 174.5 541.5 Q130 457 130 351 Q130 258 170 185 Q210 112 282 71.5 Q354 31 446 31 Q542 31 619.5 79.5 Q697 128 741.5 212.5 Q786 297 786 402 Q786 558 695 642 Q605 723 475 723 Z " />
<glyph glyph-name="Ohorn" unicode="&#x1a0;" horiz-adv-x="888" d="M869 765 L774 621 Q836 531 836 407 Q836 287 785.5 190.5 Q735 94 645.5 39.5 Q556 -15 445 -15 Q340 -15 256.5 31 Q173 77 126.5 158.5 Q80 240 80 344 Q80 436 115 522 Q150 608 210 666 Q263 716 331 742 Q399 768 476 768 Q559 768 629.5 738.5 Q700 709 749 653 L817 789 L869 765 Z M475 723 Q377 723 298 674.5 Q219 626 174.5 541.5 Q130 457 130 351 Q130 258 170 185 Q210 112 282 71.5 Q354 31 446 31 Q542 31 619.5 79.5 Q697 128 741.5 212.5 Q786 297 786 402 Q786 558 695 642 Q605 723 475 723 Z " />
<glyph glyph-name="Ohungarumlaut" unicode="&#x150;" horiz-adv-x="888" d="M399 828 L534 966 L571 931 L424 806 L399 828 Z M541 828 L678 966 L714 931 L567 806 L541 828 Z M475 768 Q582 768 664 722 Q746 676 791 593 Q836 510 836 402 Q836 328 811.5 255 Q787 182 744 127 Q689 57 613 21 Q537 -15 445 -15 Q340 -15 256.5 31 Q173 77 126.5 158.5 Q80 240 80 344 Q80 463 131.5 560 Q183 657 273.5 712.5 Q364 768 475 768 Z M475 723 Q377 723 298 674.5 Q219 626 174.5 541.5 Q130 457 130 351 Q130 258 170 185 Q210 112 282 71.5 Q354 31 446 31 Q542 31 619.5 79.5 Q697 128 741.5 212.5 Q786 297 786 402 Q786 558 695 642 Q605 723 475 723 Z " />
<glyph glyph-name="Omacron" unicode="&#x14c;" horiz-adv-x="888" d="M669 853 L359 853 L365 897 L673 897 L669 853 Z M475 768 Q582 768 664 722 Q746 676 791 593 Q836 510 836 402 Q836 328 811.5 255 Q787 182 744 127 Q689 57 613 21 Q537 -15 445 -15 Q340 -15 256.5 31 Q173 77 126.5 158.5 Q80 240 80 344 Q80 463 131.5 560 Q183 657 273.5 712.5 Q364 768 475 768 Z M475 723 Q377 723 298 674.5 Q219 626 174.5 541.5 Q130 457 130 351 Q130 258 170 185 Q210 112 282 71.5 Q354 31 446 31 Q542 31 619.5 79.5 Q697 128 741.5 212.5 Q786 297 786 402 Q786 558 695 642 Q605 723 475 723 Z " />
<glyph glyph-name="Oslash" unicode="&#xd8;" horiz-adv-x="888" d="M62 40 L151 122 Q114 173 97 226 Q80 279 80 344 Q80 436 115 522 Q150 608 211 666 Q263 716 331 742 Q399 768 476 768 Q632 768 738 667 L825 748 L857 714 L767 633 Q836 538 836 406 Q836 287 785.5 190.5 Q735 94 645.5 39.5 Q556 -15 445 -15 Q287 -15 182 88 L93 7 L62 40 Z M702 636 Q612 723 476 723 Q378 723 299 674.5 Q220 626 175 541.5 Q130 457 130 351 Q130 292 144 244.5 Q158 197 189 154 L702 636 Z M219 119 Q264 76 322 53.5 Q380 31 447 31 Q543 31 620.5 79.5 Q698 128 742 213.5 Q786 299 786 405 Q786 465 772.5 513 Q759 561 730 602 L219 119 Z " />
<glyph glyph-name="Oslashacute" unicode="&#x1fe;" horiz-adv-x="888" d="M432 828 L567 966 L611 927 L460 806 L432 828 Z M62 40 L151 122 Q114 173 97 226 Q80 279 80 344 Q80 436 115 522 Q150 608 211 666 Q263 716 331 742 Q399 768 476 768 Q632 768 738 667 L825 748 L857 714 L767 633 Q836 538 836 406 Q836 287 785.5 190.5 Q735 94 645.5 39.5 Q556 -15 445 -15 Q287 -15 182 88 L93 7 L62 40 Z M702 636 Q612 723 476 723 Q378 723 299 674.5 Q220 626 175 541.5 Q130 457 130 351 Q130 292 144 244.5 Q158 197 189 154 L702 636 Z M219 119 Q264 76 322 53.5 Q380 31 447 31 Q543 31 620.5 79.5 Q698 128 742 213.5 Q786 299 786 405 Q786 465 772.5 513 Q759 561 730 602 L219 119 Z " />
<glyph glyph-name="Otilde" unicode="&#xd5;" horiz-adv-x="888" d="M699 912 Q679 873 653.5 854 Q628 835 593 835 Q555 835 489 868 Q470 879 460.5 882 Q451 885 441 885 Q410 885 389 842 L345 853 Q377 929 442 929 Q462 929 476.5 924 Q491 919 538 896 Q577 879 596 879 Q614 879 629 890.5 Q644 902 655 923 L699 912 Z M475 768 Q582 768 664 722 Q746 676 791 593 Q836 510 836 402 Q836 328 811.5 255 Q787 182 744 127 Q689 57 613 21 Q537 -15 445 -15 Q340 -15 256.5 31 Q173 77 126.5 158.5 Q80 240 80 344 Q80 463 131.5 560 Q183 657 273.5 712.5 Q364 768 475 768 Z M475 723 Q377 723 298 674.5 Q219 626 174.5 541.5 Q130 457 130 351 Q130 258 170 185 Q210 112 282 71.5 Q354 31 446 31 Q542 31 619.5 79.5 Q697 128 741.5 212.5 Q786 297 786 402 Q786 558 695 642 Q605 723 475 723 Z " />
<glyph glyph-name="OE" unicode="&#x152;" horiz-adv-x="1181" d="M881 710 L847 433 L1144 433 L1139 389 L842 389 L800 44 L1096 44 L1090 0 L746 0 L765 160 Q694 67 620 26 Q546 -15 446 -15 Q343 -15 259.5 32.5 Q176 80 128.5 163 Q81 246 81 349 Q81 432 113 515 Q145 598 198 654 Q251 710 322.5 740 Q394 770 476 770 Q541 770 599 751 Q657 732 703 696 Q739 668 761.5 636 Q784 604 812 542 L838 754 L1183 754 L1177 710 L881 710 Z M475 724 Q412 724 351 700 Q290 676 246 634 Q193 584 162 505 Q131 426 131 342 Q131 253 171.5 182 Q212 111 283.5 71 Q355 31 445 31 Q542 31 620.5 79 Q699 127 744 211 Q789 295 789 398 Q789 542 707 629 Q664 674 602.5 699 Q541 724 475 724 Z " />
<glyph glyph-name="P" unicode="P" horiz-adv-x="511" d="M289 754 Q350 754 388.5 742 Q427 730 455 704 Q506 653 506 574 Q506 515 479 465.5 Q452 416 406 391 Q381 377 338.5 369.5 Q296 362 241 362 L173 362 L129 0 L80 0 L173 754 L289 754 Z M250 406 Q300 406 331 411 Q362 416 383 429 Q418 451 437.5 488.5 Q457 526 457 571 Q457 638 415.5 674 Q374 710 298 710 L216 710 L179 406 L250 406 Z " />
<glyph glyph-name="Thorn" unicode="&#xde;" horiz-adv-x="519" d="M207 636 L276 636 Q336 636 375 624 Q414 612 442 586 Q467 562 480 528.5 Q493 495 493 457 Q493 399 465.5 349 Q438 299 392 275 Q341 245 227 245 L158 245 L129 0 L80 0 L173 754 L221 754 L207 636 Z M236 289 Q285 289 316.5 294.5 Q348 300 370 313 Q405 334 424 371 Q443 408 443 454 Q443 521 402 556.5 Q361 592 285 592 L201 592 L164 289 L236 289 Z " />
<glyph glyph-name="Q" unicode="Q" horiz-adv-x="886" d="M666 55 Q609 18 556 1 Q503 -16 443 -16 Q340 -16 257.5 31 Q175 78 128 161.5 Q81 245 81 349 Q81 439 115.5 524 Q150 609 210 669 Q260 717 327 742.5 Q394 768 473 768 Q579 768 661.5 722 Q744 676 789.5 593 Q835 510 835 403 Q835 218 702 85 L808 -31 L746 -31 L666 55 Z M671 116 Q724 165 754.5 240 Q785 315 785 400 Q785 529 720 610 Q677 664 611.5 693.5 Q546 723 469 723 Q373 723 296 674.5 Q219 626 175 540 Q131 454 131 348 Q131 255 170.5 182.5 Q210 110 281 69.5 Q352 29 442 29 Q495 29 539 42 Q583 55 636 87 L527 206 L586 206 L671 116 Z " />
<glyph glyph-name="R" unicode="R" horiz-adv-x="521" d="M410 0 L191 362 L173 362 L129 0 L80 0 L173 754 L267 754 Q314 754 347.5 745 Q381 736 409 716 Q442 693 459.5 656.5 Q477 620 477 576 Q477 527 455 480.5 Q433 434 397 406 Q368 385 334.5 375.5 Q301 366 242 362 L469 0 L410 0 Z M220 406 Q300 406 340 424 Q379 441 403 482 Q427 523 427 572 Q427 638 385.5 674 Q344 710 266 710 L216 710 L179 406 L220 406 Z " />
<glyph glyph-name="Racute" unicode="&#x154;" horiz-adv-x="521" d="M264 828 L400 966 L444 927 L293 806 L264 828 Z M410 0 L191 362 L173 362 L129 0 L80 0 L173 754 L267 754 Q314 754 347.5 745 Q381 736 409 716 Q442 693 459.5 656.5 Q477 620 477 576 Q477 527 455 480.5 Q433 434 397 406 Q368 385 334.5 375.5 Q301 366 242 362 L469 0 L410 0 Z M220 406 Q300 406 340 424 Q379 441 403 482 Q427 523 427 572 Q427 638 385.5 674 Q344 710 266 710 L216 710 L179 406 L220 406 Z " />
<glyph glyph-name="Rcaron" unicode="&#x158;" horiz-adv-x="521" d="M471 933 L313 806 L193 936 L226 966 L319 867 L444 966 L471 933 Z M410 0 L191 362 L173 362 L129 0 L80 0 L173 754 L267 754 Q314 754 347.5 745 Q381 736 409 716 Q442 693 459.5 656.5 Q477 620 477 576 Q477 527 455 480.5 Q433 434 397 406 Q368 385 334.5 375.5 Q301 366 242 362 L469 0 L410 0 Z M220 406 Q300 406 340 424 Q379 441 403 482 Q427 523 427 572 Q427 638 385.5 674 Q344 710 266 710 L216 710 L179 406 L220 406 Z " />
<glyph glyph-name="uni0156" unicode="&#x156;" horiz-adv-x="521" d="M410 0 L191 362 L173 362 L129 0 L80 0 L173 754 L267 754 Q314 754 347.5 745 Q381 736 409 716 Q442 693 459.5 656.5 Q477 620 477 576 Q477 527 455 480.5 Q433 434 397 406 Q368 385 334.5 375.5 Q301 366 242 362 L469 0 L410 0 Z M220 406 Q300 406 340 424 Q379 441 403 482 Q427 523 427 572 Q427 638 385.5 674 Q344 710 266 710 L216 710 L179 406 L220 406 Z M182 -235 L151 -220 L237 -53 L289 -77 L182 -235 Z " />
<glyph glyph-name="S" unicode="S" horiz-adv-x="556" d="M477 609 Q454 670 420 697 Q386 724 333 724 Q270 724 228 684.5 Q186 645 186 585 Q186 537 213 503.5 Q240 470 315 424 Q367 392 391.5 373.5 Q416 355 434 336 Q484 277 484 201 Q484 141 455.5 91.5 Q427 42 377.5 13.5 Q328 -15 267 -15 Q221 -15 180.5 2.5 Q140 20 111 52 Q91 74 79.5 96 Q68 118 58 155 L101 171 Q111 137 120 119 Q129 101 144 85 Q166 59 198.5 45 Q231 31 268 31 Q315 31 353 53.5 Q391 76 412.5 116 Q434 156 434 206 Q434 241 421.5 268 Q409 295 379.5 321 Q350 347 296 381 Q234 419 200 449.5 Q166 480 151.5 512 Q137 544 137 585 Q137 639 162 681 Q187 723 232 746.5 Q277 770 334 770 Q399 770 442.5 738 Q486 706 516 636 L477 609 Z " />
<glyph glyph-name="Sacute" unicode="&#x15a;" horiz-adv-x="556" d="M298 828 L434 966 L478 927 L327 806 L298 828 Z M477 609 Q454 670 420 697 Q386 724 333 724 Q270 724 228 684.5 Q186 645 186 585 Q186 537 213 503.5 Q240 470 315 424 Q367 392 391.5 373.5 Q416 355 434 336 Q484 277 484 201 Q484 141 455.5 91.5 Q427 42 377.5 13.5 Q328 -15 267 -15 Q221 -15 180.5 2.5 Q140 20 111 52 Q91 74 79.5 96 Q68 118 58 155 L101 171 Q111 137 120 119 Q129 101 144 85 Q166 59 198.5 45 Q231 31 268 31 Q315 31 353 53.5 Q391 76 412.5 116 Q434 156 434 206 Q434 241 421.5 268 Q409 295 379.5 321 Q350 347 296 381 Q234 419 200 449.5 Q166 480 151.5 512 Q137 544 137 585 Q137 639 162 681 Q187 723 232 746.5 Q277 770 334 770 Q399 770 442.5 738 Q486 706 516 636 L477 609 Z " />
<glyph glyph-name="Scaron" unicode="&#x160;" horiz-adv-x="556" d="M505 933 L346 806 L227 936 L259 966 L353 867 L478 966 L505 933 Z M477 609 Q454 670 420 697 Q386 724 333 724 Q270 724 228 684.5 Q186 645 186 585 Q186 537 213 503.5 Q240 470 315 424 Q367 392 391.5 373.5 Q416 355 434 336 Q484 277 484 201 Q484 141 455.5 91.5 Q427 42 377.5 13.5 Q328 -15 267 -15 Q221 -15 180.5 2.5 Q140 20 111 52 Q91 74 79.5 96 Q68 118 58 155 L101 171 Q111 137 120 119 Q129 101 144 85 Q166 59 198.5 45 Q231 31 268 31 Q315 31 353 53.5 Q391 76 412.5 116 Q434 156 434 206 Q434 241 421.5 268 Q409 295 379.5 321 Q350 347 296 381 Q234 419 200 449.5 Q166 480 151.5 512 Q137 544 137 585 Q137 639 162 681 Q187 723 232 746.5 Q277 770 334 770 Q399 770 442.5 738 Q486 706 516 636 L477 609 Z " />
<glyph glyph-name="Scedilla" unicode="&#x15e;" horiz-adv-x="556" d="M477 609 Q454 670 420 697 Q386 724 333 724 Q270 724 228 684.5 Q186 645 186 585 Q186 537 213 503.5 Q240 470 315 424 Q367 392 391.5 373.5 Q416 355 434 336 Q484 277 484 201 Q484 141 455.5 91.5 Q427 42 377.5 13.5 Q328 -15 267 -15 Q221 -15 180.5 2.5 Q140 20 111 52 Q91 74 79.5 96 Q68 118 58 155 L101 171 Q111 137 120 119 Q129 101 144 85 Q166 59 198.5 45 Q231 31 268 31 Q315 31 353 53.5 Q391 76 412.5 116 Q434 156 434 206 Q434 241 421.5 268 Q409 295 379.5 321 Q350 347 296 381 Q234 419 200 449.5 Q166 480 151.5 512 Q137 544 137 585 Q137 639 162 681 Q187 723 232 746.5 Q277 770 334 770 Q399 770 442.5 738 Q486 706 516 636 L477 609 Z M160 -202 L245 -53 L293 -80 L192 -223 L160 -202 Z " />
<glyph glyph-name="Scircumflex" unicode="&#x15c;" horiz-adv-x="556" d="M216 840 L374 966 L494 836 L461 806 L368 905 L243 806 L216 840 Z M477 609 Q454 670 420 697 Q386 724 333 724 Q270 724 228 684.5 Q186 645 186 585 Q186 537 213 503.5 Q240 470 315 424 Q367 392 391.5 373.5 Q416 355 434 336 Q484 277 484 201 Q484 141 455.5 91.5 Q427 42 377.5 13.5 Q328 -15 267 -15 Q221 -15 180.5 2.5 Q140 20 111 52 Q91 74 79.5 96 Q68 118 58 155 L101 171 Q111 137 120 119 Q129 101 144 85 Q166 59 198.5 45 Q231 31 268 31 Q315 31 353 53.5 Q391 76 412.5 116 Q434 156 434 206 Q434 241 421.5 268 Q409 295 379.5 321 Q350 347 296 381 Q234 419 200 449.5 Q166 480 151.5 512 Q137 544 137 585 Q137 639 162 681 Q187 723 232 746.5 Q277 770 334 770 Q399 770 442.5 738 Q486 706 516 636 L477 609 Z " />
<glyph glyph-name="uni0218" unicode="&#x218;" horiz-adv-x="556" d="M477 609 Q454 670 420 697 Q386 724 333 724 Q270 724 228 684.5 Q186 645 186 585 Q186 537 213 503.5 Q240 470 315 424 Q367 392 391.5 373.5 Q416 355 434 336 Q484 277 484 201 Q484 141 455.5 91.5 Q427 42 377.5 13.5 Q328 -15 267 -15 Q221 -15 180.5 2.5 Q140 20 111 52 Q91 74 79.5 96 Q68 118 58 155 L101 171 Q111 137 120 119 Q129 101 144 85 Q166 59 198.5 45 Q231 31 268 31 Q315 31 353 53.5 Q391 76 412.5 116 Q434 156 434 206 Q434 241 421.5 268 Q409 295 379.5 321 Q350 347 296 381 Q234 419 200 449.5 Q166 480 151.5 512 Q137 544 137 585 Q137 639 162 681 Q187 723 232 746.5 Q277 770 334 770 Q399 770 442.5 738 Q486 706 516 636 L477 609 Z M181 -235 L151 -220 L237 -53 L289 -77 L181 -235 Z " />
<glyph glyph-name="uni1E9E" unicode="&#x1e9e;" horiz-adv-x="641" d="M405 412 Q477 385 529 334 Q581 283 581 201 Q581 139 553.5 90.5 Q526 42 475 15 Q424 -12 355 -12 Q267 -12 214 11 L221 66 Q269 34 360 34 Q442 34 486 79.5 Q530 125 530 201 Q530 275 482.5 318.5 Q435 362 339 393 L538 679 Q509 696 469.5 707.5 Q430 719 392 719 Q328 719 289 704 Q250 689 220 655 Q194 624 179 580 Q164 536 157 478 L98 -1 L50 -1 L111 499 Q118 557 134.5 601.5 Q151 646 181 681 Q215 723 264.5 744 Q314 765 383 765 Q445 765 502 745.5 Q559 726 603 696 L405 412 Z " />
<glyph glyph-name="uni018F" unicode="&#x18f;" horiz-adv-x="888" d="M475 768 Q582 768 664 722 Q746 676 791 593 Q836 510 836 402 Q836 328 811.5 255 Q787 182 744 127 Q689 57 613 21 Q537 -15 445 -15 Q340 -15 256.5 31 Q173 77 126.5 158.5 Q80 240 80 344 Q80 375 84 399 L786 399 L786 402 Q786 558 695 642 Q605 723 475 723 Q377 723 299 676 Q221 629 176 546 L133 565 Q185 660 274.5 714 Q364 768 475 768 Z M446 31 Q535 31 608 72.5 Q681 114 727 187.5 Q773 261 783 354 L130 354 L130 351 Q130 258 170 185 Q210 112 282 71.5 Q354 31 446 31 Z " />
<glyph glyph-name="T" unicode="T" horiz-adv-x="463" d="M177 0 L264 710 L69 710 L75 754 L511 754 L505 710 L313 710 L226 0 L177 0 Z " />
<glyph glyph-name="Tbar" unicode="&#x166;" horiz-adv-x="463" d="M286 488 L226 0 L177 0 L237 488 L82 488 L88 532 L243 532 L264 710 L69 710 L75 754 L511 754 L505 710 L313 710 L292 532 L442 532 L437 488 L286 488 Z " />
<glyph glyph-name="Tcaron" unicode="&#x164;" horiz-adv-x="463" d="M455 933 L297 806 L177 936 L210 966 L303 867 L428 966 L455 933 Z M177 0 L264 710 L69 710 L75 754 L511 754 L505 710 L313 710 L226 0 L177 0 Z " />
<glyph glyph-name="uni0162" unicode="&#x162;" horiz-adv-x="463" d="M177 0 L264 710 L69 710 L75 754 L511 754 L505 710 L313 710 L226 0 L177 0 Z M115 -235 L85 -220 L172 -53 L224 -77 L115 -235 Z " />
<glyph glyph-name="U" unicode="U" horiz-adv-x="732" d="M626 272 Q619 214 608.5 176 Q598 138 580 108 Q543 49 484.5 17 Q426 -15 354 -15 Q296 -15 241.5 5.5 Q187 26 151 61 Q103 112 103 198 Q103 220 107 252 L168 754 L217 754 L155 251 Q151 213 151 194 Q151 134 185 97 Q214 66 259 48.5 Q304 31 354 31 Q419 31 469 60.5 Q519 90 546 145 Q569 193 577 271 L637 754 L685 754 L626 272 Z " />
<glyph glyph-name="Uacute" unicode="&#xda;" horiz-adv-x="732" d="M384 828 L520 966 L564 927 L412 806 L384 828 Z M626 272 Q619 214 608.5 176 Q598 138 580 108 Q543 49 484.5 17 Q426 -15 354 -15 Q296 -15 241.5 5.5 Q187 26 151 61 Q103 112 103 198 Q103 220 107 252 L168 754 L217 754 L155 251 Q151 213 151 194 Q151 134 185 97 Q214 66 259 48.5 Q304 31 354 31 Q419 31 469 60.5 Q519 90 546 145 Q569 193 577 271 L637 754 L685 754 L626 272 Z " />
<glyph glyph-name="Ubreve" unicode="&#x16c;" horiz-adv-x="732" d="M348 950 Q352 901 370.5 879.5 Q389 858 428 858 Q467 858 492.5 880 Q518 902 534 950 L582 950 Q568 887 525.5 849 Q483 811 424 811 Q366 811 334.5 846.5 Q303 882 301 950 L348 950 Z M626 272 Q619 214 608.5 176 Q598 138 580 108 Q543 49 484.5 17 Q426 -15 354 -15 Q296 -15 241.5 5.5 Q187 26 151 61 Q103 112 103 198 Q103 220 107 252 L168 754 L217 754 L155 251 Q151 213 151 194 Q151 134 185 97 Q214 66 259 48.5 Q304 31 354 31 Q419 31 469 60.5 Q519 90 546 145 Q569 193 577 271 L637 754 L685 754 L626 272 Z " />
<glyph glyph-name="Ucircumflex" unicode="&#xdb;" horiz-adv-x="732" d="M298 840 L457 966 L576 836 L544 806 L451 905 L325 806 L298 840 Z M626 272 Q619 214 608.5 176 Q598 138 580 108 Q543 49 484.5 17 Q426 -15 354 -15 Q296 -15 241.5 5.5 Q187 26 151 61 Q103 112 103 198 Q103 220 107 252 L168 754 L217 754 L155 251 Q151 213 151 194 Q151 134 185 97 Q214 66 259 48.5 Q304 31 354 31 Q419 31 469 60.5 Q519 90 546 145 Q569 193 577 271 L637 754 L685 754 L626 272 Z " />
<glyph glyph-name="Udieresis" unicode="&#xdc;" horiz-adv-x="732" d="M534 913 Q549 913 558.5 903 Q568 893 568 878 Q568 859 556.5 846 Q545 833 528 833 Q513 833 504 843 Q495 853 495 869 Q495 887 506.5 900 Q518 913 534 913 Z M355 912 Q369 912 378.5 901.5 Q388 891 388 876 Q388 859 375.5 846 Q363 833 347 833 Q333 833 323 842.5 Q313 852 313 867 Q313 886 325.5 899 Q338 912 355 912 Z M626 272 Q619 214 608.5 176 Q598 138 580 108 Q543 49 484.5 17 Q426 -15 354 -15 Q296 -15 241.5 5.5 Q187 26 151 61 Q103 112 103 198 Q103 220 107 252 L168 754 L217 754 L155 251 Q151 213 151 194 Q151 134 185 97 Q214 66 259 48.5 Q304 31 354 31 Q419 31 469 60.5 Q519 90 546 145 Q569 193 577 271 L637 754 L685 754 L626 272 Z " />
<glyph glyph-name="Ugrave" unicode="&#xd9;" horiz-adv-x="732" d="M484 826 L455 806 L351 933 L399 966 L484 826 Z M626 272 Q619 214 608.5 176 Q598 138 580 108 Q543 49 484.5 17 Q426 -15 354 -15 Q296 -15 241.5 5.5 Q187 26 151 61 Q103 112 103 198 Q103 220 107 252 L168 754 L217 754 L155 251 Q151 213 151 194 Q151 134 185 97 Q214 66 259 48.5 Q304 31 354 31 Q419 31 469 60.5 Q519 90 546 145 Q569 193 577 271 L637 754 L685 754 L626 272 Z " />
<glyph glyph-name="Uhorn" unicode="&#x1af;" horiz-adv-x="732" d="M725 606 L695 620 L781 792 L833 768 L725 606 Z M626 272 Q619 214 608.5 176 Q598 138 580 108 Q543 49 484.5 17 Q426 -15 354 -15 Q296 -15 241.5 5.5 Q187 26 151 61 Q103 112 103 198 Q103 220 107 252 L168 754 L217 754 L155 251 Q151 213 151 194 Q151 134 185 97 Q214 66 259 48.5 Q304 31 354 31 Q419 31 469 60.5 Q519 90 546 145 Q569 193 577 271 L637 754 L685 754 L626 272 Z " />
<glyph glyph-name="Uhungarumlaut" unicode="&#x170;" horiz-adv-x="732" d="M328 828 L463 966 L499 931 L353 806 L328 828 Z M470 828 L607 966 L643 931 L496 806 L470 828 Z M626 272 Q619 214 608.5 176 Q598 138 580 108 Q543 49 484.5 17 Q426 -15 354 -15 Q296 -15 241.5 5.5 Q187 26 151 61 Q103 112 103 198 Q103 220 107 252 L168 754 L217 754 L155 251 Q151 213 151 194 Q151 134 185 97 Q214 66 259 48.5 Q304 31 354 31 Q419 31 469 60.5 Q519 90 546 145 Q569 193 577 271 L637 754 L685 754 L626 272 Z " />
<glyph glyph-name="Umacron" unicode="&#x16a;" horiz-adv-x="732" d="M594 853 L285 853 L290 897 L599 897 L594 853 Z M626 272 Q619 214 608.5 176 Q598 138 580 108 Q543 49 484.5 17 Q426 -15 354 -15 Q296 -15 241.5 5.5 Q187 26 151 61 Q103 112 103 198 Q103 220 107 252 L168 754 L217 754 L155 251 Q151 213 151 194 Q151 134 185 97 Q214 66 259 48.5 Q304 31 354 31 Q419 31 469 60.5 Q519 90 546 145 Q569 193 577 271 L637 754 L685 754 L626 272 Z " />
<glyph glyph-name="Uogonek" unicode="&#x172;" horiz-adv-x="732" d="M497 -177 Q474 -188 458.5 -192.5 Q443 -197 426 -197 Q387 -197 362 -174 Q337 -151 337 -114 Q337 -83 356 -57.5 Q375 -32 415 -9 Q385 -15 355 -15 Q296 -15 241.5 5.5 Q187 26 151 61 Q103 112 103 198 Q103 220 107 252 L168 754 L217 754 L155 251 Q151 213 151 194 Q151 134 185 97 Q214 66 259 48.5 Q304 31 354 31 Q419 31 469 60.5 Q519 90 546 145 Q569 193 577 271 L637 754 L685 754 L626 272 Q617 200 602.5 157 Q588 114 561 81.5 Q534 49 483 11 Q429 -30 406 -57.5 Q383 -85 383 -108 Q383 -131 397.5 -144 Q412 -157 438 -157 Q456 -157 472 -151.5 Q488 -146 514 -131 L497 -177 Z " />
<glyph glyph-name="Uring" unicode="&#x16e;" horiz-adv-x="732" d="M445 976 Q479 976 504 951 Q529 926 529 892 Q529 856 504 831 Q479 806 444 806 Q407 806 382.5 831 Q358 856 358 892 Q358 927 383.5 951.5 Q409 976 445 976 Z M444 937 Q425 937 411.5 923.5 Q398 910 398 892 Q398 872 411.5 858.5 Q425 845 444 845 Q463 845 476 858.5 Q489 872 489 892 Q489 910 476 923.5 Q463 937 444 937 Z M626 272 Q619 214 608.5 176 Q598 138 580 108 Q543 49 484.5 17 Q426 -15 354 -15 Q296 -15 241.5 5.5 Q187 26 151 61 Q103 112 103 198 Q103 220 107 252 L168 754 L217 754 L155 251 Q151 213 151 194 Q151 134 185 97 Q214 66 259 48.5 Q304 31 354 31 Q419 31 469 60.5 Q519 90 546 145 Q569 193 577 271 L637 754 L685 754 L626 272 Z " />
<glyph glyph-name="Utilde" unicode="&#x168;" horiz-adv-x="732" d="M615 912 Q578 835 510 835 Q472 835 406 868 Q385 879 376 882 Q367 885 356 885 Q327 885 305 842 L261 853 Q278 892 301.5 910.5 Q325 929 357 929 Q378 929 392.5 924 Q407 919 454 896 Q493 879 512 879 Q530 879 545 890.5 Q560 902 571 923 L615 912 Z M626 272 Q619 214 608.5 176 Q598 138 580 108 Q543 49 484.5 17 Q426 -15 354 -15 Q296 -15 241.5 5.5 Q187 26 151 61 Q103 112 103 198 Q103 220 107 252 L168 754 L217 754 L155 251 Q151 213 151 194 Q151 134 185 97 Q214 66 259 48.5 Q304 31 354 31 Q419 31 469 60.5 Q519 90 546 145 Q569 193 577 271 L637 754 L685 754 L626 272 Z " />
<glyph glyph-name="V" unicode="V" horiz-adv-x="582" d="M259 111 L567 754 L621 754 L241 -31 L89 754 L141 754 L259 111 Z " />
<glyph glyph-name="W" unicode="W" horiz-adv-x="1012" d="M259 127 L572 791 L706 127 L997 754 L1052 754 L688 -20 L554 638 L240 -27 L89 754 L139 754 L259 127 Z " />
<glyph glyph-name="Wacute" unicode="&#x1e82;" horiz-adv-x="1012" d="M506 828 L643 966 L686 927 L536 806 L506 828 Z M259 127 L572 791 L706 127 L997 754 L1052 754 L688 -20 L554 638 L240 -27 L89 754 L139 754 L259 127 Z " />
<glyph glyph-name="Wcircumflex" unicode="&#x174;" horiz-adv-x="1012" d="M432 840 L590 966 L710 836 L677 806 L584 905 L459 806 L432 840 Z M259 127 L572 791 L706 127 L997 754 L1052 754 L688 -20 L554 638 L240 -27 L89 754 L139 754 L259 127 Z " />
<glyph glyph-name="Wdieresis" unicode="&#x1e84;" horiz-adv-x="1012" d="M673 913 Q688 913 697.5 903 Q707 893 707 878 Q707 859 695.5 846 Q684 833 667 833 Q652 833 643 843 Q634 853 634 869 Q634 887 645.5 900 Q657 913 673 913 Z M495 912 Q508 912 517.5 901.5 Q527 891 527 876 Q527 859 514.5 846 Q502 833 487 833 Q473 833 463 842.5 Q453 852 453 867 Q453 886 465.5 899 Q478 912 495 912 Z M259 127 L572 791 L706 127 L997 754 L1052 754 L688 -20 L554 638 L240 -27 L89 754 L139 754 L259 127 Z " />
<glyph glyph-name="Wgrave" unicode="&#x1e80;" horiz-adv-x="1012" d="M636 826 L608 806 L504 933 L553 966 L636 826 Z M259 127 L572 791 L706 127 L997 754 L1052 754 L688 -20 L554 638 L240 -27 L89 754 L139 754 L259 127 Z " />
<glyph glyph-name="X" unicode="X" horiz-adv-x="545" d="M127 754 L180 754 L299 437 L506 754 L565 754 L319 388 L469 0 L414 0 L287 341 L68 0 L8 0 L267 388 L127 754 Z " />
<glyph glyph-name="Y" unicode="Y" horiz-adv-x="577" d="M82 754 L137 754 L298 388 L555 754 L618 754 L314 331 L273 0 L225 0 L268 341 L82 754 Z " />
<glyph glyph-name="Yacute" unicode="&#xdd;" horiz-adv-x="577" d="M310 828 L445 966 L489 927 L339 806 L310 828 Z M82 754 L137 754 L298 388 L555 754 L618 754 L314 331 L273 0 L225 0 L268 341 L82 754 Z " />
<glyph glyph-name="Ycircumflex" unicode="&#x176;" horiz-adv-x="577" d="M219 840 L379 966 L497 836 L466 806 L372 905 L247 806 L219 840 Z M82 754 L137 754 L298 388 L555 754 L618 754 L314 331 L273 0 L225 0 L268 341 L82 754 Z " />
<glyph glyph-name="Ydieresis" unicode="&#x178;" horiz-adv-x="577" d="M454 913 Q468 913 478 903 Q488 893 488 878 Q488 859 476 846 Q464 833 447 833 Q432 833 423 843 Q414 853 414 869 Q414 887 426 900 Q438 913 454 913 Z M275 912 Q288 912 297 901.5 Q306 891 306 876 Q306 859 294 846 Q282 833 267 833 Q252 833 242.5 842.5 Q233 852 233 867 Q233 886 245.5 899 Q258 912 275 912 Z M82 754 L137 754 L298 388 L555 754 L618 754 L314 331 L273 0 L225 0 L268 341 L82 754 Z " />
<glyph glyph-name="Ygrave" unicode="&#x1ef2;" horiz-adv-x="577" d="M416 826 L388 806 L284 933 L332 966 L416 826 Z M82 754 L137 754 L298 388 L555 754 L618 754 L314 331 L273 0 L225 0 L268 341 L82 754 Z " />
<glyph glyph-name="Z" unicode="Z" horiz-adv-x="636" d="M153 710 L158 754 L664 754 L106 44 L522 44 L516 0 L12 0 L572 710 L153 710 Z " />
<glyph glyph-name="Zacute" unicode="&#x179;" horiz-adv-x="636" d="M370 828 L506 966 L549 927 L399 806 L370 828 Z M153 710 L158 754 L664 754 L106 44 L522 44 L516 0 L12 0 L572 710 L153 710 Z " />
<glyph glyph-name="Zcaron" unicode="&#x17d;" horiz-adv-x="636" d="M581 933 L421 806 L302 936 L334 966 L427 867 L553 966 L581 933 Z M153 710 L158 754 L664 754 L106 44 L522 44 L516 0 L12 0 L572 710 L153 710 Z " />
<glyph glyph-name="Zdotaccent" unicode="&#x17b;" horiz-adv-x="636" d="M432 915 Q446 915 456 904.5 Q466 894 466 878 Q466 860 453 846.5 Q440 833 423 833 Q407 833 397.5 843 Q388 853 388 869 Q388 888 401 901.5 Q414 915 432 915 Z M153 710 L158 754 L664 754 L106 44 L522 44 L516 0 L12 0 L572 710 L153 710 Z " />
<glyph glyph-name="uni01C4" unicode="&#x1c4;" horiz-adv-x="1354" d="M1298 933 L1140 806 L1020 936 L1052 966 L1146 867 L1271 966 L1298 933 Z M323 754 Q409 754 461 739.5 Q513 725 554 689 Q607 643 637 569 Q667 495 667 411 Q667 320 631.5 236.5 Q596 153 533 94 Q477 41 411.5 20.5 Q346 0 236 0 L80 0 L173 754 L323 754 Z M871 710 L876 754 L1382 754 L824 44 L1240 44 L1234 0 L730 0 L1290 710 L871 710 Z M240 44 Q339 44 400.5 65 Q462 86 511 137 Q561 189 589 261.5 Q617 334 617 412 Q617 487 592 550.5 Q567 614 522 654 Q488 685 443 697.5 Q398 710 322 710 L216 710 L134 44 L240 44 Z " />
<glyph glyph-name="uni01C5" unicode="&#x1c5;" horiz-adv-x="1201" d="M323 754 Q409 754 461 739.5 Q513 725 554 689 Q607 643 637 569 Q667 495 667 411 Q667 320 631.5 236.5 Q596 153 533 94 Q477 41 411.5 20.5 Q346 0 236 0 L80 0 L173 754 L323 754 Z M240 44 Q339 44 400.5 65 Q462 86 511 137 Q561 189 589 261.5 Q617 334 617 412 Q617 487 592 550.5 Q567 614 522 654 Q488 685 443 697.5 Q398 710 322 710 L216 710 L134 44 L240 44 Z M1156 659 L1006 520 L896 660 L928 687 L1012 576 L1131 687 L1156 659 Z M805 411 L810 452 L1196 452 L810 41 L1135 41 L1129 0 L716 0 L1104 411 L805 411 Z " />
<glyph glyph-name="uni01C7" unicode="&#x1c7;" horiz-adv-x="807" d="M384 44 L379 0 L80 0 L173 754 L221 754 L134 44 L384 44 Z M683 153 Q677 104 667.5 75.5 Q658 47 641 27 Q624 7 598 -4 Q572 -15 544 -15 Q502 -15 470 6.5 Q438 28 415 72 L452 98 Q472 61 492 46 Q512 31 542 31 Q583 31 605 60.5 Q627 90 635 158 L709 754 L756 754 L683 153 Z " />
<glyph glyph-name="uni01C8" unicode="&#x1c8;" horiz-adv-x="649" d="M384 44 L379 0 L80 0 L173 754 L221 754 L134 44 L384 44 Z M595 667 Q608 667 615 659 Q622 651 622 637 Q622 622 611.5 610.5 Q601 599 588 599 Q575 599 567.5 608 Q560 617 560 631 Q560 646 570 656.5 Q580 667 595 667 Z M384 -276 Q361 -276 342 -269 L346 -227 Q366 -233 383 -233 Q426 -233 447.5 -204.5 Q469 -176 477 -110 L546 452 L590 452 L520 -119 Q512 -192 483 -231 Q448 -276 384 -276 Z " />
<glyph glyph-name="uni01CA" unicode="&#x1ca;" horiz-adv-x="1225" d="M670 98 L750 754 L799 754 L703 -26 L209 657 L129 0 L80 0 L176 781 L670 98 Z M1101 153 Q1095 104 1085.5 75.5 Q1076 47 1059 27 Q1042 7 1016 -4 Q990 -15 962 -15 Q920 -15 888 6.5 Q856 28 833 72 L870 98 Q889 61 909.5 46 Q930 31 959 31 Q1001 31 1023 60.5 Q1045 90 1053 158 L1127 754 L1174 754 L1101 153 Z " />
<glyph glyph-name="uni01CB" unicode="&#x1cb;" horiz-adv-x="1062" d="M670 98 L750 754 L799 754 L703 -26 L209 657 L129 0 L80 0 L176 781 L670 98 Z M1008 667 Q1021 667 1028 659 Q1035 651 1035 637 Q1035 622 1024.5 610.5 Q1014 599 1001 599 Q988 599 980.5 608 Q973 617 973 631 Q973 646 983 656.5 Q993 667 1008 667 Z M797 -276 Q774 -276 755 -269 L759 -227 Q779 -233 796 -233 Q839 -233 860.5 -204.5 Q882 -176 890 -110 L959 452 L1003 452 L933 -119 Q925 -192 896 -231 Q861 -276 797 -276 Z " />
<glyph glyph-name="uni01CD" unicode="&#x1cd;" horiz-adv-x="666" d="M570 933 L411 806 L292 936 L324 966 L417 867 L542 966 L570 933 Z M612 0 L563 0 L498 255 L183 255 L49 0 L-3 0 L410 788 L612 0 Z M207 299 L487 299 L393 660 L207 299 Z " />
<glyph glyph-name="uni01CF" unicode="&#x1cf;" horiz-adv-x="271" d="M359 933 L201 806 L81 936 L114 966 L207 867 L332 966 L359 933 Z M80 0 L173 754 L221 754 L129 0 L80 0 Z " />
<glyph glyph-name="uni01D1" unicode="&#x1d1;" horiz-adv-x="888" d="M633 933 L475 806 L355 936 L388 966 L480 867 L606 966 L633 933 Z M475 768 Q582 768 664 722 Q746 676 791 593 Q836 510 836 402 Q836 328 811.5 255 Q787 182 744 127 Q689 57 613 21 Q537 -15 445 -15 Q340 -15 256.5 31 Q173 77 126.5 158.5 Q80 240 80 344 Q80 463 131.5 560 Q183 657 273.5 712.5 Q364 768 475 768 Z M475 723 Q377 723 298 674.5 Q219 626 174.5 541.5 Q130 457 130 351 Q130 258 170 185 Q210 112 282 71.5 Q354 31 446 31 Q542 31 619.5 79.5 Q697 128 741.5 212.5 Q786 297 786 402 Q786 558 695 642 Q605 723 475 723 Z " />
<glyph glyph-name="uni01D3" unicode="&#x1d3;" horiz-adv-x="732" d="M596 933 L436 806 L316 936 L349 966 L442 867 L567 966 L596 933 Z M626 272 Q619 214 608.5 176 Q598 138 580 108 Q543 49 484.5 17 Q426 -15 354 -15 Q296 -15 241.5 5.5 Q187 26 151 61 Q103 112 103 198 Q103 220 107 252 L168 754 L217 754 L155 251 Q151 213 151 194 Q151 134 185 97 Q214 66 259 48.5 Q304 31 354 31 Q419 31 469 60.5 Q519 90 546 145 Q569 193 577 271 L637 754 L685 754 L626 272 Z " />
<glyph glyph-name="uni01F4" unicode="&#x1f4;" horiz-adv-x="887" d="M441 828 L576 966 L620 927 L469 806 L441 828 Z M833 363 Q822 286 802.5 234.5 Q783 183 746 134 Q691 63 612.5 24 Q534 -15 444 -15 Q366 -15 292.5 15.5 Q219 46 171 98 Q127 145 103.5 209.5 Q80 274 80 347 Q80 430 110.5 511 Q141 592 195 652 Q246 708 317.5 738 Q389 768 471 768 Q702 768 805 570 L765 545 Q745 585 727 608 Q709 631 683 653 Q641 686 585.5 704.5 Q530 723 471 723 Q373 723 295.5 674 Q218 625 174 538 Q130 451 130 342 Q130 252 169.5 181 Q209 110 279.5 70.5 Q350 31 440 31 Q524 31 597 67.5 Q670 104 716 169 Q739 202 753 235 Q767 268 780 319 L512 319 L518 363 L833 363 Z " />
<glyph glyph-name="uni0200" unicode="&#x200;" horiz-adv-x="666" d="M363 828 L338 806 L191 931 L227 966 L363 828 Z M506 828 L480 806 L334 931 L371 966 L506 828 Z M612 0 L563 0 L498 255 L183 255 L49 0 L-3 0 L410 788 L612 0 Z M207 299 L487 299 L393 660 L207 299 Z " />
<glyph glyph-name="uni021A" unicode="&#x21a;" horiz-adv-x="463" d="M177 0 L264 710 L69 710 L75 754 L511 754 L505 710 L313 710 L226 0 L177 0 Z M115 -235 L85 -220 L172 -53 L224 -77 L115 -235 Z " />
<glyph glyph-name="uni0226" unicode="&#x226;" horiz-adv-x="666" d="M424 915 Q438 915 448 904.5 Q458 894 458 878 Q458 860 445 846.5 Q432 833 415 833 Q399 833 389.5 843 Q380 853 380 869 Q380 888 393 901.5 Q406 915 424 915 Z M612 0 L563 0 L498 255 L183 255 L49 0 L-3 0 L410 788 L612 0 Z M207 299 L487 299 L393 660 L207 299 Z " />
<glyph glyph-name="uni1E1E" unicode="&#x1e1e;" horiz-adv-x="472" d="M342 915 Q357 915 366.5 904.5 Q376 894 376 878 Q376 860 363 846.5 Q350 833 333 833 Q318 833 308 843 Q298 853 298 869 Q298 888 311.5 901.5 Q325 915 342 915 Z M216 710 L182 435 L443 435 L438 391 L176 391 L129 0 L80 0 L173 754 L483 754 L477 710 L216 710 Z " />
<glyph glyph-name="uni1EA0" unicode="&#x1ea0;" horiz-adv-x="666" d="M612 0 L563 0 L498 255 L183 255 L49 0 L-3 0 L410 788 L612 0 Z M207 299 L487 299 L393 660 L207 299 Z M340 -58 Q354 -58 362.5 -66.5 Q371 -75 371 -89 Q371 -105 358 -117 Q345 -129 329 -129 Q316 -129 307.5 -120 Q299 -111 299 -98 Q299 -82 311.5 -70 Q324 -58 340 -58 Z " />
<glyph glyph-name="uni1EA2" unicode="&#x1ea2;" horiz-adv-x="666" d="M416 916 Q441 921 449 921 Q492 927 509.5 940.5 Q527 954 527 981 Q527 999 512 1009 Q497 1019 471 1019 Q458 1019 449.5 1017 Q441 1015 428 1009 Q417 1003 408 1000 L402 1028 Q433 1039 455.5 1044 Q478 1049 502 1049 Q542 1049 565.5 1030.5 Q589 1012 589 981 Q589 943 560.5 920 Q532 897 486 897 L450 898 L440 854 L402 854 L416 916 Z M612 0 L563 0 L498 255 L183 255 L49 0 L-3 0 L410 788 L612 0 Z M207 299 L487 299 L393 660 L207 299 Z " />
<glyph glyph-name="uni1EA4" unicode="&#x1ea4;" horiz-adv-x="666" d="M662 973 L525 863 L550 836 L518 806 L425 905 L299 806 L272 840 L431 966 L499 892 L618 1012 L662 973 Z M612 0 L563 0 L498 255 L183 255 L49 0 L-3 0 L410 788 L612 0 Z M207 299 L487 299 L393 660 L207 299 Z " />
<glyph glyph-name="uni1EA6" unicode="&#x1ea6;" horiz-adv-x="666" d="M615 892 L586 871 L483 999 L530 1032 L615 892 Z M550 836 L518 806 L425 905 L299 806 L272 840 L431 966 L550 836 Z M612 0 L563 0 L498 255 L183 255 L49 0 L-3 0 L410 788 L612 0 Z M207 299 L487 299 L393 660 L207 299 Z " />
<glyph glyph-name="uni1EA8" unicode="&#x1ea8;" horiz-adv-x="666" d="M524 921 Q554 925 558 925 Q601 931 618 944.5 Q635 958 635 984 Q635 1003 620.5 1013.5 Q606 1024 580 1024 Q566 1024 558 1022.5 Q550 1021 537 1014 Q525 1008 516 1005 L511 1033 Q564 1053 610 1053 Q650 1053 673.5 1034.5 Q697 1016 697 985 Q697 947 669.5 924 Q642 901 596 901 Q576 901 558 902 L549 859 L530 859 L550 836 L518 806 L425 905 L299 806 L272 840 L431 966 L514 875 L524 921 Z M612 0 L563 0 L498 255 L183 255 L49 0 L-3 0 L410 788 L612 0 Z M207 299 L487 299 L393 660 L207 299 Z " />
<glyph glyph-name="uni1EAA" unicode="&#x1eaa;" horiz-adv-x="666" d="M623 1048 Q586 971 518 971 Q481 971 414 1003 Q392 1014 383.5 1017 Q375 1020 364 1020 Q335 1020 313 979 L269 990 Q286 1028 309.5 1046 Q333 1064 365 1064 Q385 1064 400 1059 Q415 1054 462 1032 Q497 1015 520 1015 Q538 1015 553.5 1026.5 Q569 1038 579 1060 L623 1048 Z M272 840 L431 966 L550 836 L518 806 L425 905 L299 806 L272 840 Z M612 0 L563 0 L498 255 L183 255 L49 0 L-3 0 L410 788 L612 0 Z M207 299 L487 299 L393 660 L207 299 Z " />
<glyph glyph-name="uni1EAC" unicode="&#x1eac;" horiz-adv-x="666" d="M272 840 L431 966 L550 836 L518 806 L425 905 L299 806 L272 840 Z M612 0 L563 0 L498 255 L183 255 L49 0 L-3 0 L410 788 L612 0 Z M207 299 L487 299 L393 660 L207 299 Z M303 -58 Q317 -58 325 -66.5 Q333 -75 333 -89 Q333 -105 321 -117 Q309 -129 293 -129 Q280 -129 271.5 -120 Q263 -111 263 -98 Q263 -82 275 -70 Q287 -58 303 -58 Z " />
<glyph glyph-name="uni1EAE" unicode="&#x1eae;" horiz-adv-x="666" d="M395 919 L532 1057 L575 1017 L425 896 L395 919 Z M332 950 Q336 901 354.5 879.5 Q373 858 412 858 Q451 858 477 880 Q503 902 519 950 L565 950 Q552 887 509.5 849 Q467 811 408 811 Q350 811 318.5 846.5 Q287 882 285 950 L332 950 Z M612 0 L563 0 L498 255 L183 255 L49 0 L-3 0 L410 788 L612 0 Z M207 299 L487 299 L393 660 L207 299 Z " />
<glyph glyph-name="uni1EB0" unicode="&#x1eb0;" horiz-adv-x="666" d="M446 924 L418 904 L314 1031 L363 1063 L446 924 Z M332 950 Q336 901 354.5 879.5 Q373 858 412 858 Q451 858 477 880 Q503 902 519 950 L565 950 Q552 887 509.5 849 Q467 811 408 811 Q350 811 318.5 846.5 Q287 882 285 950 L332 950 Z M612 0 L563 0 L498 255 L183 255 L49 0 L-3 0 L410 788 L612 0 Z M207 299 L487 299 L393 660 L207 299 Z " />
<glyph glyph-name="uni1EB2" unicode="&#x1eb2;" horiz-adv-x="666" d="M412 985 Q437 990 446 990 Q489 996 506 1009.5 Q523 1023 523 1050 Q523 1068 508.5 1078 Q494 1088 468 1088 Q455 1088 447 1086 Q439 1084 425 1078 Q414 1072 405 1069 L399 1097 Q454 1118 498 1118 Q538 1118 561.5 1099.5 Q585 1081 585 1050 Q585 1012 557.5 988.5 Q530 965 484 965 Q463 965 446 967 L437 923 L399 923 L412 985 Z M332 950 Q336 901 354.5 879.5 Q373 858 412 858 Q451 858 477 880 Q503 902 519 950 L565 950 Q552 887 509.5 849 Q467 811 408 811 Q350 811 318.5 846.5 Q287 882 285 950 L332 950 Z M612 0 L563 0 L498 255 L183 255 L49 0 L-3 0 L410 788 L612 0 Z M207 299 L487 299 L393 660 L207 299 Z " />
<glyph glyph-name="uni1EB4" unicode="&#x1eb4;" horiz-adv-x="666" d="M603 1061 Q567 984 498 984 Q463 984 394 1017 Q374 1028 364.5 1031 Q355 1034 345 1034 Q315 1034 294 991 L250 1002 Q282 1078 346 1078 Q367 1078 381.5 1073 Q396 1068 443 1045 Q482 1028 501 1028 Q519 1028 534 1040 Q549 1052 559 1074 L603 1061 Z M332 950 Q336 901 354.5 879.5 Q373 858 412 858 Q451 858 477 880 Q503 902 519 950 L565 950 Q552 887 509.5 849 Q467 811 408 811 Q350 811 318.5 846.5 Q287 882 285 950 L332 950 Z M612 0 L563 0 L498 255 L183 255 L49 0 L-3 0 L410 788 L612 0 Z M207 299 L487 299 L393 660 L207 299 Z " />
<glyph glyph-name="uni1EB6" unicode="&#x1eb6;" horiz-adv-x="666" d="M332 950 Q336 901 354.5 879.5 Q373 858 412 858 Q451 858 477 880 Q503 902 519 950 L565 950 Q552 887 509.5 849 Q467 811 408 811 Q350 811 318.5 846.5 Q287 882 285 950 L332 950 Z M612 0 L563 0 L498 255 L183 255 L49 0 L-3 0 L410 788 L612 0 Z M207 299 L487 299 L393 660 L207 299 Z M320 -58 Q334 -58 342 -66.5 Q350 -75 350 -89 Q350 -105 338 -117 Q326 -129 310 -129 Q297 -129 288.5 -120 Q280 -111 280 -98 Q280 -82 292 -70 Q304 -58 320 -58 Z " />
<glyph glyph-name="uni1EB8" unicode="&#x1eb8;" horiz-adv-x="516" d="M216 710 L182 435 L480 435 L475 391 L176 391 L134 44 L433 44 L427 0 L80 0 L173 754 L520 754 L514 710 L216 710 Z M266 -58 Q280 -58 288 -66.5 Q296 -75 296 -89 Q296 -105 283.5 -117 Q271 -129 255 -129 Q242 -129 234 -120.5 Q226 -112 226 -98 Q226 -82 238 -70 Q250 -58 266 -58 Z " />
<glyph glyph-name="uni1EBA" unicode="&#x1eba;" horiz-adv-x="516" d="M334 916 Q359 921 368 921 Q411 927 428 940.5 Q445 954 445 981 Q445 999 430.5 1009 Q416 1019 390 1019 Q376 1019 368 1017.5 Q360 1016 347 1009 Q336 1003 327 1000 L321 1028 Q352 1039 374.5 1044 Q397 1049 420 1049 Q460 1049 483.5 1030.5 Q507 1012 507 981 Q507 943 479.5 920 Q452 897 406 897 Q386 897 368 898 L359 854 L321 854 L334 916 Z M216 710 L182 435 L480 435 L475 391 L176 391 L134 44 L433 44 L427 0 L80 0 L173 754 L520 754 L514 710 L216 710 Z " />
<glyph glyph-name="uni1EBC" unicode="&#x1ebc;" horiz-adv-x="516" d="M513 912 Q476 835 408 835 Q370 835 304 868 Q284 879 274.5 882 Q265 885 254 885 Q225 885 203 842 L159 853 Q176 892 199.5 910.5 Q223 929 255 929 Q276 929 290 924.5 Q304 920 353 896 Q390 879 409 879 Q447 879 469 923 L513 912 Z M216 710 L182 435 L480 435 L475 391 L176 391 L134 44 L433 44 L427 0 L80 0 L173 754 L520 754 L514 710 L216 710 Z " />
<glyph glyph-name="uni1EBE" unicode="&#x1ebe;" horiz-adv-x="516" d="M605 979 L462 864 L489 836 L457 806 L364 905 L238 806 L211 840 L370 966 L437 893 L560 1018 L605 979 Z M216 710 L182 435 L480 435 L475 391 L176 391 L134 44 L433 44 L427 0 L80 0 L173 754 L520 754 L514 710 L216 710 Z " />
<glyph glyph-name="uni1EC0" unicode="&#x1ec0;" horiz-adv-x="516" d="M554 892 L525 871 L421 999 L469 1032 L554 892 Z M489 836 L457 806 L364 905 L238 806 L211 840 L370 966 L489 836 Z M216 710 L182 435 L480 435 L475 391 L176 391 L134 44 L433 44 L427 0 L80 0 L173 754 L520 754 L514 710 L216 710 Z " />
<glyph glyph-name="uni1EC2" unicode="&#x1ec2;" horiz-adv-x="516" d="M497 923 Q540 929 557.5 942.5 Q575 956 575 982 Q575 1001 560.5 1011.5 Q546 1022 520 1022 Q506 1022 498 1020 Q490 1018 477 1011 L455 1001 L451 1031 Q482 1042 504.5 1046.5 Q527 1051 549 1051 Q590 1051 613.5 1032.5 Q637 1014 637 983 Q637 945 609.5 921.5 Q582 898 536 898 Q515 898 497 899 L488 857 L471 857 L489 836 L457 806 L364 905 L238 806 L211 840 L370 966 L454 873 L464 919 L497 923 Z M216 710 L182 435 L480 435 L475 391 L176 391 L134 44 L433 44 L427 0 L80 0 L173 754 L520 754 L514 710 L216 710 Z " />
<glyph glyph-name="uni1EC4" unicode="&#x1ec4;" horiz-adv-x="516" d="M557 1059 Q520 982 452 982 Q414 982 348 1015 Q327 1026 318 1029 Q309 1032 299 1032 Q269 1032 247 989 L203 1000 Q237 1076 301 1076 Q321 1076 335 1071 Q349 1066 397 1043 Q434 1026 454 1026 Q490 1026 514 1070 L557 1059 Z M211 840 L370 966 L489 836 L457 806 L364 905 L238 806 L211 840 Z M216 710 L182 435 L480 435 L475 391 L176 391 L134 44 L433 44 L427 0 L80 0 L173 754 L520 754 L514 710 L216 710 Z " />
<glyph glyph-name="uni1EC6" unicode="&#x1ec6;" horiz-adv-x="516" d="M211 840 L370 966 L489 836 L457 806 L364 905 L238 806 L211 840 Z M216 710 L182 435 L480 435 L475 391 L176 391 L134 44 L433 44 L427 0 L80 0 L173 754 L520 754 L514 710 L216 710 Z M266 -58 Q280 -58 288 -66.5 Q296 -75 296 -89 Q296 -105 283.5 -117 Q271 -129 255 -129 Q242 -129 234 -120.5 Q226 -112 226 -98 Q226 -82 238 -70 Q250 -58 266 -58 Z " />
<glyph glyph-name="uni1EC8" unicode="&#x1ec8;" horiz-adv-x="271" d="M209 916 Q234 921 243 921 Q285 927 302.5 940.5 Q320 954 320 981 Q320 999 305 1009 Q290 1019 264 1019 Q251 1019 242.5 1017 Q234 1015 221 1009 Q210 1003 201 1000 L195 1028 Q226 1039 248.5 1044 Q271 1049 295 1049 Q335 1049 358.5 1030.5 Q382 1012 382 981 Q382 943 354 920 Q326 897 280 897 Q261 897 243 898 L234 854 L195 854 L209 916 Z M80 0 L173 754 L221 754 L129 0 L80 0 Z " />
<glyph glyph-name="uni1ECA" unicode="&#x1eca;" horiz-adv-x="271" d="M80 0 L173 754 L221 754 L129 0 L80 0 Z M105 -58 Q119 -58 127.5 -66.5 Q136 -75 136 -89 Q136 -105 123.5 -117 Q111 -129 95 -129 Q82 -129 74 -120.5 Q66 -112 66 -98 Q66 -82 77.5 -70 Q89 -58 105 -58 Z " />
<glyph glyph-name="uni1ECC" unicode="&#x1ecc;" horiz-adv-x="888" d="M475 768 Q582 768 664 722 Q746 676 791 593 Q836 510 836 402 Q836 328 811.5 255 Q787 182 744 127 Q689 57 613 21 Q537 -15 445 -15 Q340 -15 256.5 31 Q173 77 126.5 158.5 Q80 240 80 344 Q80 463 131.5 560 Q183 657 273.5 712.5 Q364 768 475 768 Z M475 723 Q377 723 298 674.5 Q219 626 174.5 541.5 Q130 457 130 351 Q130 258 170 185 Q210 112 282 71.5 Q354 31 446 31 Q542 31 619.5 79.5 Q697 128 741.5 212.5 Q786 297 786 402 Q786 558 695 642 Q605 723 475 723 Z M438 -58 Q453 -58 461 -66.5 Q469 -75 469 -89 Q469 -105 456.5 -117 Q444 -129 428 -129 Q415 -129 407 -120.5 Q399 -112 399 -98 Q399 -82 410.5 -70 Q422 -58 438 -58 Z " />
<glyph glyph-name="uni1ECE" unicode="&#x1ece;" horiz-adv-x="888" d="M462 916 Q487 921 495 921 Q538 927 555.5 940.5 Q573 954 573 981 Q573 999 558.5 1009 Q544 1019 518 1019 Q503 1019 495 1017.5 Q487 1016 475 1009 Q465 1004 453 1000 L449 1028 Q479 1039 501.5 1044 Q524 1049 547 1049 Q588 1049 611.5 1030.5 Q635 1012 635 981 Q635 944 606.5 920.5 Q578 897 532 897 L495 898 L486 854 L449 854 L462 916 Z M475 768 Q582 768 664 722 Q746 676 791 593 Q836 510 836 402 Q836 328 811.5 255 Q787 182 744 127 Q689 57 613 21 Q537 -15 445 -15 Q340 -15 256.5 31 Q173 77 126.5 158.5 Q80 240 80 344 Q80 463 131.5 560 Q183 657 273.5 712.5 Q364 768 475 768 Z M475 723 Q377 723 298 674.5 Q219 626 174.5 541.5 Q130 457 130 351 Q130 258 170 185 Q210 112 282 71.5 Q354 31 446 31 Q542 31 619.5 79.5 Q697 128 741.5 212.5 Q786 297 786 402 Q786 558 695 642 Q605 723 475 723 Z " />
<glyph glyph-name="uni1ED0" unicode="&#x1ed0;" horiz-adv-x="888" d="M767 967 L631 858 L651 836 L618 806 L525 905 L400 806 L373 840 L531 966 L605 886 L724 1007 L767 967 Z M476 768 Q580 768 662 722.5 Q744 677 790 595.5 Q836 514 836 411 Q836 288 786 191 Q736 94 646.5 39.5 Q557 -15 444 -15 Q339 -15 256 31 Q173 77 126.5 158.5 Q80 240 80 344 Q80 436 115 522 Q150 608 211 666 Q263 716 331 742 Q399 768 476 768 Z M475 723 Q377 723 298 674.5 Q219 626 174.5 541.5 Q130 457 130 351 Q130 258 170 185 Q210 112 282 71.5 Q354 31 446 31 Q542 31 619.5 79.5 Q697 128 741.5 212.5 Q786 297 786 402 Q786 558 695 642 Q605 723 475 723 Z " />
<glyph glyph-name="uni1ED2" unicode="&#x1ed2;" horiz-adv-x="888" d="M715 892 L687 871 L583 999 L631 1032 L715 892 Z M651 836 L618 806 L525 905 L400 806 L373 840 L531 966 L651 836 Z M476 768 Q580 768 662 722.5 Q744 677 790 595.5 Q836 514 836 411 Q836 288 786 191 Q736 94 646.5 39.5 Q557 -15 444 -15 Q339 -15 256 31 Q173 77 126.5 158.5 Q80 240 80 344 Q80 436 115 522 Q150 608 211 666 Q263 716 331 742 Q399 768 476 768 Z M475 723 Q377 723 298 674.5 Q219 626 174.5 541.5 Q130 457 130 351 Q130 258 170 185 Q210 112 282 71.5 Q354 31 446 31 Q542 31 619.5 79.5 Q697 128 741.5 212.5 Q786 297 786 402 Q786 558 695 642 Q605 723 475 723 Z " />
<glyph glyph-name="uni1ED4" unicode="&#x1ed4;" horiz-adv-x="888" d="M620 923 Q630 924 639 926 Q648 928 654 928 Q697 934 714 947 Q731 960 731 986 Q731 1005 716.5 1015.5 Q702 1026 676 1026 Q662 1026 654 1024.5 Q646 1023 633 1016 Q621 1010 612 1007 L607 1035 Q660 1055 706 1055 Q746 1055 769.5 1037 Q793 1019 793 988 Q793 950 765.5 926.5 Q738 903 692 903 Q672 903 654 904 L645 861 L628 861 L651 836 L618 806 L525 905 L400 806 L373 840 L531 966 L611 879 L620 923 Z M476 768 Q580 768 662 722.5 Q744 677 790 595.5 Q836 514 836 411 Q836 288 786 191 Q736 94 646.5 39.5 Q557 -15 444 -15 Q339 -15 256 31 Q173 77 126.5 158.5 Q80 240 80 344 Q80 436 115 522 Q150 608 211 666 Q263 716 331 742 Q399 768 476 768 Z M475 723 Q377 723 298 674.5 Q219 626 174.5 541.5 Q130 457 130 351 Q130 258 170 185 Q210 112 282 71.5 Q354 31 446 31 Q542 31 619.5 79.5 Q697 128 741.5 212.5 Q786 297 786 402 Q786 558 695 642 Q605 723 475 723 Z " />
<glyph glyph-name="uni1ED6" unicode="&#x1ed6;" horiz-adv-x="888" d="M719 1050 Q682 973 614 973 Q576 973 510 1006 Q489 1017 480 1020 Q471 1023 461 1023 Q431 1023 409 980 L365 991 Q382 1030 406 1048.5 Q430 1067 462 1067 Q481 1067 495.5 1062 Q510 1057 558 1034 Q597 1017 616 1017 Q652 1017 676 1061 L719 1050 Z M373 840 L531 966 L651 836 L618 806 L525 905 L400 806 L373 840 Z M475 768 Q582 768 664 722 Q746 676 791 593 Q836 510 836 402 Q836 328 811.5 255 Q787 182 744 127 Q689 57 613 21 Q537 -15 445 -15 Q340 -15 256.5 31 Q173 77 126.5 158.5 Q80 240 80 344 Q80 463 131.5 560 Q183 657 273.5 712.5 Q364 768 475 768 Z M475 723 Q377 723 298 674.5 Q219 626 174.5 541.5 Q130 457 130 351 Q130 258 170 185 Q210 112 282 71.5 Q354 31 446 31 Q542 31 619.5 79.5 Q697 128 741.5 212.5 Q786 297 786 402 Q786 558 695 642 Q605 723 475 723 Z " />
<glyph glyph-name="uni1ED8" unicode="&#x1ed8;" horiz-adv-x="888" d="M373 840 L531 966 L651 836 L618 806 L525 905 L400 806 L373 840 Z M475 768 Q582 768 664 722 Q746 676 791 593 Q836 510 836 402 Q836 328 811.5 255 Q787 182 744 127 Q689 57 613 21 Q537 -15 445 -15 Q340 -15 256.5 31 Q173 77 126.5 158.5 Q80 240 80 344 Q80 463 131.5 560 Q183 657 273.5 712.5 Q364 768 475 768 Z M475 723 Q377 723 298 674.5 Q219 626 174.5 541.5 Q130 457 130 351 Q130 258 170 185 Q210 112 282 71.5 Q354 31 446 31 Q542 31 619.5 79.5 Q697 128 741.5 212.5 Q786 297 786 402 Q786 558 695 642 Q605 723 475 723 Z M451 -58 Q465 -58 473 -66.5 Q481 -75 481 -89 Q481 -105 469 -117 Q457 -129 441 -129 Q428 -129 419.5 -120 Q411 -111 411 -98 Q411 -82 423 -70 Q435 -58 451 -58 Z " />
<glyph glyph-name="uni1EDA" unicode="&#x1eda;" horiz-adv-x="888" d="M470 828 L607 966 L650 927 L499 806 L470 828 Z M869 765 L774 621 Q836 531 836 407 Q836 287 785.5 190.5 Q735 94 645.5 39.5 Q556 -15 445 -15 Q340 -15 256.5 31 Q173 77 126.5 158.5 Q80 240 80 344 Q80 436 115 522 Q150 608 210 666 Q263 716 331 742 Q399 768 476 768 Q559 768 629.5 738.5 Q700 709 749 653 L817 789 L869 765 Z M475 723 Q377 723 298 674.5 Q219 626 174.5 541.5 Q130 457 130 351 Q130 258 170 185 Q210 112 282 71.5 Q354 31 446 31 Q542 31 619.5 79.5 Q697 128 741.5 212.5 Q786 297 786 402 Q786 558 695 642 Q605 723 475 723 Z " />
<glyph glyph-name="uni1EDC" unicode="&#x1edc;" horiz-adv-x="888" d="M565 826 L537 806 L433 933 L480 966 L565 826 Z M869 765 L774 621 Q836 531 836 407 Q836 287 785.5 190.5 Q735 94 645.5 39.5 Q556 -15 445 -15 Q340 -15 256.5 31 Q173 77 126.5 158.5 Q80 240 80 344 Q80 436 115 522 Q150 608 210 666 Q263 716 331 742 Q399 768 476 768 Q559 768 629.5 738.5 Q700 709 749 653 L817 789 L869 765 Z M475 723 Q377 723 298 674.5 Q219 626 174.5 541.5 Q130 457 130 351 Q130 258 170 185 Q210 112 282 71.5 Q354 31 446 31 Q542 31 619.5 79.5 Q697 128 741.5 212.5 Q786 297 786 402 Q786 558 695 642 Q605 723 475 723 Z " />
<glyph glyph-name="uni1EDE" unicode="&#x1ede;" horiz-adv-x="888" d="M462 916 Q487 921 495 921 Q538 927 555.5 940.5 Q573 954 573 981 Q573 999 558.5 1009 Q544 1019 518 1019 Q503 1019 495 1017.5 Q487 1016 475 1009 Q465 1004 453 1000 L449 1028 Q479 1039 501.5 1044 Q524 1049 547 1049 Q588 1049 611.5 1030.5 Q635 1012 635 981 Q635 944 606.5 920.5 Q578 897 532 897 L495 898 L486 854 L449 854 L462 916 Z M869 765 L774 621 Q836 531 836 407 Q836 287 785.5 190.5 Q735 94 645.5 39.5 Q556 -15 445 -15 Q340 -15 256.5 31 Q173 77 126.5 158.5 Q80 240 80 344 Q80 436 115 522 Q150 608 210 666 Q263 716 331 742 Q399 768 476 768 Q559 768 629.5 738.5 Q700 709 749 653 L817 789 L869 765 Z M475 723 Q377 723 298 674.5 Q219 626 174.5 541.5 Q130 457 130 351 Q130 258 170 185 Q210 112 282 71.5 Q354 31 446 31 Q542 31 619.5 79.5 Q697 128 741.5 212.5 Q786 297 786 402 Q786 558 695 642 Q605 723 475 723 Z " />
<glyph glyph-name="uni1EE0" unicode="&#x1ee0;" horiz-adv-x="888" d="M698 912 Q679 873 653.5 854 Q628 835 593 835 Q555 835 489 868 Q469 879 459.5 882 Q450 885 440 885 Q408 885 389 842 L345 853 Q377 929 441 929 Q461 929 475 924 Q489 919 538 896 Q575 879 594 879 Q632 879 654 923 L698 912 Z M869 765 L774 621 Q836 531 836 407 Q836 287 785.5 190.5 Q735 94 645.5 39.5 Q556 -15 445 -15 Q340 -15 256.5 31 Q173 77 126.5 158.5 Q80 240 80 344 Q80 436 115 522 Q150 608 210 666 Q263 716 331 742 Q399 768 476 768 Q559 768 629.5 738.5 Q700 709 749 653 L817 789 L869 765 Z M475 723 Q377 723 298 674.5 Q219 626 174.5 541.5 Q130 457 130 351 Q130 258 170 185 Q210 112 282 71.5 Q354 31 446 31 Q542 31 619.5 79.5 Q697 128 741.5 212.5 Q786 297 786 402 Q786 558 695 642 Q605 723 475 723 Z " />
<glyph glyph-name="uni1EE2" unicode="&#x1ee2;" horiz-adv-x="888" d="M869 765 L774 621 Q836 531 836 407 Q836 287 785.5 190.5 Q735 94 645.5 39.5 Q556 -15 445 -15 Q340 -15 256.5 31 Q173 77 126.5 158.5 Q80 240 80 344 Q80 436 115 522 Q150 608 210 666 Q263 716 331 742 Q399 768 476 768 Q559 768 629.5 738.5 Q700 709 749 653 L817 789 L869 765 Z M475 723 Q377 723 298 674.5 Q219 626 174.5 541.5 Q130 457 130 351 Q130 258 170 185 Q210 112 282 71.5 Q354 31 446 31 Q542 31 619.5 79.5 Q697 128 741.5 212.5 Q786 297 786 402 Q786 558 695 642 Q605 723 475 723 Z M427 -58 Q441 -58 449.5 -66.5 Q458 -75 458 -89 Q458 -105 445 -117 Q432 -129 416 -129 Q403 -129 394.5 -120 Q386 -111 386 -98 Q386 -82 398.5 -70 Q411 -58 427 -58 Z " />
<glyph glyph-name="uni1EE4" unicode="&#x1ee4;" horiz-adv-x="732" d="M626 272 Q619 214 608.5 176 Q598 138 580 108 Q543 49 484.5 17 Q426 -15 354 -15 Q296 -15 241.5 5.5 Q187 26 151 61 Q103 112 103 198 Q103 220 107 252 L168 754 L217 754 L155 251 Q151 213 151 194 Q151 134 185 97 Q214 66 259 48.5 Q304 31 354 31 Q419 31 469 60.5 Q519 90 546 145 Q569 193 577 271 L637 754 L685 754 L626 272 Z M353 -58 Q367 -58 375 -66.5 Q383 -75 383 -89 Q383 -105 370.5 -117 Q358 -129 342 -129 Q329 -129 321 -120.5 Q313 -112 313 -98 Q313 -82 325 -70 Q337 -58 353 -58 Z " />
<glyph glyph-name="uni1EE6" unicode="&#x1ee6;" horiz-adv-x="732" d="M424 916 Q447 921 458 921 Q500 927 517 940.5 Q534 954 534 981 Q534 999 519.5 1009 Q505 1019 479 1019 Q466 1019 457.5 1017 Q449 1015 436 1009 Q425 1003 416 1000 L410 1028 Q441 1039 463.5 1044 Q486 1049 510 1049 Q550 1049 573.5 1030.5 Q597 1012 597 981 Q597 943 569 920 Q541 897 495 897 Q476 897 458 898 L449 854 L410 854 L424 916 Z M626 272 Q619 214 608.5 176 Q598 138 580 108 Q543 49 484.5 17 Q426 -15 354 -15 Q296 -15 241.5 5.5 Q187 26 151 61 Q103 112 103 198 Q103 220 107 252 L168 754 L217 754 L155 251 Q151 213 151 194 Q151 134 185 97 Q214 66 259 48.5 Q304 31 354 31 Q419 31 469 60.5 Q519 90 546 145 Q569 193 577 271 L637 754 L685 754 L626 272 Z " />
<glyph glyph-name="uni1EE8" unicode="&#x1ee8;" horiz-adv-x="732" d="M393 828 L529 966 L573 927 L421 806 L393 828 Z M725 606 L695 620 L781 792 L833 768 L725 606 Z M626 272 Q619 214 608.5 176 Q598 138 580 108 Q543 49 484.5 17 Q426 -15 354 -15 Q296 -15 241.5 5.5 Q187 26 151 61 Q103 112 103 198 Q103 220 107 252 L168 754 L217 754 L155 251 Q151 213 151 194 Q151 134 185 97 Q214 66 259 48.5 Q304 31 354 31 Q419 31 469 60.5 Q519 90 546 145 Q569 193 577 271 L637 754 L685 754 L626 272 Z " />
<glyph glyph-name="uni1EEA" unicode="&#x1eea;" horiz-adv-x="732" d="M487 826 L459 806 L355 933 L403 966 L487 826 Z M725 606 L695 620 L781 792 L833 768 L725 606 Z M626 272 Q619 214 608.5 176 Q598 138 580 108 Q543 49 484.5 17 Q426 -15 354 -15 Q296 -15 241.5 5.5 Q187 26 151 61 Q103 112 103 198 Q103 220 107 252 L168 754 L217 754 L155 251 Q151 213 151 194 Q151 134 185 97 Q214 66 259 48.5 Q304 31 354 31 Q419 31 469 60.5 Q519 90 546 145 Q569 193 577 271 L637 754 L685 754 L626 272 Z " />
<glyph glyph-name="uni1EEC" unicode="&#x1eec;" horiz-adv-x="732" d="M395 916 Q420 921 428 921 Q471 927 488.5 940.5 Q506 954 506 981 Q506 999 491.5 1009 Q477 1019 451 1019 Q437 1019 428.5 1017 Q420 1015 408 1009 Q400 1005 386 1000 L382 1028 Q413 1039 435.5 1044 Q458 1049 480 1049 Q521 1049 544.5 1030.5 Q568 1012 568 981 Q568 943 540 920 Q512 897 466 897 L428 898 L419 854 L382 854 L395 916 Z M725 606 L695 620 L781 792 L833 768 L725 606 Z M626 272 Q619 214 608.5 176 Q598 138 580 108 Q543 49 484.5 17 Q426 -15 354 -15 Q296 -15 241.5 5.5 Q187 26 151 61 Q103 112 103 198 Q103 220 107 252 L168 754 L217 754 L155 251 Q151 213 151 194 Q151 134 185 97 Q214 66 259 48.5 Q304 31 354 31 Q419 31 469 60.5 Q519 90 546 145 Q569 193 577 271 L637 754 L685 754 L626 272 Z " />
<glyph glyph-name="uni1EEE" unicode="&#x1eee;" horiz-adv-x="732" d="M620 912 Q584 835 515 835 Q477 835 411 868 Q391 879 381.5 882 Q372 885 362 885 Q330 885 311 842 L267 853 Q299 929 363 929 Q383 929 397 924.5 Q411 920 460 896 Q499 879 516 879 Q535 879 550.5 890.5 Q566 902 576 923 L620 912 Z M725 606 L695 620 L781 792 L833 768 L725 606 Z M626 272 Q619 214 608.5 176 Q598 138 580 108 Q543 49 484.5 17 Q426 -15 354 -15 Q296 -15 241.5 5.5 Q187 26 151 61 Q103 112 103 198 Q103 220 107 252 L168 754 L217 754 L155 251 Q151 213 151 194 Q151 134 185 97 Q214 66 259 48.5 Q304 31 354 31 Q419 31 469 60.5 Q519 90 546 145 Q569 193 577 271 L637 754 L685 754 L626 272 Z " />
<glyph glyph-name="uni1EF0" unicode="&#x1ef0;" horiz-adv-x="732" d="M725 606 L695 620 L781 792 L833 768 L725 606 Z M626 272 Q619 214 608.5 176 Q598 138 580 108 Q543 49 484.5 17 Q426 -15 354 -15 Q296 -15 241.5 5.5 Q187 26 151 61 Q103 112 103 198 Q103 220 107 252 L168 754 L217 754 L155 251 Q151 213 151 194 Q151 134 185 97 Q214 66 259 48.5 Q304 31 354 31 Q419 31 469 60.5 Q519 90 546 145 Q569 193 577 271 L637 754 L685 754 L626 272 Z M347 -68 Q361 -68 369 -76.5 Q377 -85 377 -99 Q377 -115 364.5 -127 Q352 -139 336 -139 Q323 -139 314.5 -130.5 Q306 -122 306 -108 Q306 -92 318.5 -80 Q331 -68 347 -68 Z " />
<glyph glyph-name="uni1EF4" unicode="&#x1ef4;" horiz-adv-x="577" d="M82 754 L137 754 L298 388 L555 754 L618 754 L314 331 L273 0 L225 0 L268 341 L82 754 Z M241 -58 Q255 -58 263 -66.5 Q271 -75 271 -89 Q271 -105 259 -117 Q247 -129 231 -129 Q218 -129 209.5 -120 Q201 -111 201 -98 Q201 -82 213 -70 Q225 -58 241 -58 Z " />
<glyph glyph-name="uni1EF6" unicode="&#x1ef6;" horiz-adv-x="577" d="M307 916 Q332 921 340 921 Q383 927 400.5 940.5 Q418 954 418 981 Q418 999 403.5 1009 Q389 1019 363 1019 Q350 1019 341.5 1017 Q333 1015 320 1009 Q308 1003 299 1000 L294 1028 Q350 1049 393 1049 Q433 1049 456.5 1030.5 Q480 1012 480 981 Q480 943 452 920 Q424 897 377 897 L341 898 L331 854 L294 854 L307 916 Z M82 754 L137 754 L298 388 L555 754 L618 754 L314 331 L273 0 L225 0 L268 341 L82 754 Z " />
<glyph glyph-name="uni1EF8" unicode="&#x1ef8;" horiz-adv-x="577" d="M544 912 Q507 835 438 835 Q401 835 334 868 Q314 879 304.5 882 Q295 885 285 885 Q253 885 234 842 L190 853 Q222 929 286 929 Q306 929 320.5 924 Q335 919 383 896 Q422 879 440 879 Q458 879 473.5 890.5 Q489 902 499 923 L544 912 Z M82 754 L137 754 L298 388 L555 754 L618 754 L314 331 L273 0 L225 0 L268 341 L82 754 Z " />
<glyph glyph-name="a" unicode="a" horiz-adv-x="585" d="M427 0 L436 80 Q391 29 352.5 9 Q314 -11 261 -11 Q200 -11 152.5 17 Q105 45 78 95 Q51 145 51 208 Q51 280 82 338 Q113 396 167 429.5 Q221 463 288 463 Q348 463 389.5 440 Q431 417 471 360 L483 452 L527 452 L471 0 L427 0 Z M293 421 Q238 421 193.5 393.5 Q149 366 123 318 Q97 270 97 211 Q97 160 118.5 119 Q140 78 178.5 54.5 Q217 31 264 31 Q317 31 362.5 61 Q408 91 435 141.5 Q462 192 462 250 Q462 299 440.5 338 Q419 377 380.5 399 Q342 421 293 421 Z " />
<glyph glyph-name="aacute" unicode="&#xe1;" horiz-adv-x="585" d="M284 542 L414 684 L452 647 L307 520 L284 542 Z M427 0 L436 80 Q391 29 352.5 9 Q314 -11 261 -11 Q200 -11 152.5 17 Q105 45 78 95 Q51 145 51 208 Q51 280 82 338 Q113 396 167 429.5 Q221 463 288 463 Q348 463 389.5 440 Q431 417 471 360 L483 452 L527 452 L471 0 L427 0 Z M293 421 Q238 421 193.5 393.5 Q149 366 123 318 Q97 270 97 211 Q97 160 118.5 119 Q140 78 178.5 54.5 Q217 31 264 31 Q317 31 362.5 61 Q408 91 435 141.5 Q462 192 462 250 Q462 299 440.5 338 Q419 377 380.5 399 Q342 421 293 421 Z " />
<glyph glyph-name="abreve" unicode="&#x103;" horiz-adv-x="585" d="M257 666 Q259 614 277 590.5 Q295 567 332 567 Q370 567 395 591 Q420 615 434 666 L477 666 Q464 602 424 564.5 Q384 527 328 527 Q273 527 244.5 562.5 Q216 598 215 666 L257 666 Z M427 0 L436 80 Q391 29 352.5 9 Q314 -11 261 -11 Q200 -11 152.5 17 Q105 45 78 95 Q51 145 51 208 Q51 280 82 338 Q113 396 167 429.5 Q221 463 288 463 Q348 463 389.5 440 Q431 417 471 360 L483 452 L527 452 L471 0 L427 0 Z M293 421 Q238 421 193.5 393.5 Q149 366 123 318 Q97 270 97 211 Q97 160 118.5 119 Q140 78 178.5 54.5 Q217 31 264 31 Q317 31 362.5 61 Q408 91 435 141.5 Q462 192 462 250 Q462 299 440.5 338 Q419 377 380.5 399 Q342 421 293 421 Z " />
<glyph glyph-name="acircumflex" unicode="&#xe2;" horiz-adv-x="585" d="M198 548 L347 687 L457 546 L426 520 L341 629 L223 520 L198 548 Z M427 0 L436 80 Q391 29 352.5 9 Q314 -11 261 -11 Q200 -11 152.5 17 Q105 45 78 95 Q51 145 51 208 Q51 280 82 338 Q113 396 167 429.5 Q221 463 288 463 Q348 463 389.5 440 Q431 417 471 360 L483 452 L527 452 L471 0 L427 0 Z M293 421 Q238 421 193.5 393.5 Q149 366 123 318 Q97 270 97 211 Q97 160 118.5 119 Q140 78 178.5 54.5 Q217 31 264 31 Q317 31 362.5 61 Q408 91 435 141.5 Q462 192 462 250 Q462 299 440.5 338 Q419 377 380.5 399 Q342 421 293 421 Z " />
<glyph glyph-name="adieresis" unicode="&#xe4;" horiz-adv-x="585" d="M421 620 Q435 620 444 610.5 Q453 601 453 586 Q453 569 441.5 555.5 Q430 542 415 542 Q401 542 392 552 Q383 562 383 577 Q383 594 394.5 607 Q406 620 421 620 Z M250 619 Q263 619 271.5 609.5 Q280 600 280 584 Q280 567 268.5 554.5 Q257 542 241 542 Q228 542 218.5 552 Q209 562 209 576 Q209 593 221.5 606 Q234 619 250 619 Z M427 0 L436 80 Q391 29 352.5 9 Q314 -11 261 -11 Q200 -11 152.5 17 Q105 45 78 95 Q51 145 51 208 Q51 280 82 338 Q113 396 167 429.5 Q221 463 288 463 Q348 463 389.5 440 Q431 417 471 360 L483 452 L527 452 L471 0 L427 0 Z M293 421 Q238 421 193.5 393.5 Q149 366 123 318 Q97 270 97 211 Q97 160 118.5 119 Q140 78 178.5 54.5 Q217 31 264 31 Q317 31 362.5 61 Q408 91 435 141.5 Q462 192 462 250 Q462 299 440.5 338 Q419 377 380.5 399 Q342 421 293 421 Z " />
<glyph glyph-name="agrave" unicode="&#xe0;" horiz-adv-x="585" d="M373 538 L346 520 L249 652 L293 684 L373 538 Z M427 0 L436 80 Q391 29 352.5 9 Q314 -11 261 -11 Q200 -11 152.5 17 Q105 45 78 95 Q51 145 51 208 Q51 280 82 338 Q113 396 167 429.5 Q221 463 288 463 Q348 463 389.5 440 Q431 417 471 360 L483 452 L527 452 L471 0 L427 0 Z M293 421 Q238 421 193.5 393.5 Q149 366 123 318 Q97 270 97 211 Q97 160 118.5 119 Q140 78 178.5 54.5 Q217 31 264 31 Q317 31 362.5 61 Q408 91 435 141.5 Q462 192 462 250 Q462 299 440.5 338 Q419 377 380.5 399 Q342 421 293 421 Z " />
<glyph glyph-name="amacron" unicode="&#x101;" horiz-adv-x="585" d="M471 562 L193 562 L198 605 L476 605 L471 562 Z M427 0 L436 80 Q391 29 352.5 9 Q314 -11 261 -11 Q200 -11 152.5 17 Q105 45 78 95 Q51 145 51 208 Q51 280 82 338 Q113 396 167 429.5 Q221 463 288 463 Q348 463 389.5 440 Q431 417 471 360 L483 452 L527 452 L471 0 L427 0 Z M293 421 Q238 421 193.5 393.5 Q149 366 123 318 Q97 270 97 211 Q97 160 118.5 119 Q140 78 178.5 54.5 Q217 31 264 31 Q317 31 362.5 61 Q408 91 435 141.5 Q462 192 462 250 Q462 299 440.5 338 Q419 377 380.5 399 Q342 421 293 421 Z " />
<glyph glyph-name="aogonek" unicode="&#x105;" horiz-adv-x="585" d="M471 0 Q422 -38 402.5 -63.5 Q383 -89 383 -115 Q383 -135 396 -146 Q409 -157 432 -157 Q460 -157 498 -142 L484 -183 Q450 -197 425 -197 Q386 -197 363 -176 Q340 -155 340 -120 Q340 -56 427 0 L436 80 Q391 29 352.5 9 Q314 -11 261 -11 Q200 -11 152.5 17 Q105 45 78 95 Q51 145 51 208 Q51 280 82 338 Q113 396 167 429.5 Q221 463 288 463 Q348 463 389.5 440 Q431 417 471 360 L483 452 L527 452 L471 0 Z M293 421 Q238 421 193.5 393.5 Q149 366 123 318 Q97 270 97 211 Q97 160 118.5 119 Q140 78 178.5 54.5 Q217 31 264 31 Q317 31 362.5 61 Q408 91 435 141.5 Q462 192 462 250 Q462 299 440.5 338 Q419 377 380.5 399 Q342 421 293 421 Z " />
<glyph glyph-name="aring" unicode="&#xe5;" horiz-adv-x="585" d="M334 690 Q369 690 393.5 665.5 Q418 641 418 606 Q418 570 393.5 545 Q369 520 333 520 Q298 520 273.5 545 Q249 570 249 606 Q249 641 274 665.5 Q299 690 334 690 Z M334 651 Q315 651 301.5 638 Q288 625 288 606 Q288 586 301 572.5 Q314 559 333 559 Q352 559 365.5 573 Q379 587 379 606 Q379 625 365.5 638 Q352 651 334 651 Z M427 0 L436 80 Q391 29 352.5 9 Q314 -11 261 -11 Q200 -11 152.5 17 Q105 45 78 95 Q51 145 51 208 Q51 280 82 338 Q113 396 167 429.5 Q221 463 288 463 Q348 463 389.5 440 Q431 417 471 360 L483 452 L527 452 L471 0 L427 0 Z M293 421 Q238 421 193.5 393.5 Q149 366 123 318 Q97 270 97 211 Q97 160 118.5 119 Q140 78 178.5 54.5 Q217 31 264 31 Q317 31 362.5 61 Q408 91 435 141.5 Q462 192 462 250 Q462 299 440.5 338 Q419 377 380.5 399 Q342 421 293 421 Z " />
<glyph glyph-name="aringacute" unicode="&#x1fb;" horiz-adv-x="585" d="M247 711 L377 852 L416 816 L272 688 L247 711 Z M334 690 Q369 690 393.5 665.5 Q418 641 418 606 Q418 570 393.5 545 Q369 520 333 520 Q298 520 273.5 545 Q249 570 249 606 Q249 641 274 665.5 Q299 690 334 690 Z M334 651 Q315 651 301.5 638 Q288 625 288 606 Q288 586 301 572.5 Q314 559 333 559 Q352 559 365.5 573 Q379 587 379 606 Q379 625 365.5 638 Q352 651 334 651 Z M427 0 L436 80 Q391 29 352.5 9 Q314 -11 261 -11 Q200 -11 152.5 17 Q105 45 78 95 Q51 145 51 208 Q51 280 82 338 Q113 396 167 429.5 Q221 463 288 463 Q348 463 389.5 440 Q431 417 471 360 L483 452 L527 452 L471 0 L427 0 Z M293 421 Q238 421 193.5 393.5 Q149 366 123 318 Q97 270 97 211 Q97 160 118.5 119 Q140 78 178.5 54.5 Q217 31 264 31 Q317 31 362.5 61 Q408 91 435 141.5 Q462 192 462 250 Q462 299 440.5 338 Q419 377 380.5 399 Q342 421 293 421 Z " />
<glyph glyph-name="atilde" unicode="&#xe3;" horiz-adv-x="585" d="M493 615 Q476 576 452 558 Q428 540 394 540 Q376 540 360 546.5 Q344 553 310 573 Q293 584 284 587.5 Q275 591 266 591 Q251 591 239.5 580.5 Q228 570 218 548 L181 558 Q197 596 218.5 614 Q240 632 269 632 Q287 632 301.5 626 Q316 620 354 597 Q379 581 398 581 Q415 581 428 590.5 Q441 600 457 626 L493 615 Z M427 0 L436 80 Q391 29 352.5 9 Q314 -11 261 -11 Q200 -11 152.5 17 Q105 45 78 95 Q51 145 51 208 Q51 280 82 338 Q113 396 167 429.5 Q221 463 288 463 Q348 463 389.5 440 Q431 417 471 360 L483 452 L527 452 L471 0 L427 0 Z M293 421 Q238 421 193.5 393.5 Q149 366 123 318 Q97 270 97 211 Q97 160 118.5 119 Q140 78 178.5 54.5 Q217 31 264 31 Q317 31 362.5 61 Q408 91 435 141.5 Q462 192 462 250 Q462 299 440.5 338 Q419 377 380.5 399 Q342 421 293 421 Z " />
<glyph glyph-name="ae" unicode="&#xe6;" horiz-adv-x="846" d="M410 190 Q410 150 419 123 Q428 96 449 76 Q472 53 504.5 40 Q537 27 574 27 Q620 27 654 43 Q688 59 724 97 L755 75 Q717 29 672.5 7 Q628 -15 574 -15 Q439 -15 385 105 Q366 47 321.5 16 Q277 -15 215 -15 Q165 -15 124.5 5 Q84 25 61 60 Q38 95 38 138 Q38 181 61.5 216.5 Q85 252 126.5 272 Q168 292 220 292 Q269 292 305 275.5 Q341 259 370 223 L374 260 L381 304 Q384 321 384 339 Q384 383 345.5 406 Q307 429 233 429 Q182 429 116 418 L122 460 Q188 471 238 471 Q322 471 368 442 Q388 429 399 414 Q410 399 417 371 Q461 428 498 449.5 Q535 471 589 471 Q680 471 732.5 406.5 Q785 342 786 232 L411 232 L410 190 Z M742 272 Q732 349 693 389 Q654 429 589 429 Q526 429 482 388.5 Q438 348 419 272 L742 272 Z M220 250 Q162 250 123.5 218 Q85 186 85 138 Q85 91 122 59 Q159 27 216 27 Q276 27 317 61 Q358 95 358 144 Q358 190 318.5 220 Q279 250 220 250 Z " />
<glyph glyph-name="aeacute" unicode="&#x1fd;" horiz-adv-x="846" d="M392 537 L521 678 L560 642 L416 514 L392 537 Z M410 190 Q410 150 419 123 Q428 96 449 76 Q472 53 504.5 40 Q537 27 574 27 Q620 27 654 43 Q688 59 724 97 L755 75 Q717 29 672.5 7 Q628 -15 574 -15 Q439 -15 385 105 Q366 47 321.5 16 Q277 -15 215 -15 Q165 -15 124.5 5 Q84 25 61 60 Q38 95 38 138 Q38 181 61.5 216.5 Q85 252 126.5 272 Q168 292 220 292 Q269 292 305 275.5 Q341 259 370 223 L374 260 L381 297 Q384 311 384 333 Q384 377 345 400.5 Q306 424 233 424 Q188 424 116 412 L122 454 Q194 466 238 466 Q322 466 368 436 Q388 423 399 408 Q410 393 417 365 Q461 423 497.5 444.5 Q534 466 589 466 Q679 466 732 402 Q785 338 786 232 L411 232 L410 190 Z M742 272 Q732 346 692.5 385 Q653 424 589 424 Q527 424 482.5 384 Q438 344 419 272 L742 272 Z M220 250 Q162 250 123.5 218 Q85 186 85 138 Q85 91 122 59 Q159 27 216 27 Q276 27 317 61 Q358 95 358 144 Q358 190 318.5 220 Q279 250 220 250 Z " />
<glyph glyph-name="b" unicode="b" horiz-adv-x="586" d="M141 373 Q181 422 222 442.5 Q263 463 319 463 Q380 463 427.5 435 Q475 407 501.5 357.5 Q528 308 528 244 Q528 197 512.5 152.5 Q497 108 468 71 Q401 -11 293 -11 Q232 -11 188.5 14 Q145 39 107 95 L95 0 L51 0 L153 824 L197 824 L141 373 Z M312 421 Q258 421 213.5 393 Q169 365 143.5 316.5 Q118 268 118 209 Q118 158 140 117.5 Q162 77 201 54 Q240 31 289 31 Q341 31 385 59.5 Q429 88 455 136 Q481 184 481 241 Q481 293 459.5 334 Q438 375 399.5 398 Q361 421 312 421 Z " />
<glyph glyph-name="c" unicode="c" horiz-adv-x="480" d="M446 354 Q404 394 371 409.5 Q338 425 292 425 Q236 425 191.5 397 Q147 369 121.5 319 Q96 269 96 207 Q96 125 145 76 Q194 27 276 27 Q316 27 346 40 Q376 53 414 87 L407 31 Q375 6 343.5 -4.5 Q312 -15 271 -15 Q206 -15 156 13 Q106 41 78 92 Q50 143 50 208 Q50 280 81.5 339.5 Q113 399 168 433 Q223 467 290 467 Q339 467 376 452 Q413 437 452 402 L446 354 Z " />
<glyph glyph-name="cacute" unicode="&#x107;" horiz-adv-x="480" d="M258 542 L386 684 L426 647 L281 520 L258 542 Z M446 354 Q404 394 371 409.5 Q338 425 292 425 Q236 425 191.5 397 Q147 369 121.5 319 Q96 269 96 207 Q96 125 145 76 Q194 27 276 27 Q316 27 346 40 Q376 53 414 87 L407 31 Q375 6 343.5 -4.5 Q312 -15 271 -15 Q206 -15 156 13 Q106 41 78 92 Q50 143 50 208 Q50 280 81.5 339.5 Q113 399 168 433 Q223 467 290 467 Q339 467 376 452 Q413 437 452 402 L446 354 Z " />
<glyph glyph-name="ccaron" unicode="&#x10d;" horiz-adv-x="480" d="M453 659 L303 520 L193 660 L224 687 L308 576 L427 687 L453 659 Z M446 354 Q404 394 371 409.5 Q338 425 292 425 Q236 425 191.5 397 Q147 369 121.5 319 Q96 269 96 207 Q96 125 145 76 Q194 27 276 27 Q316 27 346 40 Q376 53 414 87 L407 31 Q375 6 343.5 -4.5 Q312 -15 271 -15 Q206 -15 156 13 Q106 41 78 92 Q50 143 50 208 Q50 280 81.5 339.5 Q113 399 168 433 Q223 467 290 467 Q339 467 376 452 Q413 437 452 402 L446 354 Z " />
<glyph glyph-name="ccedilla" unicode="&#xe7;" horiz-adv-x="480" d="M446 354 Q404 394 371 409.5 Q338 425 292 425 Q236 425 191.5 397 Q147 369 121.5 319 Q96 269 96 207 Q96 125 145 76 Q194 27 276 27 Q316 27 346 40 Q376 53 414 87 L407 31 Q375 6 343.5 -4.5 Q312 -15 271 -15 Q206 -15 156 13 Q106 41 78 92 Q50 143 50 208 Q50 280 81.5 339.5 Q113 399 168 433 Q223 467 290 467 Q339 467 376 452 Q413 437 452 402 L446 354 Z M145 -202 L229 -53 L275 -79 L174 -220 L145 -202 Z " />
<glyph glyph-name="ccircumflex" unicode="&#x109;" horiz-adv-x="480" d="M169 548 L320 687 L429 546 L398 520 L313 629 L195 520 L169 548 Z M446 354 Q404 394 371 409.5 Q338 425 292 425 Q236 425 191.5 397 Q147 369 121.5 319 Q96 269 96 207 Q96 125 145 76 Q194 27 276 27 Q316 27 346 40 Q376 53 414 87 L407 31 Q375 6 343.5 -4.5 Q312 -15 271 -15 Q206 -15 156 13 Q106 41 78 92 Q50 143 50 208 Q50 280 81.5 339.5 Q113 399 168 433 Q223 467 290 467 Q339 467 376 452 Q413 437 452 402 L446 354 Z " />
<glyph glyph-name="cdotaccent" unicode="&#x10b;" horiz-adv-x="480" d="M316 623 Q331 623 340 613 Q349 603 349 586 Q349 569 336.5 555.5 Q324 542 308 542 Q294 542 284.5 552 Q275 562 275 577 Q275 595 287.5 609 Q300 623 316 623 Z M446 354 Q404 394 371 409.5 Q338 425 292 425 Q236 425 191.5 397 Q147 369 121.5 319 Q96 269 96 207 Q96 125 145 76 Q194 27 276 27 Q316 27 346 40 Q376 53 414 87 L407 31 Q375 6 343.5 -4.5 Q312 -15 271 -15 Q206 -15 156 13 Q106 41 78 92 Q50 143 50 208 Q50 280 81.5 339.5 Q113 399 168 433 Q223 467 290 467 Q339 467 376 452 Q413 437 452 402 L446 354 Z " />
<glyph glyph-name="d" unicode="d" horiz-adv-x="585" d="M427 0 L436 75 Q389 26 352 7.5 Q315 -11 262 -11 Q201 -11 153 17 Q105 45 78 94.5 Q51 144 51 207 Q51 278 82 336.5 Q113 395 166 429 Q219 463 284 463 Q345 463 389 437.5 Q433 412 470 354 L528 824 L573 824 L471 0 L427 0 Z M287 421 Q235 421 191.5 393 Q148 365 122.5 317 Q97 269 97 210 Q97 159 119.5 117.5 Q142 76 181 52.5 Q220 29 268 29 Q319 29 363 58.5 Q407 88 433 138 Q459 188 459 246 Q459 323 411 372 Q363 421 287 421 Z " />
<glyph glyph-name="eth" unicode="&#xf0;" horiz-adv-x="590" d="M165 823 Q255 801 318 754 L425 807 L447 774 L354 724 Q435 651 483.5 531 Q532 411 532 281 Q532 158 484 84 Q452 39 399.5 12 Q347 -15 288 -15 Q223 -15 168.5 15.5 Q114 46 82.5 98.5 Q51 151 51 214 Q51 283 84.5 341 Q118 399 174.5 433 Q231 467 298 467 Q355 467 398.5 446.5 Q442 426 480 381 Q465 472 418.5 561.5 Q372 651 313 704 L198 644 L176 679 L276 732 Q253 749 217 764.5 Q181 780 144 789 L165 823 Z M301 426 Q246 426 199 398 Q152 370 124.5 322 Q97 274 97 218 Q97 165 122.5 121.5 Q148 78 191.5 52.5 Q235 27 287 27 Q342 27 387 54 Q432 81 458 128 Q484 175 484 233 Q484 289 461 333 Q438 377 396 401.5 Q354 426 301 426 Z " />
<glyph glyph-name="dcaron" unicode="&#x10f;" horiz-adv-x="666" d="M641 646 L610 661 L695 828 L741 805 L641 646 Z M427 0 L436 75 Q389 26 352 7.5 Q315 -11 262 -11 Q201 -11 153 17 Q105 45 78 94.5 Q51 144 51 207 Q51 278 82 336.5 Q113 395 166 429 Q219 463 284 463 Q345 463 389 437.5 Q433 412 470 354 L528 824 L573 824 L471 0 L427 0 Z M287 421 Q235 421 191.5 393 Q148 365 122.5 317 Q97 269 97 210 Q97 159 119.5 117.5 Q142 76 181 52.5 Q220 29 268 29 Q319 29 363 58.5 Q407 88 433 138 Q459 188 459 246 Q459 323 411 372 Q363 421 287 421 Z " />
<glyph glyph-name="dslash" unicode="&#x111;" horiz-adv-x="585" d="M553 661 L471 0 L427 0 L436 75 Q389 26 352 7.5 Q315 -11 262 -11 Q201 -11 153 17 Q105 45 78 94.5 Q51 144 51 207 Q51 278 82 336.5 Q113 395 166 429 Q219 463 284 463 Q345 463 389 437.5 Q433 412 470 354 L507 661 L370 661 L375 701 L513 701 L528 824 L573 824 L557 701 L633 701 L627 661 L553 661 Z M287 421 Q235 421 191.5 393 Q148 365 122.5 317 Q97 269 97 210 Q97 159 119.5 117.5 Q142 76 181 52.5 Q220 29 268 29 Q319 29 363 58.5 Q407 88 433 138 Q459 188 459 246 Q459 323 411 372 Q363 421 287 421 Z " />
<glyph glyph-name="e" unicode="e" horiz-adv-x="530" d="M94 202 Q94 125 141.5 76 Q189 27 264 27 Q308 27 340.5 44 Q373 61 407 102 L437 80 Q396 27 357 6 Q318 -15 261 -15 Q198 -15 150.5 12.5 Q103 40 76.5 89 Q50 138 50 202 Q50 278 79 338.5 Q108 399 158.5 433.5 Q209 468 273 468 Q335 468 383 436 Q431 404 453 347 Q461 325 465.5 299 Q470 273 471 231 L94 231 L94 202 Z M427 271 Q424 301 418.5 319.5 Q413 338 402 356 Q381 389 347 407.5 Q313 426 273 426 Q236 426 201.5 409.5 Q167 393 142 364 Q127 344 118 324 Q109 304 101 271 L427 271 Z " />
<glyph glyph-name="eacute" unicode="&#xe9;" horiz-adv-x="530" d="M250 542 L380 684 L418 647 L273 520 L250 542 Z M94 202 Q94 125 141.5 76 Q189 27 264 27 Q308 27 340.5 44 Q373 61 407 102 L437 80 Q396 27 357 6 Q318 -15 261 -15 Q198 -15 150.5 12.5 Q103 40 76.5 89 Q50 138 50 202 Q50 278 79 338.5 Q108 399 158.5 433.5 Q209 468 273 468 Q335 468 383 436 Q431 404 453 347 Q461 325 465.5 299 Q470 273 471 231 L94 231 L94 202 Z M427 271 Q424 301 418.5 319.5 Q413 338 402 356 Q381 389 347 407.5 Q313 426 273 426 Q236 426 201.5 409.5 Q167 393 142 364 Q127 344 118 324 Q109 304 101 271 L427 271 Z " />
<glyph glyph-name="ebreve" unicode="&#x115;" horiz-adv-x="530" d="M224 666 Q227 613 245 590 Q263 567 301 567 Q338 567 362.5 591 Q387 615 402 666 L444 666 Q431 601 391.5 564 Q352 527 295 527 Q241 527 212 562.5 Q183 598 182 666 L224 666 Z M94 202 Q94 125 141.5 76 Q189 27 264 27 Q308 27 340.5 44 Q373 61 407 102 L437 80 Q396 27 357 6 Q318 -15 261 -15 Q198 -15 150.5 12.5 Q103 40 76.5 89 Q50 138 50 202 Q50 278 79 338.5 Q108 399 158.5 433.5 Q209 468 273 468 Q335 468 383 436 Q431 404 453 347 Q461 325 465.5 299 Q470 273 471 231 L94 231 L94 202 Z M427 271 Q424 301 418.5 319.5 Q413 338 402 356 Q381 389 347 407.5 Q313 426 273 426 Q236 426 201.5 409.5 Q167 393 142 364 Q127 344 118 324 Q109 304 101 271 L427 271 Z " />
<glyph glyph-name="ecaron" unicode="&#x11b;" horiz-adv-x="530" d="M445 659 L295 520 L185 660 L217 687 L302 576 L420 687 L445 659 Z M94 202 Q94 125 141.5 76 Q189 27 264 27 Q308 27 340.5 44 Q373 61 407 102 L437 80 Q396 27 357 6 Q318 -15 261 -15 Q198 -15 150.5 12.5 Q103 40 76.5 89 Q50 138 50 202 Q50 278 79 338.5 Q108 399 158.5 433.5 Q209 468 273 468 Q335 468 383 436 Q431 404 453 347 Q461 325 465.5 299 Q470 273 471 231 L94 231 L94 202 Z M427 271 Q424 301 418.5 319.5 Q413 338 402 356 Q381 389 347 407.5 Q313 426 273 426 Q236 426 201.5 409.5 Q167 393 142 364 Q127 344 118 324 Q109 304 101 271 L427 271 Z " />
<glyph glyph-name="ecircumflex" unicode="&#xea;" horiz-adv-x="530" d="M171 548 L321 687 L431 546 L399 520 L314 629 L197 520 L171 548 Z M94 202 Q94 125 141.5 76 Q189 27 264 27 Q308 27 340.5 44 Q373 61 407 102 L437 80 Q396 27 357 6 Q318 -15 261 -15 Q198 -15 150.5 12.5 Q103 40 76.5 89 Q50 138 50 202 Q50 278 79 338.5 Q108 399 158.5 433.5 Q209 468 273 468 Q335 468 383 436 Q431 404 453 347 Q461 325 465.5 299 Q470 273 471 231 L94 231 L94 202 Z M427 271 Q424 301 418.5 319.5 Q413 338 402 356 Q381 389 347 407.5 Q313 426 273 426 Q236 426 201.5 409.5 Q167 393 142 364 Q127 344 118 324 Q109 304 101 271 L427 271 Z " />
<glyph glyph-name="edieresis" unicode="&#xeb;" horiz-adv-x="530" d="M394 620 Q408 620 417 610.5 Q426 601 426 586 Q426 569 414 555.5 Q402 542 386 542 Q373 542 364 552 Q355 562 355 577 Q355 594 366.5 607 Q378 620 394 620 Z M221 619 Q234 619 243 609 Q252 599 252 584 Q252 567 240 554.5 Q228 542 212 542 Q199 542 190 552 Q181 562 181 576 Q181 593 193 606 Q205 619 221 619 Z M94 202 Q94 125 141.5 76 Q189 27 264 27 Q308 27 340.5 44 Q373 61 407 102 L437 80 Q396 27 357 6 Q318 -15 261 -15 Q198 -15 150.5 12.5 Q103 40 76.5 89 Q50 138 50 202 Q50 278 79 338.5 Q108 399 158.5 433.5 Q209 468 273 468 Q335 468 383 436 Q431 404 453 347 Q461 325 465.5 299 Q470 273 471 231 L94 231 L94 202 Z M427 271 Q424 301 418.5 319.5 Q413 338 402 356 Q381 389 347 407.5 Q313 426 273 426 Q236 426 201.5 409.5 Q167 393 142 364 Q127 344 118 324 Q109 304 101 271 L427 271 Z " />
<glyph glyph-name="edotaccent" unicode="&#x117;" horiz-adv-x="530" d="M308 623 Q323 623 332 612.5 Q341 602 341 586 Q341 569 328.5 555.5 Q316 542 299 542 Q285 542 275.5 552 Q266 562 266 577 Q266 595 279 609 Q292 623 308 623 Z M94 202 Q94 125 141.5 76 Q189 27 264 27 Q308 27 340.5 44 Q373 61 407 102 L437 80 Q396 27 357 6 Q318 -15 261 -15 Q198 -15 150.5 12.5 Q103 40 76.5 89 Q50 138 50 202 Q50 278 79 338.5 Q108 399 158.5 433.5 Q209 468 273 468 Q335 468 383 436 Q431 404 453 347 Q461 325 465.5 299 Q470 273 471 231 L94 231 L94 202 Z M427 271 Q424 301 418.5 319.5 Q413 338 402 356 Q381 389 347 407.5 Q313 426 273 426 Q236 426 201.5 409.5 Q167 393 142 364 Q127 344 118 324 Q109 304 101 271 L427 271 Z " />
<glyph glyph-name="egrave" unicode="&#xe8;" horiz-adv-x="530" d="M344 538 L316 520 L218 652 L262 684 L344 538 Z M94 202 Q94 125 141.5 76 Q189 27 264 27 Q308 27 340.5 44 Q373 61 407 102 L437 80 Q396 27 357 6 Q318 -15 261 -15 Q198 -15 150.5 12.5 Q103 40 76.5 89 Q50 138 50 202 Q50 278 79 338.5 Q108 399 158.5 433.5 Q209 468 273 468 Q335 468 383 436 Q431 404 453 347 Q461 325 465.5 299 Q470 273 471 231 L94 231 L94 202 Z M427 271 Q424 301 418.5 319.5 Q413 338 402 356 Q381 389 347 407.5 Q313 426 273 426 Q236 426 201.5 409.5 Q167 393 142 364 Q127 344 118 324 Q109 304 101 271 L427 271 Z " />
<glyph glyph-name="emacron" unicode="&#x113;" horiz-adv-x="530" d="M441 562 L163 562 L168 605 L446 605 L441 562 Z M94 202 Q94 125 141.5 76 Q189 27 264 27 Q308 27 340.5 44 Q373 61 407 102 L437 80 Q396 27 357 6 Q318 -15 261 -15 Q198 -15 150.5 12.5 Q103 40 76.5 89 Q50 138 50 202 Q50 278 79 338.5 Q108 399 158.5 433.5 Q209 468 273 468 Q335 468 383 436 Q431 404 453 347 Q461 325 465.5 299 Q470 273 471 231 L94 231 L94 202 Z M427 271 Q424 301 418.5 319.5 Q413 338 402 356 Q381 389 347 407.5 Q313 426 273 426 Q236 426 201.5 409.5 Q167 393 142 364 Q127 344 118 324 Q109 304 101 271 L427 271 Z " />
<glyph glyph-name="eogonek" unicode="&#x119;" horiz-adv-x="530" d="M310 -193 Q272 -193 249 -172 Q226 -151 226 -116 Q226 -87 243.5 -60.5 Q261 -34 293 -14 Q277 -15 260 -15 Q198 -15 150 12.5 Q102 40 76 89 Q50 138 50 202 Q50 278 79 338.5 Q108 399 158.5 433.5 Q209 468 273 468 Q335 468 383 436 Q431 404 453 347 Q461 325 465.5 299 Q470 273 471 231 L94 231 L94 202 Q94 125 141.5 76 Q189 27 264 27 Q308 27 340.5 44 Q373 61 407 102 L437 80 Q416 53 402 39 Q388 25 367 11 Q316 -22 292.5 -51.5 Q269 -81 269 -113 Q269 -132 282.5 -143 Q296 -154 318 -154 Q339 -154 384 -139 L368 -180 Q339 -193 310 -193 Z M427 271 Q424 302 418.5 320.5 Q413 339 402 356 Q381 389 347 407.5 Q313 426 273 426 Q235 426 200.5 410 Q166 394 142 364 Q127 344 118 324 Q109 304 101 271 L427 271 Z " />
<glyph glyph-name="uni0259" unicode="&#x259;" horiz-adv-x="527" d="M424 251 Q424 328 376.5 377 Q329 426 253 426 Q209 426 177 409 Q145 392 111 351 L80 373 Q120 425 160 446.5 Q200 468 257 468 Q319 468 367 440.5 Q415 413 441.5 364 Q468 315 468 251 Q468 175 439 114.5 Q410 54 359 19.5 Q308 -15 244 -15 Q183 -15 135 17.5 Q87 50 64 106 Q56 128 52 153.5 Q48 179 46 223 L424 223 L424 251 Z M90 182 Q94 151 99 132.5 Q104 114 115 97 Q137 64 170.5 45.5 Q204 27 244 27 Q283 27 317.5 43 Q352 59 375 89 Q391 109 400 129 Q409 149 417 182 L90 182 Z " />
<glyph glyph-name="f" unicode="f" horiz-adv-x="279" d="M55 0 L106 411 L54 411 L59 452 L111 452 L141 699 Q147 743 157.5 769 Q168 795 185 812 Q199 825 218.5 832.5 Q238 840 258 840 Q277 840 306 832 L301 789 Q280 798 261 798 Q226 798 208.5 772.5 Q191 747 184 684 L156 452 L236 452 L232 411 L150 411 L101 0 L55 0 Z " />
<glyph glyph-name="g" unicode="g" horiz-adv-x="584" d="M469 -10 Q460 -86 446.5 -128 Q433 -170 407 -202 Q378 -237 333 -256 Q288 -275 233 -275 Q180 -275 138 -258 Q96 -241 70 -210 Q50 -187 42 -159 Q34 -131 32 -82 L73 -82 Q76 -120 82.5 -141.5 Q89 -163 103 -182 Q145 -233 233 -233 Q279 -233 315 -218 Q351 -203 374 -174 Q393 -150 404.5 -115 Q416 -80 423 -26 L434 72 Q387 25 349.5 7 Q312 -11 262 -11 Q202 -11 154 18 Q106 47 78.5 97 Q51 147 51 208 Q51 260 70.5 310.5 Q90 361 125 398 Q185 463 287 463 Q352 463 392.5 439 Q433 415 469 355 L481 452 L525 452 L469 -10 Z M293 421 Q238 421 193.5 393.5 Q149 366 123 318 Q97 270 97 211 Q97 175 109 141.5 Q121 108 142 85 Q165 60 200 44.5 Q235 29 267 29 Q319 29 363 57.5 Q407 86 433 135 Q459 184 459 241 Q459 322 413 371.5 Q367 421 293 421 Z " />
<glyph glyph-name="gbreve" unicode="&#x11f;" horiz-adv-x="584" d="M252 666 Q254 614 272 590.5 Q290 567 328 567 Q366 567 390.5 591 Q415 615 431 666 L472 666 Q459 601 419.5 564 Q380 527 323 527 Q269 527 240 562.5 Q211 598 210 666 L252 666 Z M469 -10 Q460 -86 446.5 -128 Q433 -170 407 -202 Q378 -237 333 -256 Q288 -275 233 -275 Q180 -275 138 -258 Q96 -241 70 -210 Q50 -187 42 -159 Q34 -131 32 -82 L73 -82 Q76 -120 82.5 -141.5 Q89 -163 103 -182 Q145 -233 233 -233 Q279 -233 315 -218 Q351 -203 374 -174 Q393 -150 404.5 -115 Q416 -80 423 -26 L434 72 Q387 25 349.5 7 Q312 -11 262 -11 Q202 -11 154 18 Q106 47 78.5 97 Q51 147 51 208 Q51 260 70.5 310.5 Q90 361 125 398 Q185 463 287 463 Q352 463 392.5 439 Q433 415 469 355 L481 452 L525 452 L469 -10 Z M293 421 Q238 421 193.5 393.5 Q149 366 123 318 Q97 270 97 211 Q97 175 109 141.5 Q121 108 142 85 Q165 60 200 44.5 Q235 29 267 29 Q319 29 363 57.5 Q407 86 433 135 Q459 184 459 241 Q459 322 413 371.5 Q367 421 293 421 Z " />
<glyph glyph-name="gcaron" unicode="&#x1e7;" horiz-adv-x="584" d="M471 659 L321 520 L212 660 L243 687 L328 576 L446 687 L471 659 Z M469 -10 Q460 -86 446.5 -128 Q433 -170 407 -202 Q378 -237 333 -256 Q288 -275 233 -275 Q180 -275 138 -258 Q96 -241 70 -210 Q50 -187 42 -159 Q34 -131 32 -82 L73 -82 Q76 -120 82.5 -141.5 Q89 -163 103 -182 Q145 -233 233 -233 Q279 -233 315 -218 Q351 -203 374 -174 Q393 -150 404.5 -115 Q416 -80 423 -26 L434 72 Q387 25 349.5 7 Q312 -11 262 -11 Q202 -11 154 18 Q106 47 78.5 97 Q51 147 51 208 Q51 260 70.5 310.5 Q90 361 125 398 Q185 463 287 463 Q352 463 392.5 439 Q433 415 469 355 L481 452 L525 452 L469 -10 Z M293 421 Q238 421 193.5 393.5 Q149 366 123 318 Q97 270 97 211 Q97 175 109 141.5 Q121 108 142 85 Q165 60 200 44.5 Q235 29 267 29 Q319 29 363 57.5 Q407 86 433 135 Q459 184 459 241 Q459 322 413 371.5 Q367 421 293 421 Z " />
<glyph glyph-name="gcircumflex" unicode="&#x11d;" horiz-adv-x="584" d="M197 548 L347 687 L457 546 L426 520 L341 629 L223 520 L197 548 Z M469 -10 Q460 -86 446.5 -128 Q433 -170 407 -202 Q378 -237 333 -256 Q288 -275 233 -275 Q180 -275 138 -258 Q96 -241 70 -210 Q50 -187 42 -159 Q34 -131 32 -82 L73 -82 Q76 -120 82.5 -141.5 Q89 -163 103 -182 Q145 -233 233 -233 Q279 -233 315 -218 Q351 -203 374 -174 Q393 -150 404.5 -115 Q416 -80 423 -26 L434 72 Q387 25 349.5 7 Q312 -11 262 -11 Q202 -11 154 18 Q106 47 78.5 97 Q51 147 51 208 Q51 260 70.5 310.5 Q90 361 125 398 Q185 463 287 463 Q352 463 392.5 439 Q433 415 469 355 L481 452 L525 452 L469 -10 Z M293 421 Q238 421 193.5 393.5 Q149 366 123 318 Q97 270 97 211 Q97 175 109 141.5 Q121 108 142 85 Q165 60 200 44.5 Q235 29 267 29 Q319 29 363 57.5 Q407 86 433 135 Q459 184 459 241 Q459 322 413 371.5 Q367 421 293 421 Z " />
<glyph glyph-name="uni0123" unicode="&#x123;" horiz-adv-x="584" d="M381 695 L411 680 L325 520 L280 544 L381 695 Z M469 -10 Q460 -86 446.5 -128 Q433 -170 407 -202 Q378 -237 333 -256 Q288 -275 233 -275 Q180 -275 138 -258 Q96 -241 70 -210 Q50 -187 42 -159 Q34 -131 32 -82 L73 -82 Q76 -120 82.5 -141.5 Q89 -163 103 -182 Q145 -233 233 -233 Q279 -233 315 -218 Q351 -203 374 -174 Q393 -150 404.5 -115 Q416 -80 423 -26 L434 72 Q387 25 349.5 7 Q312 -11 262 -11 Q202 -11 154 18 Q106 47 78.5 97 Q51 147 51 208 Q51 260 70.5 310.5 Q90 361 125 398 Q185 463 287 463 Q352 463 392.5 439 Q433 415 469 355 L481 452 L525 452 L469 -10 Z M293 421 Q238 421 193.5 393.5 Q149 366 123 318 Q97 270 97 211 Q97 175 109 141.5 Q121 108 142 85 Q165 60 200 44.5 Q235 29 267 29 Q319 29 363 57.5 Q407 86 433 135 Q459 184 459 241 Q459 322 413 371.5 Q367 421 293 421 Z " />
<glyph glyph-name="gdotaccent" unicode="&#x121;" horiz-adv-x="584" d="M336 623 Q350 623 359 612.5 Q368 602 368 586 Q368 569 355.5 555.5 Q343 542 327 542 Q312 542 302.5 552 Q293 562 293 577 Q293 595 306 609 Q319 623 336 623 Z M469 -10 Q460 -86 446.5 -128 Q433 -170 407 -202 Q378 -237 333 -256 Q288 -275 233 -275 Q180 -275 138 -258 Q96 -241 70 -210 Q50 -187 42 -159 Q34 -131 32 -82 L73 -82 Q76 -120 82.5 -141.5 Q89 -163 103 -182 Q145 -233 233 -233 Q279 -233 315 -218 Q351 -203 374 -174 Q393 -150 404.5 -115 Q416 -80 423 -26 L434 72 Q387 25 349.5 7 Q312 -11 262 -11 Q202 -11 154 18 Q106 47 78.5 97 Q51 147 51 208 Q51 260 70.5 310.5 Q90 361 125 398 Q185 463 287 463 Q352 463 392.5 439 Q433 415 469 355 L481 452 L525 452 L469 -10 Z M293 421 Q238 421 193.5 393.5 Q149 366 123 318 Q97 270 97 211 Q97 175 109 141.5 Q121 108 142 85 Q165 60 200 44.5 Q235 29 267 29 Q319 29 363 57.5 Q407 86 433 135 Q459 184 459 241 Q459 322 413 371.5 Q367 421 293 421 Z " />
<glyph glyph-name="h" unicode="h" horiz-adv-x="487" d="M142 386 Q179 429 210 446 Q241 463 283 463 Q344 463 377.5 429 Q411 395 411 333 Q411 317 407 280 L373 0 L328 0 L362 273 Q367 320 367 341 Q367 379 344.5 400 Q322 421 281 421 Q250 421 218 407 Q186 393 166 371 Q150 353 141 328 Q132 303 127 258 L95 0 L51 0 L153 824 L197 824 L142 386 Z " />
<glyph glyph-name="hbar" unicode="&#x127;" horiz-adv-x="487" d="M176 661 L142 386 Q179 429 210 446 Q241 463 283 463 Q345 463 378 429 Q411 395 411 332 Q411 317 407 280 L373 0 L328 0 L362 273 Q367 320 367 341 Q367 379 344.5 400 Q322 421 281 421 Q250 421 218 407 Q186 393 166 371 Q150 353 141 328 Q132 303 127 258 L95 0 L51 0 L132 661 L56 661 L61 701 L137 701 L153 824 L197 824 L182 701 L319 701 L314 661 L176 661 Z " />
<glyph glyph-name="hcircumflex" unicode="&#x125;" horiz-adv-x="487" d="M92 868 L250 994 L370 864 L337 834 L244 933 L119 834 L92 868 Z M142 386 Q179 429 210 446 Q241 463 283 463 Q344 463 377.5 429 Q411 395 411 333 Q411 317 407 280 L373 0 L328 0 L362 273 Q367 320 367 341 Q367 379 344.5 400 Q322 421 281 421 Q250 421 218 407 Q186 393 166 371 Q150 353 141 328 Q132 303 127 258 L95 0 L51 0 L153 824 L197 824 L142 386 Z " />
<glyph glyph-name="i" unicode="i" horiz-adv-x="210" d="M153 667 Q165 667 173 658 Q181 649 181 636 Q181 621 170.5 609.5 Q160 598 146 598 Q134 598 126 607 Q118 616 118 629 Q118 646 127.5 656.5 Q137 667 153 667 Z M51 0 L106 452 L151 452 L95 0 L51 0 Z " />
<glyph glyph-name="dotlessi" unicode="&#x131;" horiz-adv-x="210" d="M51 0 L106 452 L151 452 L95 0 L51 0 Z " />
<glyph glyph-name="iacute" unicode="&#xed;" horiz-adv-x="210" d="M107 542 L229 684 L268 647 L131 520 L107 542 Z M51 0 L106 452 L151 452 L95 0 L51 0 Z " />
<glyph glyph-name="ibreve" unicode="&#x12d;" horiz-adv-x="210" d="M88 666 Q90 613 103 590 Q116 567 144 567 Q200 567 221 666 L263 666 Q253 602 219 564.5 Q185 527 138 527 Q94 527 70.5 562.5 Q47 598 46 666 L88 666 Z M51 0 L106 452 L151 452 L95 0 L51 0 Z " />
<glyph glyph-name="icircumflex" unicode="&#xee;" horiz-adv-x="210" d="M27 546 L158 687 L249 545 L217 520 L153 625 L54 520 L27 546 Z M51 0 L106 452 L150 452 L95 0 L51 0 Z " />
<glyph glyph-name="idieresis" unicode="&#xef;" horiz-adv-x="210" d="M207 620 Q221 620 229.5 610.5 Q238 601 238 586 Q238 569 226.5 555.5 Q215 542 199 542 Q185 542 176 552 Q167 562 167 577 Q167 594 179 607 Q191 620 207 620 Z M93 619 Q106 619 114.5 609.5 Q123 600 123 584 Q123 567 111.5 554.5 Q100 542 84 542 Q71 542 61.5 552 Q52 562 52 576 Q52 593 64.5 606 Q77 619 93 619 Z M51 0 L106 452 L151 452 L95 0 L51 0 Z " />
<glyph glyph-name="igrave" unicode="&#xec;" horiz-adv-x="210" d="M166 538 L139 520 L49 652 L93 684 L166 538 Z M51 0 L106 452 L151 452 L95 0 L51 0 Z " />
<glyph glyph-name="ij" unicode="&#x133;" horiz-adv-x="425" d="M153 667 Q165 667 173 658 Q181 649 181 636 Q181 621 170.5 609.5 Q160 598 146 598 Q134 598 126 607 Q118 616 118 629 Q118 646 127.5 656.5 Q137 667 153 667 Z M51 0 L106 452 L151 452 L95 0 L51 0 Z M371 667 Q384 667 391 659 Q398 651 398 637 Q398 622 387.5 610.5 Q377 599 364 599 Q351 599 343.5 608 Q336 617 336 631 Q336 646 346 656.5 Q356 667 371 667 Z M160 -276 Q137 -276 118 -269 L122 -227 Q142 -233 159 -233 Q202 -233 223.5 -204.5 Q245 -176 253 -110 L322 452 L366 452 L296 -119 Q288 -192 259 -231 Q224 -276 160 -276 Z " />
<glyph glyph-name="imacron" unicode="&#x12b;" horiz-adv-x="210" d="M231 562 L43 562 L49 605 L236 605 L231 562 Z M52 0 L107 452 L151 452 L96 0 L52 0 Z " />
<glyph glyph-name="iogonek" unicode="&#x12f;" horiz-adv-x="210" d="M154 667 Q167 667 174.5 658.5 Q182 650 182 636 Q182 621 171.5 609.5 Q161 598 147 598 Q135 598 127 607 Q119 616 119 629 Q119 646 128.5 656.5 Q138 667 154 667 Z M96 0 Q58 -37 42.5 -64 Q27 -91 27 -119 Q27 -157 68 -157 Q91 -157 124 -144 L110 -185 Q94 -192 83.5 -194.5 Q73 -197 59 -197 Q23 -197 3.5 -177 Q-16 -157 -16 -122 Q-16 -58 51 0 L107 452 L151 452 L96 0 Z " />
<glyph glyph-name="itilde" unicode="&#x129;" horiz-adv-x="210" d="M298 615 Q282 576 258 558 Q234 540 200 540 Q182 540 165.5 546.5 Q149 553 115 573 Q89 591 71 591 Q42 591 24 548 L-14 558 Q3 596 24.5 614 Q46 632 75 632 Q92 632 107 626 Q122 620 159 597 Q186 581 203 581 Q221 581 233.5 590.5 Q246 600 262 626 L298 615 Z M51 0 L106 452 L151 452 L95 0 L51 0 Z " />
<glyph glyph-name="j" unicode="j" horiz-adv-x="210" d="M156 667 Q169 667 176 659 Q183 651 183 637 Q183 622 172.5 610.5 Q162 599 149 599 Q136 599 128.5 608 Q121 617 121 631 Q121 646 131 656.5 Q141 667 156 667 Z M-55 -276 Q-78 -276 -97 -269 L-93 -227 Q-73 -233 -56 -233 Q-13 -233 8.5 -204.5 Q30 -176 38 -110 L107 452 L151 452 L81 -119 Q73 -192 44 -231 Q9 -276 -55 -276 Z " />
<glyph glyph-name="uni0237" unicode="&#x237;" horiz-adv-x="210" d="M-55 -276 Q-78 -276 -97 -269 L-93 -227 Q-73 -233 -56 -233 Q-13 -233 8.5 -204.5 Q30 -176 38 -110 L107 452 L151 452 L81 -119 Q73 -192 44 -231 Q9 -276 -55 -276 Z " />
<glyph glyph-name="jcircumflex" unicode="&#x135;" horiz-adv-x="210" d="M5 548 L155 687 L264 546 L233 520 L148 629 L31 520 L5 548 Z M-55 -276 Q-78 -276 -97 -269 L-93 -227 Q-73 -233 -56 -233 Q-13 -233 8.5 -204.5 Q30 -176 38 -110 L107 452 L151 452 L81 -119 Q73 -192 44 -231 Q9 -276 -55 -276 Z " />
<glyph glyph-name="k" unicode="k" horiz-adv-x="461" d="M197 824 L127 259 L364 452 L436 452 L172 244 L429 0 L364 0 L123 228 L95 0 L51 0 L153 824 L197 824 Z " />
<glyph glyph-name="uni0137" unicode="&#x137;" horiz-adv-x="461" d="M197 824 L127 259 L364 452 L436 452 L172 244 L429 0 L364 0 L123 228 L95 0 L51 0 L153 824 L197 824 Z M141 -227 L111 -212 L195 -53 L242 -77 L141 -227 Z " />
<glyph glyph-name="kgreenlandic" unicode="&#x138;" horiz-adv-x="461" d="M151 452 L127 259 L364 452 L436 452 L172 244 L429 0 L364 0 L123 228 L95 0 L51 0 L106 452 L151 452 Z " />
<glyph glyph-name="l" unicode="l" horiz-adv-x="210" d="M51 0 L153 824 L197 824 L95 0 L51 0 Z " />
<glyph glyph-name="lacute" unicode="&#x13a;" horiz-adv-x="210" d="M146 885 L269 1022 L307 990 L173 862 L146 885 Z M51 0 L153 824 L197 824 L95 0 L51 0 Z " />
<glyph glyph-name="lcaron" unicode="&#x13e;" horiz-adv-x="290" d="M264 646 L234 661 L319 828 L365 805 L264 646 Z M51 0 L153 824 L197 824 L95 0 L51 0 Z " />
<glyph glyph-name="uni013C" unicode="&#x13c;" horiz-adv-x="210" d="M51 0 L153 824 L197 824 L95 0 L51 0 Z M-9 -227 L-40 -212 L45 -53 L92 -77 L-9 -227 Z " />
<glyph glyph-name="ldot" unicode="&#x140;" horiz-adv-x="313" d="M51 0 L153 824 L197 824 L95 0 L51 0 Z M278 438 Q300 438 314.5 423 Q329 408 329 385 Q329 363 313 347 Q297 331 275 331 Q253 331 239 346 Q225 361 225 383 Q225 407 240 422.5 Q255 438 278 438 Z " />
<glyph glyph-name="lslash" unicode="&#x142;" horiz-adv-x="218" d="M236 494 L229 442 L147 384 L99 0 L55 0 L99 360 L17 303 L24 356 L106 414 L156 824 L201 824 L154 436 L236 494 Z " />
<glyph glyph-name="m" unicode="m" horiz-adv-x="727" d="M142 386 Q174 427 206.5 445 Q239 463 279 463 Q323 463 350 442 Q377 421 393 374 Q429 423 461 443 Q493 463 533 463 Q587 463 619.5 430 Q652 397 652 342 Q652 325 649 298 L612 0 L567 0 L603 294 Q608 320 608 348 Q608 379 586 400 Q564 421 531 421 Q503 421 473 405.5 Q443 390 423 365 Q407 347 400 327 Q393 307 389 270 L355 0 L311 0 L344 270 Q350 312 350 340 Q350 378 329.5 399.5 Q309 421 273 421 Q248 421 220 409 Q192 397 172 377 Q153 357 142.5 330.5 Q132 304 128 261 L95 0 L51 0 L106 452 L150 452 L142 386 Z " />
<glyph glyph-name="n" unicode="n" horiz-adv-x="487" d="M142 383 Q179 427 210.5 445 Q242 463 285 463 Q343 463 377 430 Q411 397 411 340 Q411 322 405 262 L373 0 L328 0 L360 261 Q367 310 367 341 Q367 378 344 399.5 Q321 421 280 421 Q251 421 221.5 408.5 Q192 396 171 374 Q151 353 141.5 329 Q132 305 128 261 L95 0 L51 0 L106 452 L150 452 L142 383 Z " />
<glyph glyph-name="nacute" unicode="&#x144;" horiz-adv-x="487" d="M227 542 L356 684 L395 647 L251 520 L227 542 Z M142 383 Q179 427 210.5 445 Q242 463 285 463 Q343 463 377 430 Q411 397 411 340 Q411 322 405 262 L373 0 L328 0 L360 261 Q367 310 367 341 Q367 378 344 399.5 Q321 421 280 421 Q251 421 221.5 408.5 Q192 396 171 374 Q151 353 141.5 329 Q132 305 128 261 L95 0 L51 0 L106 452 L150 452 L142 383 Z " />
<glyph glyph-name="napostrophe" unicode="&#x149;" horiz-adv-x="590" d="M125 510 L234 705 L272 685 L151 495 L125 510 Z M245 383 Q281 427 313 445 Q345 463 388 463 Q446 463 480 430 Q514 397 514 340 Q514 312 507 262 L475 0 L431 0 L462 261 Q470 310 470 340 Q470 377 446.5 399 Q423 421 383 421 Q354 421 324.5 408.5 Q295 396 273 374 Q254 354 244.5 330 Q235 306 229 261 L198 0 L154 0 L209 452 L253 452 L245 383 Z " />
<glyph glyph-name="ncaron" unicode="&#x148;" horiz-adv-x="487" d="M423 659 L272 520 L163 660 L194 687 L279 576 L397 687 L423 659 Z M142 383 Q179 427 210.5 445 Q242 463 285 463 Q343 463 377 430 Q411 397 411 340 Q411 322 405 262 L373 0 L328 0 L360 261 Q367 310 367 341 Q367 378 344 399.5 Q321 421 280 421 Q251 421 221.5 408.5 Q192 396 171 374 Q151 353 141.5 329 Q132 305 128 261 L95 0 L51 0 L106 452 L150 452 L142 383 Z " />
<glyph glyph-name="uni0146" unicode="&#x146;" horiz-adv-x="487" d="M142 383 Q179 427 210.5 445 Q242 463 285 463 Q343 463 377 430 Q411 397 411 340 Q411 322 405 262 L373 0 L328 0 L360 261 Q367 310 367 341 Q367 378 344 399.5 Q321 421 280 421 Q251 421 221.5 408.5 Q192 396 171 374 Q151 353 141.5 329 Q132 305 128 261 L95 0 L51 0 L106 452 L150 452 L142 383 Z M142 -227 L113 -212 L198 -53 L243 -77 L142 -227 Z " />
<glyph glyph-name="eng" unicode="&#x14b;" horiz-adv-x="487" d="M142 383 Q179 427 210.5 445 Q242 463 285 463 Q343 463 377 430 Q411 397 411 340 Q411 322 405 262 L373 0 Q363 -76 337 -107 Q318 -129 290.5 -141.5 Q263 -154 234 -154 Q220 -154 208 -150.5 Q196 -147 193 -146 L199 -105 Q218 -114 232 -114 Q275 -114 298.5 -84.5 Q322 -55 329 9 L360 261 Q367 310 367 341 Q367 378 344 399.5 Q321 421 280 421 Q251 421 221.5 408.5 Q192 396 171 374 Q151 353 141.5 329 Q132 305 128 261 L95 0 L51 0 L106 452 L150 452 L142 383 Z " />
<glyph glyph-name="ntilde" unicode="&#xf1;" horiz-adv-x="487" d="M440 615 Q423 576 399 558 Q375 540 341 540 Q323 540 307 546 Q291 552 257 573 Q240 584 230.5 587.5 Q221 591 212 591 Q182 591 164 548 L128 558 Q145 596 166 614 Q187 632 215 632 Q233 632 248 626 Q263 620 301 597 Q315 588 324.5 584.5 Q334 581 345 581 Q362 581 374.5 590.5 Q387 600 403 626 L440 615 Z M142 383 Q179 427 210.5 445 Q242 463 285 463 Q343 463 377 430 Q411 397 411 340 Q411 322 405 262 L373 0 L328 0 L360 261 Q367 310 367 341 Q367 378 344 399.5 Q321 421 280 421 Q251 421 221.5 408.5 Q192 396 171 374 Q151 353 141.5 329 Q132 305 128 261 L95 0 L51 0 L106 452 L150 452 L142 383 Z " />
<glyph glyph-name="o" unicode="o" horiz-adv-x="588" d="M299 467 Q367 467 419 437 Q471 407 500 353 Q529 299 529 229 Q529 162 497 106 Q465 50 409.5 17.5 Q354 -15 287 -15 Q221 -15 167 15 Q113 45 82 97.5 Q51 150 51 215 Q51 284 84 342 Q117 400 174 433.5 Q231 467 299 467 Z M299 425 Q245 425 198.5 397 Q152 369 124.5 321.5 Q97 274 97 218 Q97 165 122 121.5 Q147 78 190.5 52.5 Q234 27 286 27 Q341 27 386 54 Q431 81 457 128 Q483 175 483 233 Q483 289 460 333 Q437 377 395 401 Q353 425 299 425 Z " />
<glyph glyph-name="oacute" unicode="&#xf3;" horiz-adv-x="588" d="M287 542 L416 684 L455 647 L311 520 L287 542 Z M299 467 Q367 467 419 437 Q471 407 500 353 Q529 299 529 229 Q529 162 497 106 Q465 50 409.5 17.5 Q354 -15 287 -15 Q221 -15 167 15 Q113 45 82 97.5 Q51 150 51 215 Q51 284 84 342 Q117 400 174 433.5 Q231 467 299 467 Z M299 425 Q245 425 198.5 397 Q152 369 124.5 321.5 Q97 274 97 218 Q97 165 122 121.5 Q147 78 190.5 52.5 Q234 27 286 27 Q341 27 386 54 Q431 81 457 128 Q483 175 483 233 Q483 289 460 333 Q437 377 395 401 Q353 425 299 425 Z " />
<glyph glyph-name="obreve" unicode="&#x14f;" horiz-adv-x="588" d="M233 666 Q235 614 253 590.5 Q271 567 308 567 Q346 567 371 591 Q396 615 410 666 L452 666 Q439 601 399.5 564 Q360 527 304 527 Q250 527 220.5 562.5 Q191 598 190 666 L233 666 Z M299 467 Q367 467 419 437 Q471 407 500 353 Q529 299 529 229 Q529 162 497 106 Q465 50 409.5 17.5 Q354 -15 287 -15 Q221 -15 167 15 Q113 45 82 97.5 Q51 150 51 215 Q51 284 84 342 Q117 400 174 433.5 Q231 467 299 467 Z M299 425 Q245 425 198.5 397 Q152 369 124.5 321.5 Q97 274 97 218 Q97 165 122 121.5 Q147 78 190.5 52.5 Q234 27 286 27 Q341 27 386 54 Q431 81 457 128 Q483 175 483 233 Q483 289 460 333 Q437 377 395 401 Q353 425 299 425 Z " />
<glyph glyph-name="ocircumflex" unicode="&#xf4;" horiz-adv-x="588" d="M192 548 L350 687 L467 548 L437 520 L344 629 L218 520 L192 548 Z M299 467 Q367 467 419 437 Q471 407 500 353 Q529 299 529 229 Q529 162 497 106 Q465 50 409.5 17.5 Q354 -15 287 -15 Q221 -15 167 15 Q113 45 82 97.5 Q51 150 51 215 Q51 284 84 342 Q117 400 174 433.5 Q231 467 299 467 Z M299 425 Q245 425 198.5 397 Q152 369 124.5 321.5 Q97 274 97 218 Q97 165 122 121.5 Q147 78 190.5 52.5 Q234 27 286 27 Q341 27 386 54 Q431 81 457 128 Q483 175 483 233 Q483 289 460 333 Q437 377 395 401 Q353 425 299 425 Z " />
<glyph glyph-name="odieresis" unicode="&#xf6;" horiz-adv-x="588" d="M423 620 Q437 620 445.5 610.5 Q454 601 454 586 Q454 569 442.5 555.5 Q431 542 415 542 Q401 542 392 552 Q383 562 383 577 Q383 594 395 607 Q407 620 423 620 Z M250 619 Q263 619 271.5 609.5 Q280 600 280 584 Q280 567 268.5 554.5 Q257 542 241 542 Q228 542 218.5 552 Q209 562 209 576 Q209 593 221.5 606 Q234 619 250 619 Z M299 467 Q367 467 419 437 Q471 407 500 353 Q529 299 529 229 Q529 162 497 106 Q465 50 409.5 17.5 Q354 -15 287 -15 Q221 -15 167 15 Q113 45 82 97.5 Q51 150 51 215 Q51 284 84 342 Q117 400 174 433.5 Q231 467 299 467 Z M299 425 Q245 425 198.5 397 Q152 369 124.5 321.5 Q97 274 97 218 Q97 165 122 121.5 Q147 78 190.5 52.5 Q234 27 286 27 Q341 27 386 54 Q431 81 457 128 Q483 175 483 233 Q483 289 460 333 Q437 377 395 401 Q353 425 299 425 Z " />
<glyph glyph-name="ograve" unicode="&#xf2;" horiz-adv-x="588" d="M373 538 L346 520 L249 652 L292 684 L373 538 Z M299 467 Q367 467 419 437 Q471 407 500 353 Q529 299 529 229 Q529 162 497 106 Q465 50 409.5 17.5 Q354 -15 287 -15 Q221 -15 167 15 Q113 45 82 97.5 Q51 150 51 215 Q51 284 84 342 Q117 400 174 433.5 Q231 467 299 467 Z M299 425 Q245 425 198.5 397 Q152 369 124.5 321.5 Q97 274 97 218 Q97 165 122 121.5 Q147 78 190.5 52.5 Q234 27 286 27 Q341 27 386 54 Q431 81 457 128 Q483 175 483 233 Q483 289 460 333 Q437 377 395 401 Q353 425 299 425 Z " />
<glyph glyph-name="ohorn" unicode="&#x1a1;" horiz-adv-x="588" d="M606 454 L516 313 Q529 269 529 233 Q529 164 497 107 Q465 50 409.5 17.5 Q354 -15 287 -15 Q221 -15 167 15 Q113 45 82 97.5 Q51 150 51 215 Q51 285 84 342.5 Q117 400 174.5 433.5 Q232 467 301 467 Q366 467 418.5 437.5 Q471 408 498 356 L560 478 L606 454 Z M299 425 Q245 425 198.5 397 Q152 369 124.5 321.5 Q97 274 97 218 Q97 165 122 121.5 Q147 78 190.5 52.5 Q234 27 286 27 Q341 27 386 54 Q431 81 457 128 Q483 175 483 233 Q483 289 460 333 Q437 377 395 401 Q353 425 299 425 Z " />
<glyph glyph-name="ohungarumlaut" unicode="&#x151;" horiz-adv-x="588" d="M234 538 L353 684 L391 652 L257 520 L234 538 Z M363 538 L480 684 L519 652 L385 520 L363 538 Z M299 467 Q367 467 419 437 Q471 407 500 353 Q529 299 529 229 Q529 162 497 106 Q465 50 409.5 17.5 Q354 -15 287 -15 Q221 -15 167 15 Q113 45 82 97.5 Q51 150 51 215 Q51 284 84 342 Q117 400 174 433.5 Q231 467 299 467 Z M299 425 Q245 425 198.5 397 Q152 369 124.5 321.5 Q97 274 97 218 Q97 165 122 121.5 Q147 78 190.5 52.5 Q234 27 286 27 Q341 27 386 54 Q431 81 457 128 Q483 175 483 233 Q483 289 460 333 Q437 377 395 401 Q353 425 299 425 Z " />
<glyph glyph-name="omacron" unicode="&#x14d;" horiz-adv-x="588" d="M469 562 L191 562 L195 605 L473 605 L469 562 Z M299 467 Q367 467 419 437 Q471 407 500 353 Q529 299 529 229 Q529 162 497 106 Q465 50 409.5 17.5 Q354 -15 287 -15 Q221 -15 167 15 Q113 45 82 97.5 Q51 150 51 215 Q51 284 84 342 Q117 400 174 433.5 Q231 467 299 467 Z M299 425 Q245 425 198.5 397 Q152 369 124.5 321.5 Q97 274 97 218 Q97 165 122 121.5 Q147 78 190.5 52.5 Q234 27 286 27 Q341 27 386 54 Q431 81 457 128 Q483 175 483 233 Q483 289 460 333 Q437 377 395 401 Q353 425 299 425 Z " />
<glyph glyph-name="oslash" unicode="&#xf8;" horiz-adv-x="588" d="M28 9 L97 76 Q52 136 52 215 Q52 284 85 342 Q118 400 175.5 433.5 Q233 467 301 467 Q349 467 391 450.5 Q433 434 462 405 L534 472 L562 442 L488 375 Q529 308 529 232 Q529 164 497 107 Q465 50 410 17.5 Q355 -15 288 -15 Q193 -15 123 46 L53 -21 L28 9 Z M427 377 Q376 425 301 425 Q246 425 199.5 397 Q153 369 125.5 321 Q98 273 98 217 Q98 185 106 158.5 Q114 132 133 104 L427 377 Z M159 76 Q211 27 287 27 Q342 27 387 54 Q432 81 457.5 128 Q483 175 483 234 Q483 296 453 347 L159 76 Z " />
<glyph glyph-name="oslashacute" unicode="&#x1ff;" horiz-adv-x="588" d="M262 542 L392 684 L431 647 L287 520 L262 542 Z M28 9 L97 76 Q52 136 52 215 Q52 284 85 342 Q118 400 175.5 433.5 Q233 467 301 467 Q349 467 391 450.5 Q433 434 462 405 L534 472 L562 442 L488 375 Q529 308 529 232 Q529 164 497 107 Q465 50 410 17.5 Q355 -15 288 -15 Q193 -15 123 46 L53 -21 L28 9 Z M427 377 Q376 425 301 425 Q246 425 199.5 397 Q153 369 125.5 321 Q98 273 98 217 Q98 185 106 158.5 Q114 132 133 104 L427 377 Z M159 76 Q211 27 287 27 Q342 27 387 54 Q432 81 457.5 128 Q483 175 483 234 Q483 296 453 347 L159 76 Z " />
<glyph glyph-name="otilde" unicode="&#xf5;" horiz-adv-x="588" d="M493 615 Q475 576 451 558 Q427 540 393 540 Q376 540 359.5 546.5 Q343 553 308 573 Q292 584 283 587.5 Q274 591 264 591 Q235 591 217 548 L180 558 Q197 597 218 614.5 Q239 632 268 632 Q286 632 300 626 Q314 620 353 597 Q378 581 397 581 Q414 581 426.5 590.5 Q439 600 455 626 L493 615 Z M299 467 Q367 467 419 437 Q471 407 500 353 Q529 299 529 229 Q529 162 497 106 Q465 50 409.5 17.5 Q354 -15 287 -15 Q221 -15 167 15 Q113 45 82 97.5 Q51 150 51 215 Q51 284 84 342 Q117 400 174 433.5 Q231 467 299 467 Z M299 425 Q245 425 198.5 397 Q152 369 124.5 321.5 Q97 274 97 218 Q97 165 122 121.5 Q147 78 190.5 52.5 Q234 27 286 27 Q341 27 386 54 Q431 81 457 128 Q483 175 483 233 Q483 289 460 333 Q437 377 395 401 Q353 425 299 425 Z " />
<glyph glyph-name="oe" unicode="&#x153;" horiz-adv-x="966" d="M530 195 Q530 112 584 68 Q607 49 637.5 38 Q668 27 699 27 Q743 27 776 43 Q809 59 843 99 L875 81 Q837 31 794.5 8 Q752 -15 697 -15 Q663 -15 630.5 -5.5 Q598 4 572 21 Q547 38 531.5 59 Q516 80 499 119 Q425 -15 285 -15 Q217 -15 164 15 Q111 45 81.5 99 Q52 153 52 223 Q52 292 84 348 Q116 404 172 436 Q228 468 297 468 Q384 468 447 417 Q471 398 485.5 378.5 Q500 359 515 324 Q532 358 543 374.5 Q554 391 570 407 Q599 436 636 452 Q673 468 714 468 Q772 468 818 438 Q864 408 887 357 Q898 330 902.5 302 Q907 274 907 228 L530 228 L530 195 Z M298 426 Q240 426 194.5 399.5 Q149 373 123.5 326.5 Q98 280 98 221 Q98 165 122 120.5 Q146 76 188.5 51.5 Q231 27 285 27 Q342 27 389 55.5 Q436 84 463 133 Q490 182 490 240 Q490 285 476 318 Q462 351 432 377 Q374 426 298 426 Z M866 269 Q861 305 854.5 325.5 Q848 346 835 365 Q815 394 783 410 Q751 426 714 426 Q675 426 638.5 408 Q602 390 577 358 Q563 339 554.5 320 Q546 301 538 269 L866 269 Z " />
<glyph glyph-name="p" unicode="p" horiz-adv-x="583" d="M142 375 Q185 423 225.5 443 Q266 463 320 463 Q378 463 424.5 434.5 Q471 406 498 356.5 Q525 307 525 245 Q525 175 494 116 Q463 57 410 23 Q357 -11 293 -11 Q233 -11 188 14.5 Q143 40 107 95 L63 -263 L19 -263 L107 452 L151 452 L142 375 Z M310 421 Q257 421 213 393 Q169 365 143.5 316 Q118 267 118 208 Q118 157 140 116.5 Q162 76 200.5 53.5 Q239 31 288 31 Q341 31 385 58.5 Q429 86 454.5 133 Q480 180 480 237 Q480 319 433 370 Q386 421 310 421 Z " />
<glyph glyph-name="thorn" unicode="&#xfe;" horiz-adv-x="583" d="M142 375 Q186 422 226.5 442.5 Q267 463 319 463 Q377 463 424 434.5 Q471 406 498 356 Q525 306 525 244 Q525 173 494 115 Q463 57 409 23 Q355 -11 290 -11 Q232 -11 187.5 15 Q143 41 107 95 L63 -263 L19 -263 L153 824 L198 824 L142 375 Z M310 421 Q257 421 213 393 Q169 365 143.5 316 Q118 267 118 208 Q118 157 140 116.5 Q162 76 200.5 53.5 Q239 31 287 31 Q340 31 384 58.5 Q428 86 453.5 133 Q479 180 479 237 Q479 319 432 370 Q385 421 310 421 Z " />
<glyph glyph-name="q" unicode="q" horiz-adv-x="588" d="M397 -263 L438 77 Q391 28 351.5 8.5 Q312 -11 260 -11 Q201 -11 153 18 Q105 47 78 97.5 Q51 148 51 210 Q51 280 82.5 338 Q114 396 169 429.5 Q224 463 290 463 Q351 463 391.5 439.5 Q432 416 472 356 L485 452 L529 452 L441 -263 L397 -263 Z M289 421 Q235 421 191 393 Q147 365 122 315.5 Q97 266 97 205 Q97 155 118.5 115.5 Q140 76 178 53.5 Q216 31 263 31 Q317 31 362.5 60 Q408 89 434.5 138.5 Q461 188 461 247 Q461 324 413 372.5 Q365 421 289 421 Z " />
<glyph glyph-name="r" unicode="r" horiz-adv-x="321" d="M142 385 Q184 431 210 447.5 Q236 464 270 464 Q286 464 299 460.5 Q312 457 332 447 L308 409 Q290 417 280.5 420 Q271 423 260 423 Q223 423 189 392 Q162 368 147 332.5 Q132 297 125 242 L95 0 L51 0 L106 452 L150 452 L142 385 Z " />
<glyph glyph-name="racute" unicode="&#x155;" horiz-adv-x="321" d="M174 542 L304 684 L342 647 L198 520 L174 542 Z M142 385 Q184 431 210 447.5 Q236 464 270 464 Q286 464 299 460.5 Q312 457 332 447 L308 409 Q290 417 280.5 420 Q271 423 260 423 Q223 423 189 392 Q162 368 147 332.5 Q132 297 125 242 L95 0 L51 0 L106 452 L150 452 L142 385 Z " />
<glyph glyph-name="rcaron" unicode="&#x159;" horiz-adv-x="321" d="M366 659 L216 520 L106 660 L138 687 L223 576 L340 687 L366 659 Z M142 385 Q184 431 210 447.5 Q236 464 270 464 Q286 464 299 460.5 Q312 457 332 447 L308 409 Q290 417 280.5 420 Q271 423 260 423 Q223 423 189 392 Q162 368 147 332.5 Q132 297 125 242 L95 0 L51 0 L106 452 L150 452 L142 385 Z " />
<glyph glyph-name="uni0157" unicode="&#x157;" horiz-adv-x="321" d="M142 385 Q184 431 210 447.5 Q236 464 270 464 Q286 464 299 460.5 Q312 457 332 447 L308 409 Q290 417 280.5 420 Q271 423 260 423 Q223 423 189 392 Q162 368 147 332.5 Q132 297 125 242 L95 0 L51 0 L106 452 L150 452 L142 385 Z M-9 -227 L-40 -212 L45 -53 L92 -77 L-9 -227 Z " />
<glyph glyph-name="s" unicode="s" horiz-adv-x="384" d="M316 384 Q273 425 224 425 Q183 425 156.5 400 Q130 375 130 337 Q130 308 146.5 291.5 Q163 275 214 252 Q275 224 298.5 196 Q322 168 322 121 Q322 62 280.5 23.5 Q239 -15 175 -15 Q123 -15 88 10 Q53 35 31 88 L67 104 Q83 64 109.5 45.5 Q136 27 175 27 Q220 27 248 54 Q276 81 276 125 Q276 156 259 174.5 Q242 193 193 215 Q134 241 109 269.5 Q84 298 84 339 Q84 393 123 430 Q162 467 221 467 Q258 467 287.5 453 Q317 439 344 410 L316 384 Z " />
<glyph glyph-name="sacute" unicode="&#x15b;" horiz-adv-x="384" d="M185 542 L315 684 L354 647 L210 520 L185 542 Z M316 384 Q273 425 224 425 Q183 425 156.5 400 Q130 375 130 337 Q130 308 146.5 291.5 Q163 275 214 252 Q275 224 298.5 196 Q322 168 322 121 Q322 62 280.5 23.5 Q239 -15 175 -15 Q123 -15 88 10 Q53 35 31 88 L67 104 Q83 64 109.5 45.5 Q136 27 175 27 Q220 27 248 54 Q276 81 276 125 Q276 156 259 174.5 Q242 193 193 215 Q134 241 109 269.5 Q84 298 84 339 Q84 393 123 430 Q162 467 221 467 Q258 467 287.5 453 Q317 439 344 410 L316 384 Z " />
<glyph glyph-name="scaron" unicode="&#x161;" horiz-adv-x="384" d="M371 659 L220 520 L111 660 L141 687 L226 576 L345 687 L371 659 Z M316 384 Q273 425 224 425 Q183 425 156.5 400 Q130 375 130 337 Q130 308 146.5 291.5 Q163 275 214 252 Q275 224 298.5 196 Q322 168 322 121 Q322 62 280.5 23.5 Q239 -15 175 -15 Q123 -15 88 10 Q53 35 31 88 L67 104 Q83 64 109.5 45.5 Q136 27 175 27 Q220 27 248 54 Q276 81 276 125 Q276 156 259 174.5 Q242 193 193 215 Q134 241 109 269.5 Q84 298 84 339 Q84 393 123 430 Q162 467 221 467 Q258 467 287.5 453 Q317 439 344 410 L316 384 Z " />
<glyph glyph-name="scedilla" unicode="&#x15f;" horiz-adv-x="384" d="M316 384 Q273 425 224 425 Q183 425 156.5 400 Q130 375 130 337 Q130 308 146.5 291.5 Q163 275 214 252 Q275 224 298.5 196 Q322 168 322 121 Q322 62 280.5 23.5 Q239 -15 175 -15 Q123 -15 88 10 Q53 35 31 88 L67 104 Q83 64 109.5 45.5 Q136 27 175 27 Q220 27 248 54 Q276 81 276 125 Q276 156 259 174.5 Q242 193 193 215 Q134 241 109 269.5 Q84 298 84 339 Q84 393 123 430 Q162 467 221 467 Q258 467 287.5 453 Q317 439 344 410 L316 384 Z M61 -202 L147 -53 L192 -79 L92 -220 L61 -202 Z " />
<glyph glyph-name="scircumflex" unicode="&#x15d;" horiz-adv-x="384" d="M103 548 L253 687 L363 546 L332 520 L247 629 L129 520 L103 548 Z M316 384 Q273 425 224 425 Q183 425 156.5 400 Q130 375 130 337 Q130 308 146.5 291.5 Q163 275 214 252 Q275 224 298.5 196 Q322 168 322 121 Q322 62 280.5 23.5 Q239 -15 175 -15 Q123 -15 88 10 Q53 35 31 88 L67 104 Q83 64 109.5 45.5 Q136 27 175 27 Q220 27 248 54 Q276 81 276 125 Q276 156 259 174.5 Q242 193 193 215 Q134 241 109 269.5 Q84 298 84 339 Q84 393 123 430 Q162 467 221 467 Q258 467 287.5 453 Q317 439 344 410 L316 384 Z " />
<glyph glyph-name="uni0219" unicode="&#x219;" horiz-adv-x="384" d="M316 384 Q273 425 224 425 Q183 425 156.5 400 Q130 375 130 337 Q130 308 146.5 291.5 Q163 275 214 252 Q275 224 298.5 196 Q322 168 322 121 Q322 62 280.5 23.5 Q239 -15 175 -15 Q123 -15 88 10 Q53 35 31 88 L67 104 Q83 64 109.5 45.5 Q136 27 175 27 Q220 27 248 54 Q276 81 276 125 Q276 156 259 174.5 Q242 193 193 215 Q134 241 109 269.5 Q84 298 84 339 Q84 393 123 430 Q162 467 221 467 Q258 467 287.5 453 Q317 439 344 410 L316 384 Z M93 -227 L62 -212 L147 -53 L193 -77 L93 -227 Z " />
<glyph glyph-name="germandbls" unicode="&#xdf;" horiz-adv-x="528" d="M49 411 L53 452 L106 452 L127 611 Q135 678 141.5 704.5 Q148 731 163 754 Q188 794 229 815.5 Q270 837 321 837 Q401 837 449.5 790.5 Q498 744 498 667 Q498 612 477.5 560.5 Q457 509 423 479 Q401 460 376.5 449.5 Q352 439 314 432 Q357 421 382 408.5 Q407 396 427 376 Q454 349 468.5 311 Q483 273 483 228 Q483 159 455.5 103.5 Q428 48 379 17 Q330 -14 269 -14 Q249 -14 231.5 -11 Q214 -8 186 -1 L192 40 Q235 29 261 29 Q312 29 352 54.5 Q392 80 414.5 126.5 Q437 173 437 232 Q437 316 384.5 363 Q332 410 237 411 L242 452 Q285 453 316.5 463 Q348 473 373 492 Q409 518 430.5 565.5 Q452 613 452 666 Q452 726 416 761 Q380 796 318 796 Q276 796 244 775 Q212 754 194 715 Q185 695 180 672.5 Q175 650 171 608 L96 0 L51 0 L102 411 L49 411 Z " />
<glyph glyph-name="longs" unicode="&#x17f;" horiz-adv-x="279" d="M106 411 L54 411 L59 452 L111 452 L141 699 Q147 743 157.5 769 Q168 795 185 812 Q199 825 218.5 832.5 Q238 840 258 840 Q277 840 306 832 L301 789 Q280 798 261 798 Q226 798 208.5 772.5 Q191 747 184 684 L101 0 L55 0 L106 411 Z " />
<glyph glyph-name="t" unicode="t" horiz-adv-x="247" d="M137 -9 Q120 -9 101.5 -2.5 Q83 4 73 16 Q59 34 59 67 Q59 74 61 98 L101 410 L49 410 L53 452 L106 452 L128 621 L173 621 L150 452 L253 452 L249 410 L146 410 L106 112 Q103 93 103 78 Q103 53 113 43 Q123 33 146 33 Q172 33 207 53 L201 8 Q191 1 174.5 -4 Q158 -9 137 -9 Z " />
<glyph glyph-name="tbar" unicode="&#x167;" horiz-adv-x="248" d="M146 410 L136 333 L237 333 L232 294 L131 294 L107 112 Q104 93 104 78 Q104 53 114 43 Q124 33 147 33 Q173 33 208 53 L202 8 Q192 1 175.5 -4 Q159 -9 138 -9 Q121 -9 102.5 -2.5 Q84 4 75 16 Q60 35 60 68 Q60 76 62 98 L87 294 L34 294 L38 333 L92 333 L102 410 L50 410 L54 452 L107 452 L129 621 L174 621 L152 452 L254 452 L250 410 L146 410 Z " />
<glyph glyph-name="tcaron" unicode="&#x165;" horiz-adv-x="284" d="M251 579 L220 593 L305 762 L351 737 L251 579 Z M137 -9 Q120 -9 101.5 -2.5 Q83 4 73 16 Q59 34 59 67 Q59 74 61 98 L101 410 L49 410 L53 452 L106 452 L128 621 L173 621 L150 452 L253 452 L249 410 L146 410 L106 112 Q103 93 103 78 Q103 53 113 43 Q123 33 146 33 Q172 33 207 53 L201 8 Q191 1 174.5 -4 Q158 -9 137 -9 Z " />
<glyph glyph-name="uni0163" unicode="&#x163;" horiz-adv-x="247" d="M137 -9 Q120 -9 101.5 -2.5 Q83 4 73 16 Q59 34 59 67 Q59 74 61 98 L101 410 L49 410 L53 452 L106 452 L128 621 L173 621 L150 452 L253 452 L249 410 L146 410 L106 112 Q103 93 103 78 Q103 53 113 43 Q123 33 146 33 Q172 33 207 53 L201 8 Q191 1 174.5 -4 Q158 -9 137 -9 Z M29 -227 L-1 -212 L84 -53 L130 -77 L29 -227 Z " />
<glyph glyph-name="u" unicode="u" horiz-adv-x="492" d="M341 69 Q312 27 276 8 Q240 -11 193 -11 Q135 -11 101.5 22 Q68 55 68 112 Q68 134 75 190 L106 452 L151 452 L119 191 Q112 137 112 115 Q112 31 205 31 Q273 31 310 73 Q347 115 356 191 L389 452 L433 452 L377 0 L333 0 L341 69 Z " />
<glyph glyph-name="uacute" unicode="&#xfa;" horiz-adv-x="492" d="M341 69 Q312 27 276 8 Q240 -11 193 -11 Q135 -11 101.5 22 Q68 55 68 112 Q68 134 75 190 L106 452 L151 452 L119 191 Q112 137 112 115 Q112 31 205 31 Q273 31 310 73 Q347 115 356 191 L389 452 L433 452 L377 0 L333 0 L341 69 Z M239 542 L369 684 L407 647 L262 520 L239 542 Z " />
<glyph glyph-name="ubreve" unicode="&#x16d;" horiz-adv-x="492" d="M341 69 Q312 27 276 8 Q240 -11 193 -11 Q135 -11 101.5 22 Q68 55 68 112 Q68 134 75 190 L106 452 L151 452 L119 191 Q112 137 112 115 Q112 31 205 31 Q273 31 310 73 Q347 115 356 191 L389 452 L433 452 L377 0 L333 0 L341 69 Z M207 666 Q210 613 228 590 Q246 567 283 567 Q321 567 345.5 591 Q370 615 385 666 L427 666 Q414 602 374 564.5 Q334 527 278 527 Q224 527 195 562.5 Q166 598 165 666 L207 666 Z " />
<glyph glyph-name="ucircumflex" unicode="&#xfb;" horiz-adv-x="492" d="M341 69 Q312 27 276 8 Q240 -11 193 -11 Q135 -11 101.5 22 Q68 55 68 112 Q68 134 75 190 L106 452 L151 452 L119 191 Q112 137 112 115 Q112 31 205 31 Q273 31 310 73 Q347 115 356 191 L389 452 L433 452 L377 0 L333 0 L341 69 Z M152 548 L302 687 L412 546 L380 520 L295 629 L178 520 L152 548 Z " />
<glyph glyph-name="udieresis" unicode="&#xfc;" horiz-adv-x="492" d="M341 69 Q312 27 276 8 Q240 -11 193 -11 Q135 -11 101.5 22 Q68 55 68 112 Q68 134 75 190 L106 452 L151 452 L119 191 Q112 137 112 115 Q112 31 205 31 Q273 31 310 73 Q347 115 356 191 L389 452 L433 452 L377 0 L333 0 L341 69 Z M376 620 Q390 620 399 610.5 Q408 601 408 586 Q408 569 396.5 555.5 Q385 542 370 542 Q356 542 347 552 Q338 562 338 577 Q338 594 349.5 607 Q361 620 376 620 Z M205 619 Q218 619 226.5 609.5 Q235 600 235 584 Q235 567 223.5 554.5 Q212 542 196 542 Q182 542 173 552 Q164 562 164 576 Q164 593 176.5 606 Q189 619 205 619 Z " />
<glyph glyph-name="ugrave" unicode="&#xf9;" horiz-adv-x="492" d="M341 69 Q312 27 276 8 Q240 -11 193 -11 Q135 -11 101.5 22 Q68 55 68 112 Q68 134 75 190 L106 452 L151 452 L119 191 Q112 137 112 115 Q112 31 205 31 Q273 31 310 73 Q347 115 356 191 L389 452 L433 452 L377 0 L333 0 L341 69 Z M328 538 L301 520 L204 652 L248 684 L328 538 Z " />
<glyph glyph-name="uhorn" unicode="&#x1b0;" horiz-adv-x="492" d="M468 306 L437 321 L522 489 L568 466 L468 306 Z M341 69 Q312 27 276 8 Q240 -11 193 -11 Q135 -11 101.5 22 Q68 55 68 112 Q68 134 75 190 L106 452 L151 452 L119 191 Q112 137 112 115 Q112 31 205 31 Q273 31 310 75 Q347 119 357 202 L389 452 L433 452 L377 0 L333 0 L341 69 Z " />
<glyph glyph-name="uhungarumlaut" unicode="&#x171;" horiz-adv-x="492" d="M341 69 Q312 27 276 8 Q240 -11 193 -11 Q135 -11 101.5 22 Q68 55 68 112 Q68 134 75 190 L106 452 L151 452 L119 191 Q112 137 112 115 Q112 31 205 31 Q273 31 310 73 Q347 115 356 191 L389 452 L433 452 L377 0 L333 0 L341 69 Z M185 538 L303 684 L340 652 L207 520 L185 538 Z M312 538 L431 684 L469 652 L335 520 L312 538 Z " />
<glyph glyph-name="umacron" unicode="&#x16b;" horiz-adv-x="492" d="M341 69 Q312 27 276 8 Q240 -11 193 -11 Q135 -11 101.5 22 Q68 55 68 112 Q68 134 75 190 L106 452 L151 452 L119 191 Q112 137 112 115 Q112 31 205 31 Q273 31 310 73 Q347 115 356 191 L389 452 L433 452 L377 0 L333 0 L341 69 Z M422 562 L144 562 L149 605 L427 605 L422 562 Z " />
<glyph glyph-name="uni01C6" unicode="&#x1c6;" horiz-adv-x="1069" d="M427 0 L436 75 Q389 26 352 7.5 Q315 -11 262 -11 Q201 -11 153 17 Q105 45 78 94.5 Q51 144 51 207 Q51 278 82 336.5 Q113 395 166 429 Q219 463 284 463 Q345 463 389 437.5 Q433 412 470 354 L528 824 L573 824 L471 0 L427 0 Z M1024 659 L873 520 L764 660 L796 687 L880 576 L998 687 L1024 659 Z M672 411 L677 452 L1063 452 L678 41 L1001 41 L997 0 L584 0 L972 411 L672 411 Z M287 421 Q235 421 191.5 393 Q148 365 122.5 317 Q97 269 97 210 Q97 159 119.5 117.5 Q142 76 181 52.5 Q220 29 268 29 Q319 29 363 58.5 Q407 88 433 138 Q459 188 459 246 Q459 323 411 372 Q363 421 287 421 Z " />
<glyph glyph-name="uni01C9" unicode="&#x1c9;" horiz-adv-x="425" d="M51 0 L153 824 L197 824 L95 0 L51 0 Z M371 667 Q384 667 391 659 Q398 651 398 637 Q398 622 387.5 610.5 Q377 599 364 599 Q351 599 343.5 608 Q336 617 336 631 Q336 646 346 656.5 Q356 667 371 667 Z M160 -276 Q137 -276 118 -269 L122 -227 Q142 -233 159 -233 Q202 -233 223.5 -204.5 Q245 -176 253 -110 L322 452 L366 452 L296 -119 Q288 -192 259 -231 Q224 -276 160 -276 Z " />
<glyph glyph-name="uni01CC" unicode="&#x1cc;" horiz-adv-x="698" d="M142 383 Q179 427 210.5 445 Q242 463 285 463 Q343 463 377 430 Q411 397 411 340 Q411 322 405 262 L373 0 L328 0 L360 261 Q367 310 367 341 Q367 378 344 399.5 Q321 421 280 421 Q251 421 221.5 408.5 Q192 396 171 374 Q151 353 141.5 329 Q132 305 128 261 L95 0 L51 0 L106 452 L150 452 L142 383 Z M644 667 Q657 667 664 659 Q671 651 671 637 Q671 622 660.5 610.5 Q650 599 637 599 Q624 599 616.5 608 Q609 617 609 631 Q609 646 619 656.5 Q629 667 644 667 Z M433 -276 Q410 -276 391 -269 L395 -227 Q415 -233 432 -233 Q475 -233 496.5 -204.5 Q518 -176 526 -110 L595 452 L639 452 L569 -119 Q561 -192 532 -231 Q497 -276 433 -276 Z " />
<glyph glyph-name="uni01CE" unicode="&#x1ce;" horiz-adv-x="585" d="M472 659 L322 520 L212 660 L243 687 L328 576 L446 687 L472 659 Z M427 0 L436 80 Q391 29 352.5 9 Q314 -11 261 -11 Q200 -11 152.5 17 Q105 45 78 95 Q51 145 51 208 Q51 280 82 338 Q113 396 167 429.5 Q221 463 288 463 Q348 463 389.5 440 Q431 417 471 360 L483 452 L527 452 L471 0 L427 0 Z M293 421 Q238 421 193.5 393.5 Q149 366 123 318 Q97 270 97 211 Q97 160 118.5 119 Q140 78 178.5 54.5 Q217 31 264 31 Q317 31 362.5 61 Q408 91 435 141.5 Q462 192 462 250 Q462 299 440.5 338 Q419 377 380.5 399 Q342 421 293 421 Z " />
<glyph glyph-name="uni01D0" unicode="&#x1d0;" horiz-adv-x="210" d="M285 659 L134 520 L25 660 L55 687 L140 576 L259 687 L285 659 Z M51 0 L106 452 L151 452 L95 0 L51 0 Z " />
<glyph glyph-name="uni01D2" unicode="&#x1d2;" horiz-adv-x="588" d="M443 659 L294 520 L184 660 L215 687 L299 576 L418 687 L443 659 Z M299 467 Q367 467 419 437 Q471 407 500 353 Q529 299 529 229 Q529 162 497 106 Q465 50 409.5 17.5 Q354 -15 287 -15 Q221 -15 167 15 Q113 45 82 97.5 Q51 150 51 215 Q51 284 84 342 Q117 400 174 433.5 Q231 467 299 467 Z M299 425 Q245 425 198.5 397 Q152 369 124.5 321.5 Q97 274 97 218 Q97 165 122 121.5 Q147 78 190.5 52.5 Q234 27 286 27 Q341 27 386 54 Q431 81 457 128 Q483 175 483 233 Q483 289 460 333 Q437 377 395 401 Q353 425 299 425 Z " />
<glyph glyph-name="uni01D4" unicode="&#x1d4;" horiz-adv-x="492" d="M341 69 Q312 27 276 8 Q240 -11 193 -11 Q135 -11 101.5 22 Q68 55 68 112 Q68 134 75 190 L106 452 L151 452 L119 191 Q112 137 112 115 Q112 31 205 31 Q273 31 310 73 Q347 115 356 191 L389 452 L433 452 L377 0 L333 0 L341 69 Z M426 659 L276 520 L167 660 L197 687 L282 576 L400 687 L426 659 Z " />
<glyph glyph-name="uni01DD" unicode="&#x1dd;" horiz-adv-x="527" d="M424 251 Q424 328 376.5 377 Q329 426 253 426 Q209 426 177 409 Q145 392 111 351 L80 373 Q120 425 160 446.5 Q200 468 257 468 Q319 468 367 440.5 Q415 413 441.5 364 Q468 315 468 251 Q468 175 439 114.5 Q410 54 359 19.5 Q308 -15 244 -15 Q183 -15 135 17.5 Q87 50 64 106 Q56 128 52 153.5 Q48 179 46 223 L424 223 L424 251 Z M90 182 Q94 151 99 132.5 Q104 114 115 97 Q137 64 170.5 45.5 Q204 27 244 27 Q283 27 317.5 43 Q352 59 375 89 Q391 109 400 129 Q409 149 417 182 L90 182 Z " />
<glyph glyph-name="uni01F5" unicode="&#x1f5;" horiz-adv-x="584" d="M258 542 L388 684 L427 647 L283 520 L258 542 Z M469 -10 Q460 -86 446.5 -128 Q433 -170 407 -202 Q378 -237 333 -256 Q288 -275 233 -275 Q180 -275 138 -258 Q96 -241 70 -210 Q50 -187 42 -159 Q34 -131 32 -82 L73 -82 Q76 -120 82.5 -141.5 Q89 -163 103 -182 Q145 -233 233 -233 Q279 -233 315 -218 Q351 -203 374 -174 Q393 -150 404.5 -115 Q416 -80 423 -26 L434 72 Q387 25 349.5 7 Q312 -11 262 -11 Q202 -11 154 18 Q106 47 78.5 97 Q51 147 51 208 Q51 260 70.5 310.5 Q90 361 125 398 Q185 463 287 463 Q352 463 392.5 439 Q433 415 469 355 L481 452 L525 452 L469 -10 Z M293 421 Q238 421 193.5 393.5 Q149 366 123 318 Q97 270 97 211 Q97 175 109 141.5 Q121 108 142 85 Q165 60 200 44.5 Q235 29 267 29 Q319 29 363 57.5 Q407 86 433 135 Q459 184 459 241 Q459 322 413 371.5 Q367 421 293 421 Z " />
<glyph glyph-name="uni0201" unicode="&#x201;" horiz-adv-x="585" d="M287 538 L264 520 L131 652 L168 684 L287 538 Z M415 538 L392 520 L259 652 L297 684 L415 538 Z M427 0 L436 80 Q391 29 352.5 9 Q314 -11 261 -11 Q200 -11 152.5 17 Q105 45 78 95 Q51 145 51 208 Q51 280 82 338 Q113 396 167 429.5 Q221 463 288 463 Q348 463 389.5 440 Q431 417 471 360 L483 452 L527 452 L471 0 L427 0 Z M293 421 Q238 421 193.5 393.5 Q149 366 123 318 Q97 270 97 211 Q97 160 118.5 119 Q140 78 178.5 54.5 Q217 31 264 31 Q317 31 362.5 61 Q408 91 435 141.5 Q462 192 462 250 Q462 299 440.5 338 Q419 377 380.5 399 Q342 421 293 421 Z " />
<glyph glyph-name="uni021B" unicode="&#x21b;" horiz-adv-x="247" d="M137 -9 Q120 -9 101.5 -2.5 Q83 4 73 16 Q59 34 59 67 Q59 74 61 98 L101 410 L49 410 L53 452 L106 452 L128 621 L173 621 L150 452 L253 452 L249 410 L146 410 L106 112 Q103 93 103 78 Q103 53 113 43 Q123 33 146 33 Q172 33 207 53 L201 8 Q191 1 174.5 -4 Q158 -9 137 -9 Z M29 -227 L-1 -212 L84 -53 L130 -77 L29 -227 Z " />
<glyph glyph-name="uni0227" unicode="&#x227;" horiz-adv-x="585" d="M336 623 Q350 623 359 612.5 Q368 602 368 586 Q368 569 356 555.5 Q344 542 328 542 Q313 542 303.5 552 Q294 562 294 577 Q294 595 306.5 609 Q319 623 336 623 Z M427 0 L436 80 Q391 29 352.5 9 Q314 -11 261 -11 Q200 -11 152.5 17 Q105 45 78 95 Q51 145 51 208 Q51 280 82 338 Q113 396 167 429.5 Q221 463 288 463 Q348 463 389.5 440 Q431 417 471 360 L483 452 L527 452 L471 0 L427 0 Z M293 421 Q238 421 193.5 393.5 Q149 366 123 318 Q97 270 97 211 Q97 160 118.5 119 Q140 78 178.5 54.5 Q217 31 264 31 Q317 31 362.5 61 Q408 91 435 141.5 Q462 192 462 250 Q462 299 440.5 338 Q419 377 380.5 399 Q342 421 293 421 Z " />
<glyph glyph-name="uni1EA1" unicode="&#x1ea1;" horiz-adv-x="585" d="M427 0 L436 80 Q391 29 352.5 9 Q314 -11 261 -11 Q200 -11 152.5 17 Q105 45 78 95 Q51 145 51 208 Q51 280 82 338 Q113 396 167 429.5 Q221 463 288 463 Q348 463 389.5 440 Q431 417 471 360 L483 452 L527 452 L471 0 L427 0 Z M293 421 Q238 421 193.5 393.5 Q149 366 123 318 Q97 270 97 211 Q97 160 118.5 119 Q140 78 178.5 54.5 Q217 31 264 31 Q317 31 362.5 61 Q408 91 435 141.5 Q462 192 462 250 Q462 299 440.5 338 Q419 377 380.5 399 Q342 421 293 421 Z M299 -58 Q314 -58 322 -66.5 Q330 -75 330 -89 Q330 -105 317.5 -117 Q305 -129 289 -129 Q276 -129 268 -120.5 Q260 -112 260 -98 Q260 -82 271.5 -70 Q283 -58 299 -58 Z " />
<glyph glyph-name="uni1EA3" unicode="&#x1ea3;" horiz-adv-x="585" d="M311 598 Q339 602 345 602 Q387 608 404 621.5 Q421 635 421 662 Q421 680 406.5 690.5 Q392 701 366 701 Q353 701 345.5 699 Q338 697 323 690 L303 681 L297 710 Q354 730 397 730 Q437 730 460.5 711.5 Q484 693 484 662 Q484 624 456 600.5 Q428 577 382 577 Q362 577 345 580 L336 536 L297 536 L311 598 Z M427 0 L436 80 Q391 29 352.5 9 Q314 -11 261 -11 Q200 -11 152.5 17 Q105 45 78 95 Q51 145 51 208 Q51 280 82 338 Q113 396 167 429.5 Q221 463 288 463 Q348 463 389.5 440 Q431 417 471 360 L483 452 L527 452 L471 0 L427 0 Z M293 421 Q238 421 193.5 393.5 Q149 366 123 318 Q97 270 97 211 Q97 160 118.5 119 Q140 78 178.5 54.5 Q217 31 264 31 Q317 31 362.5 61 Q408 91 435 141.5 Q462 192 462 250 Q462 299 440.5 338 Q419 377 380.5 399 Q342 421 293 421 Z " />
<glyph glyph-name="uni1EA5" unicode="&#x1ea5;" horiz-adv-x="585" d="M573 689 L438 570 L457 546 L426 520 L341 629 L223 520 L198 548 L347 687 L417 598 L534 725 L573 689 Z M427 0 L436 80 Q391 29 352.5 9 Q314 -11 261 -11 Q200 -11 152.5 17 Q105 45 78 95 Q51 145 51 208 Q51 280 82 338 Q113 396 167 429.5 Q221 463 288 463 Q348 463 389.5 440 Q431 417 471 360 L483 452 L527 452 L471 0 L427 0 Z M293 421 Q238 421 193.5 393.5 Q149 366 123 318 Q97 270 97 211 Q97 160 118.5 119 Q140 78 178.5 54.5 Q217 31 264 31 Q317 31 362.5 61 Q408 91 435 141.5 Q462 192 462 250 Q462 299 440.5 338 Q419 377 380.5 399 Q342 421 293 421 Z " />
<glyph glyph-name="uni1EA7" unicode="&#x1ea7;" horiz-adv-x="585" d="M519 610 L496 594 L393 722 L434 750 L519 610 Z M457 546 L426 520 L341 629 L223 520 L198 548 L347 687 L457 546 Z M427 0 L436 80 Q391 29 352.5 9 Q314 -11 261 -11 Q200 -11 152.5 17 Q105 45 78 95 Q51 145 51 208 Q51 280 82 338 Q113 396 167 429.5 Q221 463 288 463 Q348 463 389.5 440 Q431 417 471 360 L483 452 L527 452 L471 0 L427 0 Z M293 421 Q238 421 193.5 393.5 Q149 366 123 318 Q97 270 97 211 Q97 160 118.5 119 Q140 78 178.5 54.5 Q217 31 264 31 Q317 31 362.5 61 Q408 91 435 141.5 Q462 192 462 250 Q462 299 440.5 338 Q419 377 380.5 399 Q342 421 293 421 Z " />
<glyph glyph-name="uni1EA9" unicode="&#x1ea9;" horiz-adv-x="585" d="M433 632 Q446 635 454.5 635.5 Q463 636 466 637 Q509 642 526.5 655.5 Q544 669 544 696 Q544 714 529 724 Q514 734 488 734 Q473 734 465.5 732.5 Q458 731 445 724 Q437 721 433 719 Q429 717 425 715 L419 745 Q477 764 519 764 Q559 764 582.5 745.5 Q606 727 606 696 Q606 658 578 635 Q550 612 504 612 Q484 612 467 614 L457 570 L438 570 L457 547 L426 520 L341 631 L223 520 L198 548 L347 687 L424 589 L433 632 Z M427 0 L436 80 Q391 29 352.5 9 Q314 -11 261 -11 Q200 -11 152.5 17 Q105 45 78 95 Q51 145 51 208 Q51 280 82 338 Q113 396 167 429.5 Q221 463 288 463 Q348 463 389.5 440 Q431 417 471 360 L483 452 L527 452 L471 0 L427 0 Z M293 421 Q238 421 193.5 393.5 Q149 366 123 318 Q97 270 97 211 Q97 160 118.5 119 Q140 78 178.5 54.5 Q217 31 264 31 Q317 31 362.5 61 Q408 91 435 141.5 Q462 192 462 250 Q462 299 440.5 338 Q419 377 380.5 399 Q342 421 293 421 Z " />
<glyph glyph-name="uni1EAB" unicode="&#x1eab;" horiz-adv-x="585" d="M520 765 Q502 727 478 709.5 Q454 692 420 692 Q402 692 386 698 Q370 704 336 724 Q319 734 310 737.5 Q301 741 292 741 Q263 741 244 698 L207 709 Q225 747 246 764.5 Q267 782 295 782 Q313 782 327 776.5 Q341 771 380 748 Q408 732 424 732 Q441 732 454 741.5 Q467 751 483 776 L520 765 Z M198 548 L347 687 L457 546 L426 520 L341 629 L223 520 L198 548 Z M427 0 L436 80 Q391 29 352.5 9 Q314 -11 261 -11 Q200 -11 152.5 17 Q105 45 78 95 Q51 145 51 208 Q51 280 82 338 Q113 396 167 429.5 Q221 463 288 463 Q348 463 389.5 440 Q431 417 471 360 L483 452 L527 452 L471 0 L427 0 Z M293 421 Q238 421 193.5 393.5 Q149 366 123 318 Q97 270 97 211 Q97 160 118.5 119 Q140 78 178.5 54.5 Q217 31 264 31 Q317 31 362.5 61 Q408 91 435 141.5 Q462 192 462 250 Q462 299 440.5 338 Q419 377 380.5 399 Q342 421 293 421 Z " />
<glyph glyph-name="uni1EAD" unicode="&#x1ead;" horiz-adv-x="585" d="M198 548 L347 687 L457 546 L426 520 L341 629 L223 520 L198 548 Z M427 0 L436 80 Q391 29 352.5 9 Q314 -11 261 -11 Q200 -11 152.5 17 Q105 45 78 95 Q51 145 51 208 Q51 280 82 338 Q113 396 167 429.5 Q221 463 288 463 Q348 463 389.5 440 Q431 417 471 360 L483 452 L527 452 L471 0 L427 0 Z M293 421 Q238 421 193.5 393.5 Q149 366 123 318 Q97 270 97 211 Q97 160 118.5 119 Q140 78 178.5 54.5 Q217 31 264 31 Q317 31 362.5 61 Q408 91 435 141.5 Q462 192 462 250 Q462 299 440.5 338 Q419 377 380.5 399 Q342 421 293 421 Z M262 -58 Q276 -58 284.5 -66.5 Q293 -75 293 -89 Q293 -105 280.5 -117 Q268 -129 252 -129 Q239 -129 231 -120.5 Q223 -112 223 -98 Q223 -82 234.5 -70 Q246 -58 262 -58 Z " />
<glyph glyph-name="uni1EAF" unicode="&#x1eaf;" horiz-adv-x="585" d="M316 642 L445 783 L485 747 L340 619 L316 642 Z M257 666 Q259 614 277 590.5 Q295 567 332 567 Q370 567 395 591 Q420 615 434 666 L477 666 Q464 602 424 564.5 Q384 527 328 527 Q273 527 244.5 562.5 Q216 598 215 666 L257 666 Z M427 0 L436 80 Q391 29 352.5 9 Q314 -11 261 -11 Q200 -11 152.5 17 Q105 45 78 95 Q51 145 51 208 Q51 280 82 338 Q113 396 167 429.5 Q221 463 288 463 Q348 463 389.5 440 Q431 417 471 360 L483 452 L527 452 L471 0 L427 0 Z M293 421 Q238 421 193.5 393.5 Q149 366 123 318 Q97 270 97 211 Q97 160 118.5 119 Q140 78 178.5 54.5 Q217 31 264 31 Q317 31 362.5 61 Q408 91 435 141.5 Q462 192 462 250 Q462 299 440.5 338 Q419 377 380.5 399 Q342 421 293 421 Z " />
<glyph glyph-name="uni1EB1" unicode="&#x1eb1;" horiz-adv-x="585" d="M362 645 L333 627 L236 759 L280 790 L362 645 Z M257 666 Q259 614 277 590.5 Q295 567 332 567 Q370 567 395 591 Q420 615 434 666 L477 666 Q464 602 424 564.5 Q384 527 328 527 Q273 527 244.5 562.5 Q216 598 215 666 L257 666 Z M427 0 L436 80 Q391 29 352.5 9 Q314 -11 261 -11 Q200 -11 152.5 17 Q105 45 78 95 Q51 145 51 208 Q51 280 82 338 Q113 396 167 429.5 Q221 463 288 463 Q348 463 389.5 440 Q431 417 471 360 L483 452 L527 452 L471 0 L427 0 Z M293 421 Q238 421 193.5 393.5 Q149 366 123 318 Q97 270 97 211 Q97 160 118.5 119 Q140 78 178.5 54.5 Q217 31 264 31 Q317 31 362.5 61 Q408 91 435 141.5 Q462 192 462 250 Q462 299 440.5 338 Q419 377 380.5 399 Q342 421 293 421 Z " />
<glyph glyph-name="uni1EB3" unicode="&#x1eb3;" horiz-adv-x="585" d="M334 703 Q363 707 368 709 Q410 713 427.5 726.5 Q445 740 445 767 Q445 785 430.5 795.5 Q416 806 390 806 Q376 806 368 804.5 Q360 803 348 796 L327 786 L322 816 Q380 835 420 835 Q460 835 483.5 816.5 Q507 798 507 767 Q507 730 479.5 707 Q452 684 406 684 Q386 684 368 685 L359 641 L322 641 L334 703 Z M257 666 Q259 614 277 590.5 Q295 567 332 567 Q370 567 395 591 Q420 615 434 666 L477 666 Q464 602 424 564.5 Q384 527 328 527 Q273 527 244.5 562.5 Q216 598 215 666 L257 666 Z M427 0 L436 80 Q391 29 352.5 9 Q314 -11 261 -11 Q200 -11 152.5 17 Q105 45 78 95 Q51 145 51 208 Q51 280 82 338 Q113 396 167 429.5 Q221 463 288 463 Q348 463 389.5 440 Q431 417 471 360 L483 452 L527 452 L471 0 L427 0 Z M293 421 Q238 421 193.5 393.5 Q149 366 123 318 Q97 270 97 211 Q97 160 118.5 119 Q140 78 178.5 54.5 Q217 31 264 31 Q317 31 362.5 61 Q408 91 435 141.5 Q462 192 462 250 Q462 299 440.5 338 Q419 377 380.5 399 Q342 421 293 421 Z " />
<glyph glyph-name="uni1EB5" unicode="&#x1eb5;" horiz-adv-x="585" d="M505 765 Q487 726 463.5 708 Q440 690 406 690 Q388 690 372 696.5 Q356 703 321 723 Q304 733 295 736.5 Q286 740 277 740 Q248 740 229 698 L192 709 Q210 746 231 763.5 Q252 781 280 781 Q298 781 312 775.5 Q326 770 365 747 Q393 731 409 731 Q427 731 439.5 740.5 Q452 750 468 776 L505 765 Z M257 666 Q259 614 277 590.5 Q295 567 332 567 Q370 567 395 591 Q420 615 434 666 L477 666 Q464 602 424 564.5 Q384 527 328 527 Q273 527 244.5 562.5 Q216 598 215 666 L257 666 Z M427 0 L436 80 Q391 29 352.5 9 Q314 -11 261 -11 Q200 -11 152.5 17 Q105 45 78 95 Q51 145 51 208 Q51 280 82 338 Q113 396 167 429.5 Q221 463 288 463 Q348 463 389.5 440 Q431 417 471 360 L483 452 L527 452 L471 0 L427 0 Z M293 421 Q238 421 193.5 393.5 Q149 366 123 318 Q97 270 97 211 Q97 160 118.5 119 Q140 78 178.5 54.5 Q217 31 264 31 Q317 31 362.5 61 Q408 91 435 141.5 Q462 192 462 250 Q462 299 440.5 338 Q419 377 380.5 399 Q342 421 293 421 Z " />
<glyph glyph-name="uni1EB7" unicode="&#x1eb7;" horiz-adv-x="585" d="M257 666 Q259 614 277 590.5 Q295 567 332 567 Q370 567 395 591 Q420 615 434 666 L477 666 Q464 602 424 564.5 Q384 527 328 527 Q273 527 244.5 562.5 Q216 598 215 666 L257 666 Z M427 0 L436 80 Q391 29 352.5 9 Q314 -11 261 -11 Q200 -11 152.5 17 Q105 45 78 95 Q51 145 51 208 Q51 280 82 338 Q113 396 167 429.5 Q221 463 288 463 Q348 463 389.5 440 Q431 417 471 360 L483 452 L527 452 L471 0 L427 0 Z M293 421 Q238 421 193.5 393.5 Q149 366 123 318 Q97 270 97 211 Q97 160 118.5 119 Q140 78 178.5 54.5 Q217 31 264 31 Q317 31 362.5 61 Q408 91 435 141.5 Q462 192 462 250 Q462 299 440.5 338 Q419 377 380.5 399 Q342 421 293 421 Z M268 -58 Q282 -58 290 -66.5 Q298 -75 298 -89 Q298 -105 286 -117 Q274 -129 258 -129 Q245 -129 236.5 -120 Q228 -111 228 -98 Q228 -82 240 -70 Q252 -58 268 -58 Z " />
<glyph glyph-name="uni1EB9" unicode="&#x1eb9;" horiz-adv-x="530" d="M94 202 Q94 125 141.5 76 Q189 27 264 27 Q308 27 340.5 44 Q373 61 407 102 L437 80 Q396 27 357 6 Q318 -15 261 -15 Q198 -15 150.5 12.5 Q103 40 76.5 89 Q50 138 50 202 Q50 278 79 338.5 Q108 399 158.5 433.5 Q209 468 273 468 Q335 468 383 436 Q431 404 453 347 Q461 325 465.5 299 Q470 273 471 231 L94 231 L94 202 Z M427 271 Q424 301 418.5 319.5 Q413 338 402 356 Q381 389 347 407.5 Q313 426 273 426 Q236 426 201.5 409.5 Q167 393 142 364 Q127 344 118 324 Q109 304 101 271 L427 271 Z M247 -58 Q262 -58 270 -66.5 Q278 -75 278 -89 Q278 -105 265.5 -117 Q253 -129 237 -129 Q224 -129 216 -120.5 Q208 -112 208 -98 Q208 -82 219.5 -70 Q231 -58 247 -58 Z " />
<glyph glyph-name="uni1EBB" unicode="&#x1ebb;" horiz-adv-x="530" d="M284 598 L316 602 Q359 608 376.5 621.5 Q394 635 394 662 Q394 680 379.5 690.5 Q365 701 339 701 Q326 701 318 698.5 Q310 696 296 690 L275 681 L270 710 Q327 730 368 730 Q409 730 433 712 Q457 694 457 662 Q457 624 428.5 600.5 Q400 577 354 577 Q334 577 316 580 L307 536 L270 536 L284 598 Z M94 202 Q94 125 141.5 76 Q189 27 264 27 Q308 27 340.5 44 Q373 61 407 102 L437 80 Q396 27 357 6 Q318 -15 261 -15 Q198 -15 150.5 12.5 Q103 40 76.5 89 Q50 138 50 202 Q50 278 79 338.5 Q108 399 158.5 433.5 Q209 468 273 468 Q335 468 383 436 Q431 404 453 347 Q461 325 465.5 299 Q470 273 471 231 L94 231 L94 202 Z M427 271 Q424 301 418.5 319.5 Q413 338 402 356 Q381 389 347 407.5 Q313 426 273 426 Q236 426 201.5 409.5 Q167 393 142 364 Q127 344 118 324 Q109 304 101 271 L427 271 Z " />
<glyph glyph-name="uni1EBD" unicode="&#x1ebd;" horiz-adv-x="530" d="M468 615 Q451 576 427.5 558 Q404 540 370 540 Q351 540 335 546.5 Q319 553 285 573 Q268 584 259 587.5 Q250 591 241 591 Q211 591 192 548 L156 558 Q173 596 194 614 Q215 632 243 632 Q261 632 276 626 Q291 620 329 597 Q343 588 352.5 584.5 Q362 581 373 581 Q391 581 403 590.5 Q415 600 432 626 L468 615 Z M94 202 Q94 125 141.5 76 Q189 27 264 27 Q308 27 340.5 44 Q373 61 407 102 L437 80 Q396 27 357 6 Q318 -15 261 -15 Q198 -15 150.5 12.5 Q103 40 76.5 89 Q50 138 50 202 Q50 278 79 338.5 Q108 399 158.5 433.5 Q209 468 273 468 Q335 468 383 436 Q431 404 453 347 Q461 325 465.5 299 Q470 273 471 231 L94 231 L94 202 Z M427 271 Q424 301 418.5 319.5 Q413 338 402 356 Q381 389 347 407.5 Q313 426 273 426 Q236 426 201.5 409.5 Q167 393 142 364 Q127 344 118 324 Q109 304 101 271 L427 271 Z " />
<glyph glyph-name="uni1EBF" unicode="&#x1ebf;" horiz-adv-x="530" d="M548 687 L414 568 L431 546 L399 520 L314 629 L197 520 L171 548 L321 687 L392 596 L508 722 L548 687 Z M94 202 Q94 125 141.5 76 Q189 27 264 27 Q308 27 340.5 44 Q373 61 407 102 L437 80 Q396 27 357 6 Q318 -15 261 -15 Q198 -15 150.5 12.5 Q103 40 76.5 89 Q50 138 50 202 Q50 278 79 338.5 Q108 399 158.5 433.5 Q209 468 273 468 Q335 468 383 436 Q431 404 453 347 Q461 325 465.5 299 Q470 273 471 231 L94 231 L94 202 Z M427 271 Q424 301 418.5 319.5 Q413 338 402 356 Q381 389 347 407.5 Q313 426 273 426 Q236 426 201.5 409.5 Q167 393 142 364 Q127 344 118 324 Q109 304 101 271 L427 271 Z " />
<glyph glyph-name="uni1EC1" unicode="&#x1ec1;" horiz-adv-x="530" d="M492 610 L469 594 L366 722 L407 750 L492 610 Z M430 546 L399 520 L314 629 L196 520 L171 548 L320 687 L430 546 Z M94 202 Q94 125 141.5 76 Q189 27 264 27 Q308 27 340.5 44 Q373 61 407 102 L437 80 Q396 27 357 6 Q318 -15 261 -15 Q198 -15 150.5 12.5 Q103 40 76.5 89 Q50 138 50 202 Q50 278 79 338.5 Q108 399 158.5 433.5 Q209 468 273 468 Q335 468 383 436 Q431 404 453 347 Q461 325 465.5 299 Q470 273 471 231 L94 231 L94 202 Z M427 271 Q424 301 418.5 319.5 Q413 338 402 356 Q381 389 347 407.5 Q313 426 273 426 Q236 426 201.5 409.5 Q167 393 142 364 Q127 344 118 324 Q109 304 101 271 L427 271 Z " />
<glyph glyph-name="uni1EC3" unicode="&#x1ec3;" horiz-adv-x="530" d="M402 633 Q432 637 436 637 Q479 643 496 656.5 Q513 670 513 696 Q513 715 498.5 725.5 Q484 736 458 736 Q445 736 437 734 Q429 732 415 725 L394 716 L389 745 Q446 765 488 765 Q528 765 551.5 746.5 Q575 728 575 697 Q575 659 547 635.5 Q519 612 473 612 Q454 612 436 614 L427 571 L411 571 L431 547 L399 520 L314 631 L197 520 L171 548 L321 687 L394 593 L402 633 Z M94 202 Q94 125 141.5 76 Q189 27 264 27 Q308 27 340.5 44 Q373 61 407 102 L437 80 Q396 27 357 6 Q318 -15 261 -15 Q198 -15 150.5 12.5 Q103 40 76.5 89 Q50 138 50 202 Q50 278 79 338.5 Q108 399 158.5 433.5 Q209 468 273 468 Q335 468 383 436 Q431 404 453 347 Q461 325 465.5 299 Q470 273 471 231 L94 231 L94 202 Z M427 271 Q424 301 418.5 319.5 Q413 338 402 356 Q381 389 347 407.5 Q313 426 273 426 Q236 426 201.5 409.5 Q167 393 142 364 Q127 344 118 324 Q109 304 101 271 L427 271 Z " />
<glyph glyph-name="uni1EC5" unicode="&#x1ec5;" horiz-adv-x="530" d="M495 768 Q478 730 454 712 Q430 694 397 694 Q378 694 361.5 700 Q345 706 311 727 Q293 738 284.5 741.5 Q276 745 267 745 Q238 745 219 702 L183 712 Q200 750 221 767.5 Q242 785 270 785 Q289 785 303.5 779 Q318 773 356 750 Q382 734 400 734 Q417 734 429.5 744 Q442 754 458 780 L495 768 Z M171 548 L321 687 L431 546 L399 520 L314 629 L197 520 L171 548 Z M94 202 Q94 125 141.5 76 Q189 27 264 27 Q308 27 340.5 44 Q373 61 407 102 L437 80 Q396 27 357 6 Q318 -15 261 -15 Q198 -15 150.5 12.5 Q103 40 76.5 89 Q50 138 50 202 Q50 278 79 338.5 Q108 399 158.5 433.5 Q209 468 273 468 Q335 468 383 436 Q431 404 453 347 Q461 325 465.5 299 Q470 273 471 231 L94 231 L94 202 Z M427 271 Q424 301 418.5 319.5 Q413 338 402 356 Q381 389 347 407.5 Q313 426 273 426 Q236 426 201.5 409.5 Q167 393 142 364 Q127 344 118 324 Q109 304 101 271 L427 271 Z " />
<glyph glyph-name="uni1EC7" unicode="&#x1ec7;" horiz-adv-x="530" d="M171 548 L321 687 L431 546 L399 520 L314 629 L197 520 L171 548 Z M94 202 Q94 125 141.5 76 Q189 27 264 27 Q308 27 340.5 44 Q373 61 407 102 L437 80 Q396 27 357 6 Q318 -15 261 -15 Q198 -15 150.5 12.5 Q103 40 76.5 89 Q50 138 50 202 Q50 278 79 338.5 Q108 399 158.5 433.5 Q209 468 273 468 Q335 468 383 436 Q431 404 453 347 Q461 325 465.5 299 Q470 273 471 231 L94 231 L94 202 Z M427 271 Q424 301 418.5 319.5 Q413 338 402 356 Q381 389 347 407.5 Q313 426 273 426 Q236 426 201.5 409.5 Q167 393 142 364 Q127 344 118 324 Q109 304 101 271 L427 271 Z M272 -58 Q287 -58 295 -66.5 Q303 -75 303 -89 Q303 -105 290.5 -117 Q278 -129 262 -129 Q249 -129 241 -120.5 Q233 -112 233 -98 Q233 -82 244.5 -70 Q256 -58 272 -58 Z " />
<glyph glyph-name="uni1EC9" unicode="&#x1ec9;" horiz-adv-x="210" d="M137 598 Q165 602 171 602 Q213 608 230 621.5 Q247 635 247 662 Q247 680 232.5 690.5 Q218 701 192 701 Q179 701 171 699 Q163 697 149 690 L129 681 L123 710 Q180 730 223 730 Q263 730 286.5 711.5 Q310 693 310 662 Q310 624 281.5 600.5 Q253 577 207 577 Q188 577 171 580 L162 536 L123 536 L137 598 Z M51 0 L106 452 L151 452 L95 0 L51 0 Z " />
<glyph glyph-name="uni1ECB" unicode="&#x1ecb;" horiz-adv-x="210" d="M154 667 Q167 667 174.5 658.5 Q182 650 182 636 Q182 621 171.5 609.5 Q161 598 147 598 Q135 598 127 607 Q119 616 119 629 Q119 646 128.5 656.5 Q138 667 154 667 Z M52 0 L107 452 L151 452 L96 0 L52 0 Z M64 -58 Q79 -58 87 -66.5 Q95 -75 95 -89 Q95 -105 82.5 -117 Q70 -129 54 -129 Q41 -129 33 -120.5 Q25 -112 25 -98 Q25 -82 36.5 -70 Q48 -58 64 -58 Z " />
<glyph glyph-name="uni1ECD" unicode="&#x1ecd;" horiz-adv-x="588" d="M299 467 Q367 467 419 437 Q471 407 500 353 Q529 299 529 229 Q529 162 497 106 Q465 50 409.5 17.5 Q354 -15 287 -15 Q221 -15 167 15 Q113 45 82 97.5 Q51 150 51 215 Q51 284 84 342 Q117 400 174 433.5 Q231 467 299 467 Z M299 425 Q245 425 198.5 397 Q152 369 124.5 321.5 Q97 274 97 218 Q97 165 122 121.5 Q147 78 190.5 52.5 Q234 27 286 27 Q341 27 386 54 Q431 81 457 128 Q483 175 483 233 Q483 289 460 333 Q437 377 395 401 Q353 425 299 425 Z M284 -58 Q298 -58 306 -66.5 Q314 -75 314 -89 Q314 -105 301.5 -117 Q289 -129 273 -129 Q261 -129 252.5 -120 Q244 -111 244 -98 Q244 -82 256 -70 Q268 -58 284 -58 Z " />
<glyph glyph-name="uni1ECF" unicode="&#x1ecf;" horiz-adv-x="588" d="M312 598 Q342 602 345 602 Q388 608 405.5 621.5 Q423 635 423 662 Q423 680 408 690.5 Q393 701 367 701 Q353 701 345 699 Q337 697 324 690 L303 681 L298 710 Q355 730 397 730 Q438 730 461.5 711.5 Q485 693 485 662 Q485 624 456.5 600.5 Q428 577 382 577 Q363 577 345 580 L336 536 L298 536 L312 598 Z M299 467 Q367 467 419 437 Q471 407 500 353 Q529 299 529 229 Q529 162 497 106 Q465 50 409.5 17.5 Q354 -15 287 -15 Q221 -15 167 15 Q113 45 82 97.5 Q51 150 51 215 Q51 284 84 342 Q117 400 174 433.5 Q231 467 299 467 Z M299 425 Q245 425 198.5 397 Q152 369 124.5 321.5 Q97 274 97 218 Q97 165 122 121.5 Q147 78 190.5 52.5 Q234 27 286 27 Q341 27 386 54 Q431 81 457 128 Q483 175 483 233 Q483 289 460 333 Q437 377 395 401 Q353 425 299 425 Z " />
<glyph glyph-name="uni1ED1" unicode="&#x1ed1;" horiz-adv-x="588" d="M572 698 L440 581 L467 548 L437 520 L344 631 L218 520 L192 548 L350 687 L417 608 L533 733 L572 698 Z M301 467 Q367 467 419 437.5 Q471 408 500 355 Q529 302 529 234 Q529 164 497.5 107 Q466 50 410.5 17.5 Q355 -15 287 -15 Q221 -15 167 15 Q113 45 82 97.5 Q51 150 51 215 Q51 285 84 342.5 Q117 400 174.5 433.5 Q232 467 301 467 Z M299 425 Q245 425 198.5 397 Q152 369 124.5 321.5 Q97 274 97 218 Q97 165 122 121.5 Q147 78 190.5 52.5 Q234 27 286 27 Q341 27 386 54 Q431 81 457 128 Q483 175 483 233 Q483 289 460 333 Q437 377 395 401 Q353 425 299 425 Z " />
<glyph glyph-name="uni1ED3" unicode="&#x1ed3;" horiz-adv-x="588" d="M524 610 L501 594 L398 722 L439 750 L524 610 Z M462 546 L431 520 L346 629 L228 520 L203 548 L352 687 L462 546 Z M301 467 Q367 467 419 437.5 Q471 408 500 355 Q529 302 529 234 Q529 164 497.5 107 Q466 50 410.5 17.5 Q355 -15 287 -15 Q221 -15 167 15 Q113 45 82 97.5 Q51 150 51 215 Q51 285 84 342.5 Q117 400 174.5 433.5 Q232 467 301 467 Z M299 425 Q245 425 198.5 397 Q152 369 124.5 321.5 Q97 274 97 218 Q97 165 122 121.5 Q147 78 190.5 52.5 Q234 27 286 27 Q341 27 386 54 Q431 81 457 128 Q483 175 483 233 Q483 289 460 333 Q437 377 395 401 Q353 425 299 425 Z " />
<glyph glyph-name="uni1ED5" unicode="&#x1ed5;" horiz-adv-x="588" d="M434 628 Q461 633 468 633 Q510 639 527.5 652.5 Q545 666 545 692 Q545 710 530 720.5 Q515 731 489 731 Q475 731 467 729.5 Q459 728 447 721 L426 711 L420 740 Q451 751 473.5 755.5 Q496 760 520 760 Q560 760 583.5 742 Q607 724 607 693 Q607 655 579 631.5 Q551 608 506 608 Q486 608 468 609 L459 566 L452 566 L467 548 L437 520 L344 631 L218 520 L192 548 L350 687 L427 596 L434 628 Z M301 467 Q367 467 419 437.5 Q471 408 500 355 Q529 302 529 234 Q529 164 497.5 107 Q466 50 410.5 17.5 Q355 -15 287 -15 Q221 -15 167 15 Q113 45 82 97.5 Q51 150 51 215 Q51 285 84 342.5 Q117 400 174.5 433.5 Q232 467 301 467 Z M299 425 Q245 425 198.5 397 Q152 369 124.5 321.5 Q97 274 97 218 Q97 165 122 121.5 Q147 78 190.5 52.5 Q234 27 286 27 Q341 27 386 54 Q431 81 457 128 Q483 175 483 233 Q483 289 460 333 Q437 377 395 401 Q353 425 299 425 Z " />
<glyph glyph-name="uni1ED7" unicode="&#x1ed7;" horiz-adv-x="588" d="M522 770 Q504 731 480 713 Q456 695 423 695 Q405 695 389 701.5 Q373 708 338 728 Q320 739 311.5 742.5 Q303 746 294 746 Q265 746 246 703 L209 713 Q227 751 248 768.5 Q269 786 297 786 Q316 786 330.5 780 Q345 774 382 751 Q408 736 426 736 Q444 736 456 745.5 Q468 755 485 781 L522 770 Z M192 548 L350 687 L467 548 L437 520 L344 629 L218 520 L192 548 Z M299 467 Q367 467 419 437 Q471 407 500 353 Q529 299 529 229 Q529 162 497 106 Q465 50 409.5 17.5 Q354 -15 287 -15 Q221 -15 167 15 Q113 45 82 97.5 Q51 150 51 215 Q51 284 84 342 Q117 400 174 433.5 Q231 467 299 467 Z M299 425 Q245 425 198.5 397 Q152 369 124.5 321.5 Q97 274 97 218 Q97 165 122 121.5 Q147 78 190.5 52.5 Q234 27 286 27 Q341 27 386 54 Q431 81 457 128 Q483 175 483 233 Q483 289 460 333 Q437 377 395 401 Q353 425 299 425 Z " />
<glyph glyph-name="uni1ED9" unicode="&#x1ed9;" horiz-adv-x="588" d="M192 548 L350 687 L467 548 L437 520 L344 629 L218 520 L192 548 Z M299 467 Q367 467 419 437 Q471 407 500 353 Q529 299 529 229 Q529 162 497 106 Q465 50 409.5 17.5 Q354 -15 287 -15 Q221 -15 167 15 Q113 45 82 97.5 Q51 150 51 215 Q51 284 84 342 Q117 400 174 433.5 Q231 467 299 467 Z M299 425 Q245 425 198.5 397 Q152 369 124.5 321.5 Q97 274 97 218 Q97 165 122 121.5 Q147 78 190.5 52.5 Q234 27 286 27 Q341 27 386 54 Q431 81 457 128 Q483 175 483 233 Q483 289 460 333 Q437 377 395 401 Q353 425 299 425 Z M301 -58 Q315 -58 323 -66.5 Q331 -75 331 -89 Q331 -105 318.5 -117 Q306 -129 290 -129 Q277 -129 269 -120.5 Q261 -112 261 -98 Q261 -82 273 -70 Q285 -58 301 -58 Z " />
<glyph glyph-name="uni1EDB" unicode="&#x1edb;" horiz-adv-x="588" d="M295 542 L424 684 L463 647 L319 520 L295 542 Z M606 454 L516 313 Q529 269 529 233 Q529 164 497 107 Q465 50 409.5 17.5 Q354 -15 287 -15 Q221 -15 167 15 Q113 45 82 97.5 Q51 150 51 215 Q51 285 84 342.5 Q117 400 174.5 433.5 Q232 467 301 467 Q366 467 418.5 437.5 Q471 408 498 356 L560 478 L606 454 Z M299 425 Q245 425 198.5 397 Q152 369 124.5 321.5 Q97 274 97 218 Q97 165 122 121.5 Q147 78 190.5 52.5 Q234 27 286 27 Q341 27 386 54 Q431 81 457 128 Q483 175 483 233 Q483 289 460 333 Q437 377 395 401 Q353 425 299 425 Z " />
<glyph glyph-name="uni1EDD" unicode="&#x1edd;" horiz-adv-x="588" d="M376 538 L349 520 L252 652 L296 684 L376 538 Z M606 454 L516 313 Q529 269 529 233 Q529 164 497 107 Q465 50 409.5 17.5 Q354 -15 287 -15 Q221 -15 167 15 Q113 45 82 97.5 Q51 150 51 215 Q51 285 84 342.5 Q117 400 174.5 433.5 Q232 467 301 467 Q366 467 418.5 437.5 Q471 408 498 356 L560 478 L606 454 Z M299 425 Q245 425 198.5 397 Q152 369 124.5 321.5 Q97 274 97 218 Q97 165 122 121.5 Q147 78 190.5 52.5 Q234 27 286 27 Q341 27 386 54 Q431 81 457 128 Q483 175 483 233 Q483 289 460 333 Q437 377 395 401 Q353 425 299 425 Z " />
<glyph glyph-name="uni1EDF" unicode="&#x1edf;" horiz-adv-x="588" d="M312 598 Q342 602 345 602 Q388 608 405.5 621.5 Q423 635 423 662 Q423 680 408 690.5 Q393 701 367 701 Q353 701 345 699 Q337 697 324 690 L303 681 L298 710 Q355 730 397 730 Q438 730 461.5 711.5 Q485 693 485 662 Q485 624 456.5 600.5 Q428 577 382 577 Q363 577 345 580 L336 536 L298 536 L312 598 Z M606 454 L516 313 Q529 269 529 233 Q529 164 497 107 Q465 50 409.5 17.5 Q354 -15 287 -15 Q221 -15 167 15 Q113 45 82 97.5 Q51 150 51 215 Q51 285 84 342.5 Q117 400 174.5 433.5 Q232 467 301 467 Q366 467 418.5 437.5 Q471 408 498 356 L560 478 L606 454 Z M299 425 Q245 425 198.5 397 Q152 369 124.5 321.5 Q97 274 97 218 Q97 165 122 121.5 Q147 78 190.5 52.5 Q234 27 286 27 Q341 27 386 54 Q431 81 457 128 Q483 175 483 233 Q483 289 460 333 Q437 377 395 401 Q353 425 299 425 Z " />
<glyph glyph-name="uni1EE1" unicode="&#x1ee1;" horiz-adv-x="588" d="M496 615 Q479 576 455.5 558 Q432 540 398 540 Q379 540 363 546.5 Q347 553 313 573 Q296 584 287 587.5 Q278 591 269 591 Q240 591 221 548 L184 558 Q201 596 222.5 614 Q244 632 272 632 Q290 632 304.5 626 Q319 620 357 597 Q382 581 401 581 Q419 581 431 590.5 Q443 600 460 626 L496 615 Z M606 454 L516 313 Q529 269 529 233 Q529 164 497 107 Q465 50 409.5 17.5 Q354 -15 287 -15 Q221 -15 167 15 Q113 45 82 97.5 Q51 150 51 215 Q51 285 84 342.5 Q117 400 174.5 433.5 Q232 467 301 467 Q366 467 418.5 437.5 Q471 408 498 356 L560 478 L606 454 Z M299 425 Q245 425 198.5 397 Q152 369 124.5 321.5 Q97 274 97 218 Q97 165 122 121.5 Q147 78 190.5 52.5 Q234 27 286 27 Q341 27 386 54 Q431 81 457 128 Q483 175 483 233 Q483 289 460 333 Q437 377 395 401 Q353 425 299 425 Z " />
<glyph glyph-name="uni1EE3" unicode="&#x1ee3;" horiz-adv-x="588" d="M606 454 L516 313 Q529 269 529 233 Q529 164 497 107 Q465 50 409.5 17.5 Q354 -15 287 -15 Q221 -15 167 15 Q113 45 82 97.5 Q51 150 51 215 Q51 285 84 342.5 Q117 400 174.5 433.5 Q232 467 301 467 Q366 467 418.5 437.5 Q471 408 498 356 L560 478 L606 454 Z M299 425 Q245 425 198.5 397 Q152 369 124.5 321.5 Q97 274 97 218 Q97 165 122 121.5 Q147 78 190.5 52.5 Q234 27 286 27 Q341 27 386 54 Q431 81 457 128 Q483 175 483 233 Q483 289 460 333 Q437 377 395 401 Q353 425 299 425 Z M284 -58 Q298 -58 306 -66.5 Q314 -75 314 -89 Q314 -105 301.5 -117 Q289 -129 273 -129 Q261 -129 252.5 -120 Q244 -111 244 -98 Q244 -82 256 -70 Q268 -58 284 -58 Z " />
<glyph glyph-name="uni1EE5" unicode="&#x1ee5;" horiz-adv-x="492" d="M341 69 Q312 27 276 8 Q240 -11 193 -11 Q135 -11 101.5 22 Q68 55 68 112 Q68 134 75 190 L106 452 L151 452 L119 191 Q112 137 112 115 Q112 31 205 31 Q273 31 310 73 Q347 115 356 191 L389 452 L433 452 L377 0 L333 0 L341 69 Z M217 -58 Q231 -58 239.5 -66.5 Q248 -75 248 -89 Q248 -105 235.5 -117 Q223 -129 207 -129 Q194 -129 186 -120.5 Q178 -112 178 -98 Q178 -82 189.5 -70 Q201 -58 217 -58 Z " />
<glyph glyph-name="uni1EE7" unicode="&#x1ee7;" horiz-adv-x="492" d="M341 69 Q312 27 276 8 Q240 -11 193 -11 Q135 -11 101.5 22 Q68 55 68 112 Q68 134 75 190 L106 452 L151 452 L119 191 Q112 137 112 115 Q112 31 205 31 Q273 31 310 73 Q347 115 356 191 L389 452 L433 452 L377 0 L333 0 L341 69 Z M264 598 Q294 602 298 602 Q341 608 358 621.5 Q375 635 375 662 Q375 680 360.5 690.5 Q346 701 320 701 Q307 701 299.5 699 Q292 697 277 690 L256 681 L251 710 Q307 730 350 730 Q390 730 413.5 711.5 Q437 693 437 662 Q437 624 409 600.5 Q381 577 335 577 Q315 577 298 580 L289 536 L251 536 L264 598 Z " />
<glyph glyph-name="uni1EE9" unicode="&#x1ee9;" horiz-adv-x="492" d="M468 306 L437 321 L522 489 L568 466 L468 306 Z M341 69 Q312 27 276 8 Q240 -11 193 -11 Q135 -11 101.5 22 Q68 55 68 112 Q68 134 75 190 L106 452 L151 452 L119 191 Q112 137 112 115 Q112 31 205 31 Q273 31 310 75 Q347 119 357 202 L389 452 L433 452 L377 0 L333 0 L341 69 Z M247 542 L377 684 L415 647 L270 520 L247 542 Z " />
<glyph glyph-name="uni1EEB" unicode="&#x1eeb;" horiz-adv-x="492" d="M468 306 L437 321 L522 489 L568 466 L468 306 Z M341 69 Q312 27 276 8 Q240 -11 193 -11 Q135 -11 101.5 22 Q68 55 68 112 Q68 134 75 190 L106 452 L151 452 L119 191 Q112 137 112 115 Q112 31 205 31 Q273 31 310 75 Q347 119 357 202 L389 452 L433 452 L377 0 L333 0 L341 69 Z M329 538 L302 520 L205 652 L249 684 L329 538 Z " />
<glyph glyph-name="uni1EED" unicode="&#x1eed;" horiz-adv-x="492" d="M468 306 L437 321 L522 489 L568 466 L468 306 Z M341 69 Q312 27 276 8 Q240 -11 193 -11 Q135 -11 101.5 22 Q68 55 68 112 Q68 134 75 190 L106 452 L151 452 L119 191 Q112 137 112 115 Q112 31 205 31 Q273 31 310 75 Q347 119 357 202 L389 452 L433 452 L377 0 L333 0 L341 69 Z M264 598 Q294 602 298 602 Q341 608 358 621.5 Q375 635 375 662 Q375 680 360.5 690.5 Q346 701 320 701 Q307 701 299.5 699 Q292 697 277 690 L256 681 L251 710 Q307 730 350 730 Q390 730 413.5 711.5 Q437 693 437 662 Q437 624 409 600.5 Q381 577 335 577 Q315 577 298 580 L289 536 L251 536 L264 598 Z " />
<glyph glyph-name="uni1EEF" unicode="&#x1eef;" horiz-adv-x="492" d="M468 306 L437 321 L522 489 L568 466 L468 306 Z M341 69 Q312 27 276 8 Q240 -11 193 -11 Q135 -11 101.5 22 Q68 55 68 112 Q68 134 75 190 L106 452 L151 452 L119 191 Q112 137 112 115 Q112 31 205 31 Q273 31 310 75 Q347 119 357 202 L389 452 L433 452 L377 0 L333 0 L341 69 Z M448 615 Q431 576 407 558 Q383 540 349 540 Q332 540 315 546.5 Q298 553 265 573 Q249 584 239.5 587.5 Q230 591 221 591 Q206 591 194.5 580.5 Q183 570 173 548 L136 558 Q152 596 173.5 614 Q195 632 224 632 Q242 632 256.5 626 Q271 620 309 597 Q334 581 353 581 Q371 581 383 590.5 Q395 600 412 626 L448 615 Z " />
<glyph glyph-name="uni1EF1" unicode="&#x1ef1;" horiz-adv-x="492" d="M468 306 L437 321 L522 489 L568 466 L468 306 Z M341 69 Q312 27 276 8 Q240 -11 193 -11 Q135 -11 101.5 22 Q68 55 68 112 Q68 134 75 190 L106 452 L151 452 L119 191 Q112 137 112 115 Q112 31 205 31 Q273 31 310 75 Q347 119 357 202 L389 452 L433 452 L377 0 L333 0 L341 69 Z M219 -58 Q233 -58 241.5 -66.5 Q250 -75 250 -89 Q250 -105 237.5 -117 Q225 -129 209 -129 Q196 -129 188 -120.5 Q180 -112 180 -98 Q180 -82 191.5 -70 Q203 -58 219 -58 Z " />
<glyph glyph-name="uni1EF5" unicode="&#x1ef5;" horiz-adv-x="420" d="M150 40 L32 452 L80 452 L180 93 L376 452 L429 452 L32 -263 L-21 -263 L150 40 Z M217 -58 Q231 -58 239 -66.5 Q247 -75 247 -89 Q247 -105 235 -117 Q223 -129 207 -129 Q194 -129 185.5 -120 Q177 -111 177 -98 Q177 -82 189 -70 Q201 -58 217 -58 Z " />
<glyph glyph-name="uni1EF7" unicode="&#x1ef7;" horiz-adv-x="420" d="M228 598 Q258 602 262 602 Q305 608 322 621.5 Q339 635 339 662 Q339 680 324.5 690.5 Q310 701 284 701 Q271 701 263 699 Q255 697 241 690 L220 681 L215 710 Q271 730 314 730 Q354 730 377.5 711.5 Q401 693 401 662 Q401 624 372.5 600.5 Q344 577 298 577 Q279 577 262 580 L253 536 L215 536 L228 598 Z M150 40 L32 452 L80 452 L180 93 L376 452 L429 452 L32 -263 L-21 -263 L150 40 Z " />
<glyph glyph-name="uni1EF9" unicode="&#x1ef9;" horiz-adv-x="420" d="M414 615 Q396 576 372 558 Q348 540 314 540 Q296 540 280 546.5 Q264 553 229 573 Q213 584 204 587.5 Q195 591 185 591 Q156 591 138 548 L101 558 Q118 596 139 614 Q160 632 189 632 Q207 632 221 626 Q235 620 273 597 Q300 581 318 581 Q335 581 347.5 590.5 Q360 600 376 626 L414 615 Z M150 40 L32 452 L80 452 L180 93 L376 452 L429 452 L32 -263 L-21 -263 L150 40 Z " />
<glyph glyph-name="uogonek" unicode="&#x173;" horiz-adv-x="492" d="M331 -197 Q292 -197 269 -176 Q246 -155 246 -120 Q246 -57 333 0 L341 69 Q312 27 276 8 Q240 -11 193 -11 Q135 -11 101.5 22 Q68 55 68 112 Q68 134 75 190 L106 452 L151 452 L119 191 Q112 137 112 115 Q112 31 205 31 Q273 31 310 75 Q347 119 357 202 L389 452 L433 452 L377 0 Q328 -38 308.5 -63.5 Q289 -89 289 -115 Q289 -135 302 -146 Q315 -157 338 -157 Q365 -157 405 -142 L390 -183 Q356 -197 331 -197 Z " />
<glyph glyph-name="uring" unicode="&#x16f;" horiz-adv-x="492" d="M341 69 Q312 27 276 8 Q240 -11 193 -11 Q135 -11 101.5 22 Q68 55 68 112 Q68 134 75 190 L106 452 L151 452 L119 191 Q112 137 112 115 Q112 31 205 31 Q273 31 310 73 Q347 115 356 191 L389 452 L433 452 L377 0 L333 0 L341 69 Z M289 690 Q323 690 348 665 Q373 640 373 606 Q373 570 348 545 Q323 520 288 520 Q251 520 226.5 545 Q202 570 202 606 Q202 641 227.5 665.5 Q253 690 289 690 Z M288 651 Q269 651 255.5 638 Q242 625 242 606 Q242 586 255.5 572.5 Q269 559 288 559 Q307 559 320 572.5 Q333 586 333 606 Q333 625 320 638 Q307 651 288 651 Z " />
<glyph glyph-name="utilde" unicode="&#x169;" horiz-adv-x="492" d="M341 69 Q312 27 276 8 Q240 -11 193 -11 Q135 -11 101.5 22 Q68 55 68 112 Q68 134 75 190 L106 452 L151 452 L119 191 Q112 137 112 115 Q112 31 205 31 Q273 31 310 73 Q347 115 356 191 L389 452 L433 452 L377 0 L333 0 L341 69 Z M444 615 Q427 576 403 558 Q379 540 345 540 Q328 540 311 546.5 Q294 553 261 573 Q245 584 235.5 587.5 Q226 591 217 591 Q202 591 190.5 580.5 Q179 570 169 548 L132 558 Q148 596 169.5 614 Q191 632 220 632 Q238 632 252.5 626 Q267 620 305 597 Q330 581 349 581 Q367 581 379 590.5 Q391 600 408 626 L444 615 Z " />
<glyph glyph-name="v" unicode="v" horiz-adv-x="433" d="M183 76 L390 452 L442 452 L168 -43 L32 452 L78 452 L183 76 Z " />
<glyph glyph-name="w" unicode="w" horiz-adv-x="733" d="M179 76 L385 458 L493 76 L690 452 L742 452 L478 -41 L372 342 L164 -41 L32 452 L80 452 L179 76 Z " />
<glyph glyph-name="wacute" unicode="&#x1e83;" horiz-adv-x="733" d="M345 542 L475 684 L513 647 L368 520 L345 542 Z M179 76 L385 458 L493 76 L690 452 L742 452 L478 -41 L372 342 L164 -41 L32 452 L80 452 L179 76 Z " />
<glyph glyph-name="wcircumflex" unicode="&#x175;" horiz-adv-x="733" d="M259 548 L409 687 L519 546 L487 520 L402 629 L285 520 L259 548 Z M179 76 L385 458 L493 76 L690 452 L742 452 L478 -41 L372 342 L164 -41 L32 452 L80 452 L179 76 Z " />
<glyph glyph-name="wdieresis" unicode="&#x1e85;" horiz-adv-x="733" d="M478 620 Q492 620 501 610.5 Q510 601 510 586 Q510 569 498 555.5 Q486 542 470 542 Q456 542 447 552 Q438 562 438 577 Q438 594 450 607 Q462 620 478 620 Z M305 619 Q318 619 327 609 Q336 599 336 584 Q336 567 324 554.5 Q312 542 296 542 Q283 542 273.5 552 Q264 562 264 576 Q264 593 276.5 606 Q289 619 305 619 Z M179 76 L385 458 L493 76 L690 452 L742 452 L478 -41 L372 342 L164 -41 L32 452 L80 452 L179 76 Z " />
<glyph glyph-name="wgrave" unicode="&#x1e81;" horiz-adv-x="733" d="M450 538 L423 520 L324 652 L368 684 L450 538 Z M179 76 L385 458 L493 76 L690 452 L742 452 L478 -41 L372 342 L164 -41 L32 452 L80 452 L179 76 Z " />
<glyph glyph-name="x" unicode="x" horiz-adv-x="440" d="M60 452 L113 452 L224 264 L381 452 L441 452 L246 226 L380 0 L325 0 L215 190 L52 0 L-9 0 L191 231 L60 452 Z " />
<glyph glyph-name="y" unicode="y" horiz-adv-x="420" d="M150 40 L32 452 L80 452 L180 93 L376 452 L429 452 L32 -263 L-21 -263 L150 40 Z " />
<glyph glyph-name="yacute" unicode="&#xfd;" horiz-adv-x="420" d="M197 542 L327 684 L365 647 L221 520 L197 542 Z M150 40 L32 452 L80 452 L180 93 L376 452 L429 452 L32 -263 L-21 -263 L150 40 Z " />
<glyph glyph-name="ycircumflex" unicode="&#x177;" horiz-adv-x="420" d="M114 548 L264 687 L374 546 L342 520 L258 629 L140 520 L114 548 Z M150 40 L32 452 L80 452 L180 93 L376 452 L429 452 L32 -263 L-21 -263 L150 40 Z " />
<glyph glyph-name="ydieresis" unicode="&#xff;" horiz-adv-x="420" d="M339 620 Q353 620 362 610.5 Q371 601 371 586 Q371 569 359.5 555.5 Q348 542 332 542 Q319 542 310 552 Q301 562 301 577 Q301 594 312.5 607 Q324 620 339 620 Z M167 619 Q180 619 189 609 Q198 599 198 584 Q198 567 186 554.5 Q174 542 158 542 Q145 542 136 552 Q127 562 127 576 Q127 593 139 606 Q151 619 167 619 Z M150 40 L32 452 L80 452 L180 93 L376 452 L429 452 L32 -263 L-21 -263 L150 40 Z " />
<glyph glyph-name="ygrave" unicode="&#x1ef3;" horiz-adv-x="420" d="M270 538 L243 520 L145 652 L189 684 L270 538 Z M150 40 L32 452 L80 452 L180 93 L376 452 L429 452 L32 -263 L-21 -263 L150 40 Z " />
<glyph glyph-name="z" unicode="z" horiz-adv-x="484" d="M86 411 L92 452 L478 452 L93 41 L416 41 L410 0 L-1 0 L386 411 L86 411 Z " />
<glyph glyph-name="zacute" unicode="&#x17a;" horiz-adv-x="484" d="M246 542 L376 684 L415 647 L270 520 L246 542 Z M86 411 L92 452 L478 452 L93 41 L416 41 L410 0 L-1 0 L386 411 L86 411 Z " />
<glyph glyph-name="zcaron" unicode="&#x17e;" horiz-adv-x="484" d="M438 659 L288 520 L179 660 L210 687 L295 576 L412 687 L438 659 Z M86 411 L92 452 L478 452 L93 41 L416 41 L410 0 L-1 0 L386 411 L86 411 Z " />
<glyph glyph-name="zdotaccent" unicode="&#x17c;" horiz-adv-x="484" d="M301 623 Q315 623 324 612.5 Q333 602 333 586 Q333 569 321 555.5 Q309 542 293 542 Q278 542 268.5 552 Q259 562 259 577 Q259 595 271.5 609 Q284 623 301 623 Z M86 411 L92 452 L478 452 L93 41 L416 41 L410 0 L-1 0 L386 411 L86 411 Z " />
<glyph glyph-name="ff" unicode="&#xfb00;" horiz-adv-x="505" d="M55 0 L106 411 L54 411 L59 452 L111 452 L141 699 Q147 743 157.5 769 Q168 795 185 812 Q199 825 218.5 832.5 Q238 840 258 840 Q277 840 306 832 L301 789 Q280 798 261 798 Q226 798 208.5 772.5 Q191 747 184 684 L156 452 L236 452 L232 411 L150 411 L101 0 L55 0 Z M281 0 L332 411 L280 411 L285 452 L337 452 L367 699 Q373 743 383.5 769 Q394 795 411 812 Q425 825 444.5 832.5 Q464 840 484 840 Q503 840 532 832 L527 789 Q506 798 487 798 Q452 798 434.5 772.5 Q417 747 410 684 L382 452 L462 452 L458 411 L376 411 L327 0 L281 0 Z " />
<glyph glyph-name="ffi" unicode="&#xfb03;" horiz-adv-x="667" d="M55 0 L106 411 L54 411 L59 452 L111 452 L141 699 Q147 743 157.5 769 Q168 795 185 812 Q199 825 218.5 832.5 Q238 840 258 840 Q277 840 306 832 L301 789 Q280 798 261 798 Q226 798 208.5 772.5 Q191 747 184 684 L156 452 L236 452 L232 411 L150 411 L101 0 L55 0 Z M281 0 L332 411 L280 411 L285 452 L337 452 L367 699 Q373 743 383.5 769 Q394 795 411 812 Q425 825 444.5 832.5 Q464 840 484 840 Q503 840 532 832 L527 789 Q506 798 487 798 Q452 798 434.5 772.5 Q417 747 410 684 L382 452 L462 452 L458 411 L376 411 L327 0 L281 0 Z M610 667 Q623 667 630.5 658.5 Q638 650 638 636 Q638 621 628 609.5 Q618 598 603 598 Q590 598 582.5 606.5 Q575 615 575 629 Q575 645 585 656 Q595 667 610 667 Z M507 0 L563 452 L608 452 L553 0 L507 0 Z " />
<glyph glyph-name="ffl" unicode="&#xfb04;" horiz-adv-x="667" d="M55 0 L106 411 L54 411 L59 452 L111 452 L141 699 Q147 743 157.5 769 Q168 795 185 812 Q199 825 218.5 832.5 Q238 840 258 840 Q277 840 306 832 L301 789 Q280 798 261 798 Q226 798 208.5 772.5 Q191 747 184 684 L156 452 L236 452 L232 411 L150 411 L101 0 L55 0 Z M281 0 L332 411 L280 411 L285 452 L337 452 L367 699 Q373 743 383.5 769 Q394 795 411 812 Q425 825 444.5 832.5 Q464 840 484 840 Q503 840 532 832 L527 789 Q506 798 487 798 Q452 798 434.5 772.5 Q417 747 410 684 L382 452 L462 452 L458 411 L376 411 L327 0 L281 0 Z M507 0 L609 824 L653 824 L553 0 L507 0 Z " />
<glyph glyph-name="fi" unicode="&#xfb01;" horiz-adv-x="441" d="M55 0 L106 411 L54 411 L59 452 L111 452 L141 699 Q147 743 157.5 769 Q168 795 185 812 Q199 825 218.5 832.5 Q238 840 258 840 Q277 840 306 832 L301 789 Q280 798 261 798 Q226 798 208.5 772.5 Q191 747 184 684 L156 452 L236 452 L232 411 L150 411 L101 0 L55 0 Z M384 667 Q397 667 404.5 658.5 Q412 650 412 636 Q412 621 402 609.5 Q392 598 377 598 Q364 598 356.5 606.5 Q349 615 349 629 Q349 645 359 656 Q369 667 384 667 Z M281 0 L337 452 L382 452 L327 0 L281 0 Z " />
<glyph glyph-name="fl" unicode="&#xfb02;" horiz-adv-x="441" d="M55 0 L106 411 L54 411 L59 452 L111 452 L141 699 Q147 743 157.5 769 Q168 795 185 812 Q199 825 218.5 832.5 Q238 840 258 840 Q277 840 306 832 L301 789 Q280 798 261 798 Q226 798 208.5 772.5 Q191 747 184 684 L156 452 L236 452 L232 411 L150 411 L101 0 L55 0 Z M281 0 L383 824 L427 824 L327 0 L281 0 Z " />
<glyph glyph-name="ordfeminine" unicode="&#xaa;" horiz-adv-x="421" d="M347 452 L353 496 Q329 470 302.5 457.5 Q276 445 242 445 Q178 445 136 486.5 Q94 528 94 591 Q94 638 116 677 Q138 716 176 738 Q214 760 260 760 Q298 760 326.5 746 Q355 732 377 701 L384 754 L427 754 L390 452 L347 452 Z M263 722 Q209 722 173.5 686 Q138 650 138 596 Q138 547 169 515.5 Q200 484 247 484 Q281 484 310 502 Q339 520 356.5 550.5 Q374 581 374 616 Q374 663 343 692.5 Q312 722 263 722 Z " />
<glyph glyph-name="ordmasculine" unicode="&#xba;" horiz-adv-x="421" d="M259 760 Q331 760 376 716 Q421 672 421 602 Q421 557 398.5 520 Q376 483 337 461.5 Q298 440 251 440 Q204 440 166 460 Q128 480 106 515 Q84 550 84 593 Q84 639 107.5 677 Q131 715 171 737.5 Q211 760 259 760 Z M258 722 Q222 722 192.5 705 Q163 688 145.5 659.5 Q128 631 128 597 Q128 547 164 512.5 Q200 478 252 478 Q306 478 341.5 513.5 Q377 549 377 602 Q377 655 344 688.5 Q311 722 258 722 Z " />
<glyph glyph-name="uni0410" unicode="&#x410;" horiz-adv-x="666" d="M612 0 L563 0 L498 255 L183 255 L49 0 L-3 0 L410 788 L612 0 Z M207 299 L487 299 L393 660 L207 299 Z " />
<glyph glyph-name="uni0411" unicode="&#x411;" horiz-adv-x="602" d="M173 754 L546 754 L540 710 L216 710 L183 433 L296 433 Q380 433 421.5 420 Q463 407 492 379 Q515 356 530.5 318 Q546 280 546 238 Q546 182 529.5 136 Q513 90 485 62 Q453 30 401 15 Q349 0 273 0 L80 0 L173 754 Z M285 44 Q384 44 433 79 Q463 100 479.5 141 Q496 182 496 237 Q496 276 482 307.5 Q468 339 446 356 Q420 376 377 382.5 Q334 389 261 389 L177 389 L134 44 L285 44 Z " />
<glyph glyph-name="uni0412" unicode="&#x412;" horiz-adv-x="610" d="M302 754 Q365 754 398.5 746 Q432 738 457 716 Q485 693 500 656.5 Q515 620 515 577 Q515 512 485 468.5 Q455 425 390 395 Q429 384 449.5 374.5 Q470 365 487 349 Q514 324 530 285.5 Q546 247 546 205 Q546 163 530.5 124.5 Q515 86 487 58 Q456 26 413 13 Q370 0 296 0 L80 0 L173 754 L302 754 Z M268 410 Q327 410 360 420 Q393 430 418 455 Q441 477 453.5 508.5 Q466 540 466 575 Q466 608 455.5 635 Q445 662 425 679 Q405 697 378.5 703.5 Q352 710 298 710 L216 710 L179 410 L268 410 Z M307 44 Q357 44 384 50.5 Q411 57 435 75 Q465 96 480.5 129 Q496 162 496 203 Q496 243 481.5 276.5 Q467 310 442 329 Q416 349 377 357.5 Q338 366 277 366 L173 366 L134 44 L307 44 Z " />
<glyph glyph-name="uni0413" unicode="&#x413;" horiz-adv-x="525" d="M553 710 L216 710 L129 0 L80 0 L173 754 L558 754 L553 710 Z " />
<glyph glyph-name="uni0403" unicode="&#x403;" horiz-adv-x="525" d="M344 806 L307 835 L460 957 L507 922 L344 806 Z M553 710 L216 710 L129 0 L80 0 L173 754 L558 754 L553 710 Z " />
<glyph glyph-name="uni0490" unicode="&#x490;" horiz-adv-x="525" d="M173 754 L510 754 L519 824 L567 824 L553 710 L216 710 L129 0 L80 0 L173 754 Z " />
<glyph glyph-name="uni0414" unicode="&#x414;" horiz-adv-x="671" d="M-24 44 Q11 40 53.5 75.5 Q96 111 119 162 Q142 209 179.5 383.5 Q217 558 246 754 L620 754 L533 44 L596 44 L573 -145 L523 -145 L541 0 L-10 0 L-28 -145 L-77 -145 L-53 44 L-24 44 Z M566 710 L293 710 Q248 443 218 315.5 Q188 188 156 130 Q124 72 70 44 L485 44 L566 710 Z " />
<glyph glyph-name="uni0415" unicode="&#x415;" horiz-adv-x="516" d="M216 710 L182 435 L480 435 L475 391 L176 391 L134 44 L433 44 L427 0 L80 0 L173 754 L520 754 L514 710 L216 710 Z " />
<glyph glyph-name="uni0400" unicode="&#x400;" horiz-adv-x="516" d="M403 826 L375 806 L271 933 L320 966 L403 826 Z M216 710 L182 435 L480 435 L475 391 L176 391 L134 44 L433 44 L427 0 L80 0 L173 754 L520 754 L514 710 L216 710 Z " />
<glyph glyph-name="uni0401" unicode="&#x401;" horiz-adv-x="516" d="M450 913 Q464 913 474 903 Q484 893 484 878 Q484 859 472 846 Q460 833 443 833 Q429 833 419.5 843 Q410 853 410 869 Q410 887 422 900 Q434 913 450 913 Z M270 912 Q284 912 293.5 901.5 Q303 891 303 876 Q303 859 290.5 846 Q278 833 262 833 Q248 833 238 842.5 Q228 852 228 867 Q228 886 240.5 899 Q253 912 270 912 Z M216 710 L182 435 L480 435 L475 391 L176 391 L134 44 L433 44 L427 0 L80 0 L173 754 L520 754 L514 710 L216 710 Z " />
<glyph glyph-name="uni0416" unicode="&#x416;" horiz-adv-x="929" d="M593 385 L881 0 L817 0 L546 368 L504 368 L459 0 L410 0 L455 368 L417 368 L61 0 L-10 0 L372 387 L108 754 L169 754 L411 412 L461 412 L503 754 L551 754 L510 412 L558 412 L887 754 L953 754 L593 385 Z " />
<glyph glyph-name="uni0417" unicode="&#x417;" horiz-adv-x="599" d="M264 423 Q381 423 448 460 Q515 497 515 579 Q515 721 323 721 Q263 721 217 711.5 Q171 702 123 680 L130 733 Q223 766 324 766 Q443 766 504 719.5 Q565 673 565 584 Q565 515 513.5 464 Q462 413 381 403 Q533 359 533 221 Q533 105 449.5 47 Q366 -11 229 -11 Q121 -11 25 32 L33 82 Q131 34 241 34 Q362 34 423 81.5 Q484 129 484 217 Q484 295 428 337 Q372 379 258 379 L192 379 L198 423 L264 423 Z " />
<glyph glyph-name="uni0418" unicode="&#x418;" horiz-adv-x="772" d="M144 113 L728 762 L635 0 L586 0 L664 629 L78 -19 L173 754 L221 754 L144 113 Z " />
<glyph glyph-name="uni0419" unicode="&#x419;" horiz-adv-x="772" d="M381 944 Q387 901 407 880.5 Q427 860 463 860 Q500 860 525 880.5 Q550 901 566 944 L614 944 Q598 882 556.5 846 Q515 810 457 810 Q399 810 366 846 Q333 882 333 944 L381 944 Z M144 113 L728 762 L635 0 L586 0 L664 629 L78 -19 L173 754 L221 754 L144 113 Z " />
<glyph glyph-name="uni040D" unicode="&#x40d;" horiz-adv-x="772" d="M504 826 L476 806 L372 933 L420 966 L504 826 Z M144 113 L728 762 L635 0 L586 0 L664 629 L78 -19 L173 754 L221 754 L144 113 Z " />
<glyph glyph-name="uni041A" unicode="&#x41a;" horiz-adv-x="589" d="M236 393 L548 0 L485 0 L177 391 L129 0 L80 0 L173 754 L221 754 L177 397 L554 754 L625 754 L236 393 Z " />
<glyph glyph-name="uni040C" unicode="&#x40c;" horiz-adv-x="589" d="M381 806 L345 835 L497 957 L545 922 L381 806 Z M236 393 L548 0 L485 0 L177 391 L129 0 L80 0 L173 754 L221 754 L177 397 L554 754 L625 754 L236 393 Z " />
<glyph glyph-name="uni041B" unicode="&#x41b;" horiz-adv-x="643" d="M510 0 L461 0 L548 710 L296 710 L292 685 Q254 478 232.5 375 Q211 272 186 188 Q159 93 111.5 45.5 Q64 -2 -8 -2 Q-24 -2 -38 0 L-33 47 Q-12 43 -2 43 Q37 43 70.5 75 Q104 107 127 168 Q153 238 187 399 Q221 560 250 754 L602 754 L510 0 Z " />
<glyph glyph-name="uni041C" unicode="&#x41c;" horiz-adv-x="1005" d="M492 106 L806 779 L957 0 L905 0 L788 632 L475 -33 L341 632 L46 0 L-8 0 L359 773 L492 106 Z " />
<glyph glyph-name="uni041D" unicode="&#x41d;" horiz-adv-x="747" d="M556 0 L605 393 L176 393 L129 0 L80 0 L173 754 L221 754 L182 437 L610 437 L649 754 L697 754 L605 0 L556 0 Z " />
<glyph glyph-name="uni041E" unicode="&#x41e;" horiz-adv-x="888" d="M475 768 Q582 768 664 722 Q746 676 791 593 Q836 510 836 402 Q836 328 811.5 255 Q787 182 744 127 Q689 57 613 21 Q537 -15 445 -15 Q340 -15 256.5 31 Q173 77 126.5 158.5 Q80 240 80 344 Q80 463 131.5 560 Q183 657 273.5 712.5 Q364 768 475 768 Z M475 723 Q377 723 298 674.5 Q219 626 174.5 541.5 Q130 457 130 351 Q130 258 170 185 Q210 112 282 71.5 Q354 31 446 31 Q542 31 619.5 79.5 Q697 128 741.5 212.5 Q786 297 786 402 Q786 558 695 642 Q605 723 475 723 Z " />
<glyph glyph-name="uni041F" unicode="&#x41f;" horiz-adv-x="736" d="M692 754 L599 0 L550 0 L637 710 L216 710 L129 0 L80 0 L173 754 L692 754 Z " />
<glyph glyph-name="uni0420" unicode="&#x420;" horiz-adv-x="511" d="M289 754 Q350 754 388.5 742 Q427 730 455 704 Q506 653 506 574 Q506 515 479 465.5 Q452 416 406 391 Q381 377 338.5 369.5 Q296 362 241 362 L173 362 L129 0 L80 0 L173 754 L289 754 Z M250 406 Q300 406 331 411 Q362 416 383 429 Q418 451 437.5 488.5 Q457 526 457 571 Q457 638 415.5 674 Q374 710 298 710 L216 710 L179 406 L250 406 Z " />
<glyph glyph-name="uni0421" unicode="&#x421;" horiz-adv-x="757" d="M736 593 Q687 659 623.5 691 Q560 723 476 723 Q407 723 347 699 Q287 675 242 631 Q191 581 161 504.5 Q131 428 131 349 Q131 255 170 183 Q209 111 279.5 71 Q350 31 441 31 Q508 31 565 53 Q622 75 678 122 L670 56 Q609 18 556 1.5 Q503 -15 438 -15 Q335 -15 253.5 31.5 Q172 78 126.5 161 Q81 244 81 349 Q81 436 111.5 517 Q142 598 197 654 Q304 768 476 768 Q535 768 589.5 753 Q644 738 684 710 Q710 692 744 657 L736 593 Z " />
<glyph glyph-name="uni0422" unicode="&#x422;" horiz-adv-x="463" d="M177 0 L264 710 L69 710 L75 754 L511 754 L505 710 L313 710 L226 0 L177 0 Z " />
<glyph glyph-name="uni0423" unicode="&#x423;" horiz-adv-x="555" d="M264 337 L77 754 L131 754 L296 381 L557 754 L619 754 L86 0 L26 0 L264 337 Z " />
<glyph glyph-name="uni040E" unicode="&#x40e;" horiz-adv-x="555" d="M356 810 Q299 810 266 846 Q233 882 233 944 L280 944 Q286 901 306 880.5 Q326 860 363 860 Q399 860 424.5 880.5 Q450 901 466 944 L513 944 Q498 882 456 846 Q414 810 356 810 Z M264 337 L77 754 L131 754 L296 381 L557 754 L619 754 L86 0 L26 0 L264 337 Z " />
<glyph glyph-name="uni0424" unicode="&#x424;" horiz-adv-x="934" d="M895 390 Q895 279 837.5 201 Q780 123 683.5 82.5 Q587 42 471 38 L459 -59 L410 -59 L422 39 Q311 43 233 83.5 Q155 124 115 192 Q75 260 75 347 Q75 456 127.5 539 Q180 622 277 668 Q374 714 505 715 L517 814 L566 814 L554 714 Q659 707 736 666 Q813 625 854 554 Q895 483 895 390 Z M124 347 Q124 229 202.5 158 Q281 87 427 81 L499 671 Q383 669 298 628 Q213 587 168.5 514.5 Q124 442 124 347 Z M476 82 Q582 86 665.5 123 Q749 160 797 228 Q845 296 845 389 Q845 514 766 588 Q687 662 548 670 L476 82 Z " />
<glyph glyph-name="uni0425" unicode="&#x425;" horiz-adv-x="545" d="M127 754 L180 754 L299 437 L506 754 L565 754 L319 388 L469 0 L414 0 L287 341 L68 0 L8 0 L267 388 L127 754 Z " />
<glyph glyph-name="uni0427" unicode="&#x427;" horiz-adv-x="638" d="M489 292 Q399 268 303 268 Q182 268 130 312.5 Q78 357 78 451 Q78 489 82 524 L111 754 L159 754 L134 546 Q128 500 128 460 Q128 374 179 342 Q224 313 306 313 Q356 313 399 319 Q442 325 496 341 L546 754 L594 754 L502 0 L453 0 L489 292 Z " />
<glyph glyph-name="uni0426" unicode="&#x426;" horiz-adv-x="744" d="M221 754 L134 44 L558 44 L645 754 L694 754 L607 44 L669 44 L645 -145 L597 -145 L615 0 L80 0 L173 754 L221 754 Z " />
<glyph glyph-name="uni0428" unicode="&#x428;" horiz-adv-x="992" d="M219 754 L132 44 L449 44 L536 754 L584 754 L497 44 L812 44 L899 754 L948 754 L855 0 L78 0 L171 754 L219 754 Z " />
<glyph glyph-name="uni0429" unicode="&#x429;" horiz-adv-x="1000" d="M871 0 L80 0 L173 754 L221 754 L134 44 L451 44 L538 754 L586 754 L499 44 L815 44 L902 754 L950 754 L863 44 L925 44 L902 -145 L853 -145 L871 0 Z " />
<glyph glyph-name="uni040F" unicode="&#x40f;" horiz-adv-x="738" d="M221 754 L134 44 L558 44 L645 754 L694 754 L601 0 L367 0 L350 -145 L301 -145 L319 0 L80 0 L173 754 L221 754 Z " />
<glyph glyph-name="uni042C" unicode="&#x42c;" horiz-adv-x="601" d="M492 384 Q515 362 530.5 324 Q546 286 546 244 Q546 183 530 137 Q514 91 485 62 Q453 30 401 15 Q349 0 273 0 L80 0 L173 754 L221 754 L182 438 L296 438 Q379 438 420 425 Q461 412 492 384 Z M433 79 Q496 124 496 243 Q496 282 482 313.5 Q468 345 446 362 Q420 382 377.5 388 Q335 394 261 394 L177 394 L134 44 L285 44 Q384 44 433 79 Z " />
<glyph glyph-name="uni042A" unicode="&#x42a;" horiz-adv-x="715" d="M292 711 L55 711 L61 754 L346 754 L307 438 L414 438 Q498 438 539 425 Q580 412 609 384 Q632 362 647.5 324 Q663 286 663 244 Q663 121 602 62 Q570 30 518 15 Q466 0 391 0 L205 0 L292 711 Z M402 44 Q503 44 550 79 Q614 124 614 243 Q614 281 600 313 Q586 345 564 362 Q537 382 495 388 Q453 394 379 394 L302 394 L259 44 L402 44 Z " />
<glyph glyph-name="uni042B" unicode="&#x42b;" horiz-adv-x="805" d="M480 384 Q503 362 518.5 324 Q534 286 534 244 Q534 121 473 62 Q442 30 390 15 Q338 0 262 0 L80 0 L173 754 L221 754 L182 438 L285 438 Q369 438 410 425 Q451 412 480 384 Z M759 754 L668 0 L619 0 L711 754 L759 754 Z M421 79 Q485 124 485 243 Q485 281 471 313 Q457 345 435 362 Q409 382 366.5 388 Q324 394 250 394 L177 394 L134 44 L273 44 Q374 44 421 79 Z " />
<glyph glyph-name="uni0409" unicode="&#x409;" horiz-adv-x="972" d="M-8 -2 Q-24 -2 -38 0 L-33 47 Q-12 43 -2 43 Q37 43 70.5 75 Q104 107 127 168 Q153 238 187 399 Q221 560 250 754 L602 754 L564 438 L672 438 Q756 438 797.5 425 Q839 412 868 384 Q891 362 906.5 324 Q922 286 922 244 Q922 183 906 137 Q890 91 861 62 Q829 30 777 15 Q725 0 650 0 L461 0 L548 710 L296 710 L292 685 Q254 478 232.5 375 Q211 272 186 188 Q159 93 111.5 45.5 Q64 -2 -8 -2 Z M661 44 Q760 44 809 79 Q872 123 872 243 Q872 282 858.5 313.5 Q845 345 823 362 Q796 382 753.5 388 Q711 394 637 394 L558 394 L515 44 L661 44 Z " />
<glyph glyph-name="uni040A" unicode="&#x40a;" horiz-adv-x="1055" d="M162 754 L210 754 L171 437 L598 437 L637 754 L686 754 L647 438 L756 438 Q840 438 881 425 Q922 412 951 384 Q975 362 990.5 324 Q1006 286 1006 244 Q1006 183 990 137 Q974 91 945 62 Q913 30 861 15 Q809 0 733 0 L545 0 L593 393 L165 393 L118 0 L69 0 L162 754 Z M745 44 Q844 44 893 79 Q956 124 956 243 Q956 282 942 313.5 Q928 345 906 362 Q880 382 837.5 388 Q795 394 721 394 L642 394 L599 44 L745 44 Z " />
<glyph glyph-name="uni0405" unicode="&#x405;" horiz-adv-x="556" d="M477 609 Q454 670 420 697 Q386 724 333 724 Q270 724 228 684.5 Q186 645 186 585 Q186 537 213 503.5 Q240 470 315 424 Q367 392 391.5 373.5 Q416 355 434 336 Q484 277 484 201 Q484 141 455.5 91.5 Q427 42 377.5 13.5 Q328 -15 267 -15 Q221 -15 180.5 2.5 Q140 20 111 52 Q91 74 79.5 96 Q68 118 58 155 L101 171 Q111 137 120 119 Q129 101 144 85 Q166 59 198.5 45 Q231 31 268 31 Q315 31 353 53.5 Q391 76 412.5 116 Q434 156 434 206 Q434 241 421.5 268 Q409 295 379.5 321 Q350 347 296 381 Q234 419 200 449.5 Q166 480 151.5 512 Q137 544 137 585 Q137 639 162 681 Q187 723 232 746.5 Q277 770 334 770 Q399 770 442.5 738 Q486 706 516 636 L477 609 Z " />
<glyph glyph-name="uni0404" unicode="&#x404;" horiz-adv-x="757" d="M684 710 Q710 692 744 657 L736 593 Q687 659 623.5 691 Q560 723 476 723 Q407 723 347 699 Q287 675 242 631 Q201 591 173 532.5 Q145 474 136 410 L560 410 L555 366 L131 366 L131 349 Q131 255 170 183 Q209 111 279.5 71 Q350 31 441 31 Q508 31 565 53 Q622 75 678 122 L670 56 Q609 18 556 1.5 Q503 -15 438 -15 Q335 -15 253.5 31.5 Q172 78 126.5 161 Q81 244 81 349 Q81 436 111.5 517 Q142 598 197 654 Q304 768 476 768 Q535 768 589.5 753 Q644 738 684 710 Z " />
<glyph glyph-name="uni042D" unicode="&#x42d;" horiz-adv-x="760" d="M351 768 Q454 768 535.5 721.5 Q617 675 663 592.5 Q709 510 709 405 Q709 318 678.5 237.5 Q648 157 593 99 Q485 -15 314 -15 Q255 -15 200.5 0.5 Q146 16 106 44 Q83 58 46 97 L54 160 Q103 94 166 62.5 Q229 31 314 31 Q383 31 443 54.5 Q503 78 548 123 Q593 168 621.5 232 Q650 296 657 366 L229 366 L235 410 L659 410 Q658 502 618.5 573 Q579 644 509 683.5 Q439 723 349 723 Q281 723 224 701 Q167 679 112 632 L120 697 Q180 735 233 751.5 Q286 768 351 768 Z " />
<glyph glyph-name="uni0406" unicode="&#x406;" horiz-adv-x="271" d="M80 0 L173 754 L221 754 L129 0 L80 0 Z " />
<glyph glyph-name="uni0407" unicode="&#x407;" horiz-adv-x="271" d="M277 916 Q292 916 301.5 906.5 Q311 897 311 881 Q311 863 298.5 849.5 Q286 836 270 836 Q255 836 245.5 846 Q236 856 236 872 Q236 890 248 903 Q260 916 277 916 Z M156 915 Q170 915 179.5 904.5 Q189 894 189 879 Q189 862 176.5 849 Q164 836 148 836 Q134 836 124 846 Q114 856 114 870 Q114 889 126.5 902 Q139 915 156 915 Z M80 0 L173 754 L221 754 L129 0 L80 0 Z " />
</font>
</svg>
