<?xml version="1.0" encoding="UTF-8"?>
<svg xmlns="http://www.w3.org/2000/svg" xmlns:xlink="http://www.w3.org/1999/xlink" version="1.2" >
<font id="ShellLight">
<font-face  font-family="ShellLight" units-per-em="1000" ascent="1050" descent="-300" font-style="normal" font-weight="400" font-stretch="normal" cap-height="751" x-height="459" underline-position="-85" underline-thickness="46" />
<missing-glyph  horiz-adv-x="283" d="" />
<glyph glyph-name="space" unicode="&#x20;" horiz-adv-x="283" d="" />
<glyph glyph-name="A" unicode="A" horiz-adv-x="660" d="M69 0 L15 0 L331 776 L645 0 L590 0 L490 247 L169 247 L69 0 Z M188 293 L472 293 L331 650 L188 293 Z " />
<glyph glyph-name="Aacute" unicode="&#xc1;" horiz-adv-x="660" d="M286 835 L423 957 L475 922 L324 806 L286 835 Z M69 0 L15 0 L331 776 L645 0 L590 0 L490 247 L169 247 L69 0 Z M188 293 L472 293 L331 650 L188 293 Z " />
<glyph glyph-name="Abreve" unicode="&#x102;" horiz-adv-x="660" d="M237 944 Q248 900 270.5 880 Q293 860 330 860 Q367 860 389.5 880.5 Q412 901 423 944 L470 944 Q462 882 425 846 Q388 810 330 810 Q272 810 235 846 Q198 882 190 944 L237 944 Z M69 0 L15 0 L331 776 L645 0 L590 0 L490 247 L169 247 L69 0 Z M188 293 L472 293 L331 650 L188 293 Z " />
<glyph glyph-name="Acircumflex" unicode="&#xc2;" horiz-adv-x="660" d="M470 838 L429 807 L330 892 L229 807 L189 838 L330 957 L470 838 Z M69 0 L15 0 L331 776 L645 0 L590 0 L490 247 L169 247 L69 0 Z M188 293 L472 293 L331 650 L188 293 Z " />
<glyph glyph-name="Adieresis" unicode="&#xc4;" horiz-adv-x="660" d="M226 921 Q244 921 256.5 908.5 Q269 896 269 878 Q269 859 256.5 846.5 Q244 834 226 834 Q207 834 194.5 846.5 Q182 859 182 878 Q182 896 194.5 908.5 Q207 921 226 921 Z M436 921 Q454 921 466.5 908.5 Q479 896 479 878 Q479 859 466.5 846.5 Q454 834 436 834 Q417 834 404.5 846.5 Q392 859 392 878 Q392 896 404.5 908.5 Q417 921 436 921 Z M69 0 L15 0 L331 776 L645 0 L590 0 L490 247 L169 247 L69 0 Z M188 293 L472 293 L331 650 L188 293 Z " />
<glyph glyph-name="Agrave" unicode="&#xc0;" horiz-adv-x="660" d="M379 835 L339 806 L189 922 L241 957 L379 835 Z M69 0 L15 0 L331 776 L645 0 L590 0 L490 247 L169 247 L69 0 Z M188 293 L472 293 L331 650 L188 293 Z " />
<glyph glyph-name="Amacron" unicode="&#x100;" horiz-adv-x="660" d="M485 852 L175 852 L175 901 L485 901 L485 852 Z M69 0 L15 0 L331 776 L645 0 L590 0 L490 247 L169 247 L69 0 Z M188 293 L472 293 L331 650 L188 293 Z " />
<glyph glyph-name="Aogonek" unicode="&#x104;" horiz-adv-x="660" d="M645 0 Q596 -30 574.5 -56.5 Q553 -83 553 -114 Q553 -141 567.5 -156 Q582 -171 610 -171 Q627 -171 640.5 -166.5 Q654 -162 677 -150 L666 -197 Q645 -205 631 -208 Q617 -211 599 -211 Q553 -211 527 -186.5 Q501 -162 501 -120 Q501 -82 520 -56.5 Q539 -31 590 0 L490 247 L169 247 L69 0 L15 0 L331 776 L645 0 Z M188 293 L472 293 L331 650 L188 293 Z " />
<glyph glyph-name="Aring" unicode="&#xc5;" horiz-adv-x="660" d="M330 980 Q367 980 393.5 953.5 Q420 927 420 889 Q420 852 393.5 825.5 Q367 799 330 799 Q293 799 266.5 825.5 Q240 852 240 890 Q240 927 266.5 953.5 Q293 980 330 980 Z M330 936 Q311 936 297.5 922.5 Q284 909 284 890 Q284 870 297 856.5 Q310 843 330 843 Q350 843 363 856.5 Q376 870 376 889 Q376 909 362.5 922.5 Q349 936 330 936 Z M69 0 L15 0 L331 776 L645 0 L590 0 L490 247 L169 247 L69 0 Z M188 293 L472 293 L331 650 L188 293 Z " />
<glyph glyph-name="Aringacute" unicode="&#x1fa;" horiz-adv-x="660" d="M195 971 L332 1093 L384 1057 L235 941 L195 971 Z M328 971 Q365 971 391.5 944 Q418 917 418 880 Q418 843 391.5 816.5 Q365 790 328 790 Q291 790 264 817 Q237 844 237 881 Q237 918 264 944.5 Q291 971 328 971 Z M328 927 Q309 927 295 913.5 Q281 900 281 881 Q281 861 294.5 847.5 Q308 834 328 834 Q348 834 361 847.5 Q374 861 374 880 Q374 900 360.5 913.5 Q347 927 328 927 Z M69 0 L15 0 L331 776 L645 0 L590 0 L490 247 L169 247 L69 0 Z M188 293 L472 293 L331 650 L188 293 Z " />
<glyph glyph-name="Atilde" unicode="&#xc3;" horiz-adv-x="660" d="M186 854 Q203 891 221.5 906.5 Q240 922 267 922 Q282 922 296.5 918 Q311 914 337 903 Q382 883 402 883 Q418 883 427.5 892 Q437 901 447 925 L480 901 Q457 833 400 833 Q374 833 333 851 Q304 864 289.5 868 Q275 872 264 872 Q248 872 238.5 863 Q229 854 219 829 L186 854 Z M69 0 L15 0 L331 776 L645 0 L590 0 L490 247 L169 247 L69 0 Z M188 293 L472 293 L331 650 L188 293 Z " />
<glyph glyph-name="AE" unicode="&#xc6;" horiz-adv-x="962" d="M69 0 L15 0 L319 754 L646 754 L664 709 L354 709 L466 435 L768 435 L786 390 L485 390 L624 45 L936 45 L954 0 L589 0 L489 247 L166 247 L69 0 Z M185 293 L470 293 L327 647 L185 293 Z " />
<glyph glyph-name="AEacute" unicode="&#x1fc;" horiz-adv-x="962" d="M390 835 L527 957 L579 922 L429 806 L390 835 Z M69 0 L15 0 L319 754 L646 754 L664 709 L354 709 L466 435 L768 435 L786 390 L485 390 L624 45 L936 45 L954 0 L589 0 L489 247 L166 247 L69 0 Z M185 293 L470 293 L327 647 L185 293 Z " />
<glyph glyph-name="B" unicode="B" horiz-adv-x="602" d="M264 754 Q319 754 356 740.5 Q393 727 421 696 Q472 640 472 556 Q472 502 452 466.5 Q432 431 384 400 Q417 392 436 383 Q455 374 472 359 Q505 333 523 293.5 Q541 254 541 209 Q541 162 521.5 120.5 Q502 79 466 50 Q434 24 395.5 12 Q357 0 306 0 L102 0 L102 754 L264 754 Z M246 412 Q298 412 323 418.5 Q348 425 372 444 Q398 464 409.5 491 Q421 518 421 557 Q421 596 408 627 Q395 658 372 677 Q348 694 319.5 701.5 Q291 709 246 709 L150 709 L150 412 L246 412 Z M277 45 Q344 45 377 54 Q410 63 440 90 Q465 113 478.5 144 Q492 175 492 209 Q492 255 469.5 292 Q447 329 409 346 Q358 367 268 367 L150 367 L150 45 L277 45 Z " />
<glyph glyph-name="C" unicode="C" horiz-adv-x="765" d="M704 599 Q678 628 660 643 Q642 658 616 672 Q577 694 534 706 Q491 718 450 718 Q360 718 282 670.5 Q204 623 157.5 543.5 Q111 464 111 373 Q111 298 141 233.5 Q171 169 228 121 Q278 80 335.5 57 Q393 34 450 34 Q496 34 546.5 49.5 Q597 65 638 92 Q655 101 668.5 112.5 Q682 124 704 147 L704 81 Q642 32 582 10 Q522 -12 453 -12 Q348 -12 257.5 41 Q167 94 113.5 183 Q60 272 60 375 Q60 479 113 568.5 Q166 658 256 711 Q346 764 451 764 Q522 764 583 740.5 Q644 717 704 667 L704 599 Z " />
<glyph glyph-name="Cacute" unicode="&#x106;" horiz-adv-x="765" d="M390 835 L528 957 L580 922 L429 806 L390 835 Z M704 599 Q678 628 660 643 Q642 658 616 672 Q577 694 534 706 Q491 718 450 718 Q360 718 282 670.5 Q204 623 157.5 543.5 Q111 464 111 373 Q111 298 141 233.5 Q171 169 228 121 Q278 80 335.5 57 Q393 34 450 34 Q496 34 546.5 49.5 Q597 65 638 92 Q655 101 668.5 112.5 Q682 124 704 147 L704 81 Q642 32 582 10 Q522 -12 453 -12 Q348 -12 257.5 41 Q167 94 113.5 183 Q60 272 60 375 Q60 479 113 568.5 Q166 658 256 711 Q346 764 451 764 Q522 764 583 740.5 Q644 717 704 667 L704 599 Z " />
<glyph glyph-name="Ccaron" unicode="&#x10c;" horiz-adv-x="765" d="M308 925 L349 957 L450 873 L550 957 L591 925 L450 807 L308 925 Z M704 599 Q678 628 660 643 Q642 658 616 672 Q577 694 534 706 Q491 718 450 718 Q360 718 282 670.5 Q204 623 157.5 543.5 Q111 464 111 373 Q111 298 141 233.5 Q171 169 228 121 Q278 80 335.5 57 Q393 34 450 34 Q496 34 546.5 49.5 Q597 65 638 92 Q655 101 668.5 112.5 Q682 124 704 147 L704 81 Q642 32 582 10 Q522 -12 453 -12 Q348 -12 257.5 41 Q167 94 113.5 183 Q60 272 60 375 Q60 479 113 568.5 Q166 658 256 711 Q346 764 451 764 Q522 764 583 740.5 Q644 717 704 667 L704 599 Z " />
<glyph glyph-name="Ccedilla" unicode="&#xc7;" horiz-adv-x="765" d="M704 599 Q678 628 660 643 Q642 658 616 672 Q577 694 534 706 Q491 718 450 718 Q360 718 282 670.5 Q204 623 157.5 543.5 Q111 464 111 373 Q111 298 141 233.5 Q171 169 228 121 Q278 80 335.5 57 Q393 34 450 34 Q496 34 546.5 49.5 Q597 65 638 92 Q655 101 668.5 112.5 Q682 124 704 147 L704 81 Q642 32 582 10 Q522 -12 453 -12 Q348 -12 257.5 41 Q167 94 113.5 183 Q60 272 60 375 Q60 479 113 568.5 Q166 658 256 711 Q346 764 451 764 Q522 764 583 740.5 Q644 717 704 667 L704 599 Z M319 -203 L418 -53 L475 -81 L359 -224 L319 -203 Z " />
<glyph glyph-name="Ccircumflex" unicode="&#x108;" horiz-adv-x="765" d="M591 838 L550 807 L450 892 L349 807 L308 838 L450 957 L591 838 Z M704 599 Q678 628 660 643 Q642 658 616 672 Q577 694 534 706 Q491 718 450 718 Q360 718 282 670.5 Q204 623 157.5 543.5 Q111 464 111 373 Q111 298 141 233.5 Q171 169 228 121 Q278 80 335.5 57 Q393 34 450 34 Q496 34 546.5 49.5 Q597 65 638 92 Q655 101 668.5 112.5 Q682 124 704 147 L704 81 Q642 32 582 10 Q522 -12 453 -12 Q348 -12 257.5 41 Q167 94 113.5 183 Q60 272 60 375 Q60 479 113 568.5 Q166 658 256 711 Q346 764 451 764 Q522 764 583 740.5 Q644 717 704 667 L704 599 Z " />
<glyph glyph-name="Cdotaccent" unicode="&#x10a;" horiz-adv-x="765" d="M449 924 Q467 924 480.5 911 Q494 898 494 879 Q494 860 480.5 847 Q467 834 449 834 Q429 834 415.5 847.5 Q402 861 402 880 Q402 898 416 911 Q430 924 449 924 Z M704 599 Q678 628 660 643 Q642 658 616 672 Q577 694 534 706 Q491 718 450 718 Q360 718 282 670.5 Q204 623 157.5 543.5 Q111 464 111 373 Q111 298 141 233.5 Q171 169 228 121 Q278 80 335.5 57 Q393 34 450 34 Q496 34 546.5 49.5 Q597 65 638 92 Q655 101 668.5 112.5 Q682 124 704 147 L704 81 Q642 32 582 10 Q522 -12 453 -12 Q348 -12 257.5 41 Q167 94 113.5 183 Q60 272 60 375 Q60 479 113 568.5 Q166 658 256 711 Q346 764 451 764 Q522 764 583 740.5 Q644 717 704 667 L704 599 Z " />
<glyph glyph-name="D" unicode="D" horiz-adv-x="697" d="M251 754 Q338 754 405 728.5 Q472 703 527 650 Q580 597 608.5 526.5 Q637 456 637 377 Q637 298 608.5 227.5 Q580 157 527 105 Q472 51 405 25.5 Q338 0 251 0 L102 0 L102 754 L251 754 Z M250 45 Q394 45 485 132 Q534 178 560 241.5 Q586 305 586 377 Q586 473 543 548.5 Q500 624 423.5 666.5 Q347 709 250 709 L150 709 L150 45 L250 45 Z " />
<glyph glyph-name="Eth" unicode="&#xd0;" horiz-adv-x="697" d="M26 388 L26 433 L102 433 L102 754 L251 754 Q338 754 405 728.5 Q472 703 527 650 Q580 597 608.5 526 Q637 455 637 376 Q637 297 608.5 227.5 Q580 158 527 105 Q472 51 405 25.5 Q338 0 251 0 L102 0 L102 388 L26 388 Z M250 45 Q347 45 423.5 87 Q500 129 543 204.5 Q586 280 586 376 Q586 472 543 548 Q500 624 423.5 666.5 Q347 709 250 709 L150 709 L150 433 L339 433 L339 388 L150 388 L150 45 L250 45 Z " />
<glyph glyph-name="Dcaron" unicode="&#x10e;" horiz-adv-x="697" d="M160 925 L201 957 L301 873 L401 957 L442 925 L301 807 L160 925 Z M251 754 Q338 754 405 728.5 Q472 703 527 650 Q580 597 608.5 526.5 Q637 456 637 377 Q637 298 608.5 227.5 Q580 157 527 105 Q472 51 405 25.5 Q338 0 251 0 L102 0 L102 754 L251 754 Z M250 45 Q394 45 485 132 Q534 178 560 241.5 Q586 305 586 377 Q586 473 543 548.5 Q500 624 423.5 666.5 Q347 709 250 709 L150 709 L150 45 L250 45 Z " />
<glyph glyph-name="Dcroat" unicode="&#x110;" horiz-adv-x="697" d="M26 388 L26 433 L102 433 L102 754 L251 754 Q338 754 405 728.5 Q472 703 527 650 Q580 597 608.5 526 Q637 455 637 376 Q637 297 608.5 227.5 Q580 158 527 105 Q472 51 405 25.5 Q338 0 251 0 L102 0 L102 388 L26 388 Z M250 45 Q347 45 423.5 87 Q500 129 543 204.5 Q586 280 586 376 Q586 472 543 548 Q500 624 423.5 666.5 Q347 709 250 709 L150 709 L150 433 L339 433 L339 388 L150 388 L150 45 L250 45 Z " />
<glyph glyph-name="E" unicode="E" horiz-adv-x="523" d="M150 435 L455 435 L455 390 L150 390 L150 45 L462 45 L462 0 L102 0 L102 754 L462 754 L462 709 L150 709 L150 435 Z " />
<glyph glyph-name="Eacute" unicode="&#xc9;" horiz-adv-x="523" d="M225 835 L362 957 L414 922 L264 806 L225 835 Z M150 435 L455 435 L455 390 L150 390 L150 45 L462 45 L462 0 L102 0 L102 754 L462 754 L462 709 L150 709 L150 435 Z " />
<glyph glyph-name="Ebreve" unicode="&#x114;" horiz-adv-x="523" d="M191 944 Q202 901 224.5 880.5 Q247 860 284 860 Q320 860 343 880.5 Q366 901 376 944 L424 944 Q417 882 379 846 Q341 810 284 810 Q226 810 189 846 Q152 882 144 944 L191 944 Z M150 435 L455 435 L455 390 L150 390 L150 45 L462 45 L462 0 L102 0 L102 754 L462 754 L462 709 L150 709 L150 435 Z " />
<glyph glyph-name="Ecaron" unicode="&#x11a;" horiz-adv-x="523" d="M142 925 L183 957 L284 873 L384 957 L425 925 L284 807 L142 925 Z M150 435 L455 435 L455 390 L150 390 L150 45 L462 45 L462 0 L102 0 L102 754 L462 754 L462 709 L150 709 L150 435 Z " />
<glyph glyph-name="Ecircumflex" unicode="&#xca;" horiz-adv-x="523" d="M425 838 L384 807 L284 892 L183 807 L142 838 L284 957 L425 838 Z M150 435 L455 435 L455 390 L150 390 L150 45 L462 45 L462 0 L102 0 L102 754 L462 754 L462 709 L150 709 L150 435 Z " />
<glyph glyph-name="Edieresis" unicode="&#xcb;" horiz-adv-x="523" d="M180 921 Q197 921 210 908.5 Q223 896 223 878 Q223 860 210.5 847 Q198 834 180 834 Q161 834 148.5 846.5 Q136 859 136 878 Q136 896 148.5 908.5 Q161 921 180 921 Z M390 921 Q408 921 420.5 908.5 Q433 896 433 878 Q433 859 420.5 846.5 Q408 834 390 834 Q371 834 358.5 846.5 Q346 859 346 878 Q346 896 358.5 908.5 Q371 921 390 921 Z M150 435 L455 435 L455 390 L150 390 L150 45 L462 45 L462 0 L102 0 L102 754 L462 754 L462 709 L150 709 L150 435 Z " />
<glyph glyph-name="Edotaccent" unicode="&#x116;" horiz-adv-x="523" d="M284 924 Q302 924 315.5 911 Q329 898 329 879 Q329 860 315.5 847 Q302 834 284 834 Q264 834 250.5 847.5 Q237 861 237 880 Q237 898 251 911 Q265 924 284 924 Z M150 435 L455 435 L455 390 L150 390 L150 45 L462 45 L462 0 L102 0 L102 754 L462 754 L462 709 L150 709 L150 435 Z " />
<glyph glyph-name="Egrave" unicode="&#xc8;" horiz-adv-x="523" d="M358 835 L319 806 L169 922 L221 957 L358 835 Z M150 435 L455 435 L455 390 L150 390 L150 45 L462 45 L462 0 L102 0 L102 754 L462 754 L462 709 L150 709 L150 435 Z " />
<glyph glyph-name="Emacron" unicode="&#x112;" horiz-adv-x="523" d="M437 852 L128 852 L128 901 L437 901 L437 852 Z M150 435 L455 435 L455 390 L150 390 L150 45 L462 45 L462 0 L102 0 L102 754 L462 754 L462 709 L150 709 L150 435 Z " />
<glyph glyph-name="Eogonek" unicode="&#x118;" horiz-adv-x="523" d="M462 0 Q411 -31 390.5 -57 Q370 -83 370 -114 Q370 -141 385 -156 Q400 -171 428 -171 Q445 -171 458 -166.5 Q471 -162 494 -150 L483 -197 Q461 -205 447.5 -208 Q434 -211 417 -211 Q371 -211 344.5 -186.5 Q318 -162 318 -120 Q318 -82 339.5 -54 Q361 -26 410 0 L102 0 L102 754 L462 754 L462 709 L150 709 L150 435 L455 435 L455 390 L150 390 L150 45 L462 45 L462 0 Z " />
<glyph glyph-name="F" unicode="F" horiz-adv-x="459" d="M150 435 L399 435 L399 390 L150 390 L150 0 L102 0 L102 754 L406 754 L406 709 L150 709 L150 435 Z " />
<glyph glyph-name="G" unicode="G" horiz-adv-x="871" d="M811 362 Q811 289 802 246 Q793 203 770 162 Q725 84 636.5 36 Q548 -12 450 -12 Q345 -12 255.5 40.5 Q166 93 113 181.5 Q60 270 60 374 Q60 480 113 569.5 Q166 659 256.5 711.5 Q347 764 453 764 Q518 764 579 743 Q640 722 689 683 Q711 666 729.5 646.5 Q748 627 780 588 L740 557 Q717 589 701.5 606 Q686 623 668 637 Q625 675 567.5 696.5 Q510 718 451 718 Q360 718 281.5 670.5 Q203 623 156.5 543.5 Q110 464 110 373 Q110 282 156 204 Q202 126 280 80 Q358 34 449 34 Q531 34 608.5 75 Q686 116 724 179 Q741 206 748.5 237 Q756 268 758 316 L494 316 L494 362 L811 362 Z " />
<glyph glyph-name="Gbreve" unicode="&#x11e;" horiz-adv-x="871" d="M362 944 Q372 901 395 880.5 Q418 860 454 860 Q491 860 513.5 880.5 Q536 901 547 944 L594 944 Q586 882 549 846 Q512 810 454 810 Q396 810 359 846 Q322 882 314 944 L362 944 Z M811 362 Q811 289 802 246 Q793 203 770 162 Q725 84 636.5 36 Q548 -12 450 -12 Q345 -12 255.5 40.5 Q166 93 113 181.5 Q60 270 60 374 Q60 480 113 569.5 Q166 659 256.5 711.5 Q347 764 453 764 Q518 764 579 743 Q640 722 689 683 Q711 666 729.5 646.5 Q748 627 780 588 L740 557 Q717 589 701.5 606 Q686 623 668 637 Q625 675 567.5 696.5 Q510 718 451 718 Q360 718 281.5 670.5 Q203 623 156.5 543.5 Q110 464 110 373 Q110 282 156 204 Q202 126 280 80 Q358 34 449 34 Q531 34 608.5 75 Q686 116 724 179 Q741 206 748.5 237 Q756 268 758 316 L494 316 L494 362 L811 362 Z " />
<glyph glyph-name="Gcaron" unicode="&#x1e6;" horiz-adv-x="871" d="M313 925 L354 957 L454 873 L555 957 L596 925 L454 807 L313 925 Z M811 362 Q811 289 802 246 Q793 203 770 162 Q725 84 636.5 36 Q548 -12 450 -12 Q345 -12 255.5 40.5 Q166 93 113 181.5 Q60 270 60 374 Q60 480 113 569.5 Q166 659 256.5 711.5 Q347 764 453 764 Q518 764 579 743 Q640 722 689 683 Q711 666 729.5 646.5 Q748 627 780 588 L740 557 Q717 589 701.5 606 Q686 623 668 637 Q625 675 567.5 696.5 Q510 718 451 718 Q360 718 281.5 670.5 Q203 623 156.5 543.5 Q110 464 110 373 Q110 282 156 204 Q202 126 280 80 Q358 34 449 34 Q531 34 608.5 75 Q686 116 724 179 Q741 206 748.5 237 Q756 268 758 316 L494 316 L494 362 L811 362 Z " />
<glyph glyph-name="Gcircumflex" unicode="&#x11c;" horiz-adv-x="871" d="M597 838 L556 807 L455 892 L355 807 L315 838 L455 957 L597 838 Z M811 362 Q811 289 802 246 Q793 203 770 162 Q725 84 636.5 36 Q548 -12 450 -12 Q345 -12 255.5 40.5 Q166 93 113 181.5 Q60 270 60 374 Q60 480 113 569.5 Q166 659 256.5 711.5 Q347 764 453 764 Q518 764 579 743 Q640 722 689 683 Q711 666 729.5 646.5 Q748 627 780 588 L740 557 Q717 589 701.5 606 Q686 623 668 637 Q625 675 567.5 696.5 Q510 718 451 718 Q360 718 281.5 670.5 Q203 623 156.5 543.5 Q110 464 110 373 Q110 282 156 204 Q202 126 280 80 Q358 34 449 34 Q531 34 608.5 75 Q686 116 724 179 Q741 206 748.5 237 Q756 268 758 316 L494 316 L494 362 L811 362 Z " />
<glyph glyph-name="uni0122" unicode="&#x122;" horiz-adv-x="871" d="M811 362 Q811 289 802 246 Q793 203 770 162 Q725 84 636.5 36 Q548 -12 450 -12 Q345 -12 255.5 40.5 Q166 93 113 181.5 Q60 270 60 374 Q60 480 113 569.5 Q166 659 256.5 711.5 Q347 764 453 764 Q518 764 579 743 Q640 722 689 683 Q711 666 729.5 646.5 Q748 627 780 588 L740 557 Q717 589 701.5 606 Q686 623 668 637 Q625 675 567.5 696.5 Q510 718 451 718 Q360 718 281.5 670.5 Q203 623 156.5 543.5 Q110 464 110 373 Q110 282 156 204 Q202 126 280 80 Q358 34 449 34 Q531 34 608.5 75 Q686 116 724 179 Q741 206 748.5 237 Q756 268 758 316 L494 316 L494 362 L811 362 Z M403 -232 L368 -220 L417 -53 L472 -68 L403 -232 Z " />
<glyph glyph-name="Gdotaccent" unicode="&#x120;" horiz-adv-x="871" d="M454 924 Q473 924 486 911 Q499 898 499 879 Q499 860 486 847 Q473 834 454 834 Q435 834 421.5 847.5 Q408 861 408 880 Q408 898 421.5 911 Q435 924 454 924 Z M811 362 Q811 289 802 246 Q793 203 770 162 Q725 84 636.5 36 Q548 -12 450 -12 Q345 -12 255.5 40.5 Q166 93 113 181.5 Q60 270 60 374 Q60 480 113 569.5 Q166 659 256.5 711.5 Q347 764 453 764 Q518 764 579 743 Q640 722 689 683 Q711 666 729.5 646.5 Q748 627 780 588 L740 557 Q717 589 701.5 606 Q686 623 668 637 Q625 675 567.5 696.5 Q510 718 451 718 Q360 718 281.5 670.5 Q203 623 156.5 543.5 Q110 464 110 373 Q110 282 156 204 Q202 126 280 80 Q358 34 449 34 Q531 34 608.5 75 Q686 116 724 179 Q741 206 748.5 237 Q756 268 758 316 L494 316 L494 362 L811 362 Z " />
<glyph glyph-name="H" unicode="H" horiz-adv-x="758" d="M608 754 L657 754 L657 0 L608 0 L608 389 L150 389 L150 0 L102 0 L102 754 L150 754 L150 434 L608 434 L608 754 Z " />
<glyph glyph-name="Hbar" unicode="&#x126;" horiz-adv-x="758" d="M655 626 L731 626 L731 581 L655 581 L655 0 L607 0 L607 389 L150 389 L150 0 L102 0 L102 581 L26 581 L26 626 L102 626 L102 754 L150 754 L150 626 L607 626 L607 754 L655 754 L655 626 Z M150 434 L607 434 L607 581 L150 581 L150 434 Z " />
<glyph glyph-name="Hcircumflex" unicode="&#x124;" horiz-adv-x="758" d="M520 838 L479 807 L379 892 L278 807 L238 838 L379 957 L520 838 Z M608 754 L657 754 L657 0 L608 0 L608 389 L150 389 L150 0 L102 0 L102 754 L150 754 L150 434 L608 434 L608 754 Z " />
<glyph glyph-name="I" unicode="I" horiz-adv-x="252" d="M102 0 L102 754 L150 754 L150 0 L102 0 Z " />
<glyph glyph-name="IJ" unicode="&#x132;" horiz-adv-x="548" d="M102 0 L102 754 L150 754 L150 0 L102 0 Z M446 2 Q446 -39 440.5 -62.5 Q435 -86 421 -106 Q405 -130 377 -143.5 Q349 -157 316 -157 Q274 -157 241.5 -136.5 Q209 -116 189 -76 L225 -49 Q241 -79 265 -95 Q289 -111 319 -111 Q398 -111 398 2 L398 754 L446 754 L446 2 Z " />
<glyph glyph-name="Iacute" unicode="&#xcd;" horiz-adv-x="252" d="M81 835 L206 957 L255 922 L121 806 L81 835 Z M102 0 L102 754 L150 754 L150 0 L102 0 Z " />
<glyph glyph-name="Ibreve" unicode="&#x12c;" horiz-adv-x="252" d="M34 944 Q45 901 67.5 880.5 Q90 860 127 860 Q163 860 186 880.5 Q209 901 219 944 L267 944 Q260 882 222 846 Q184 810 127 810 Q69 810 31.5 846 Q-6 882 -14 944 L34 944 Z M102 0 L102 754 L150 754 L150 0 L102 0 Z " />
<glyph glyph-name="Icircumflex" unicode="&#xce;" horiz-adv-x="252" d="M255 838 L217 807 L127 892 L35 807 L-3 838 L127 957 L255 838 Z M102 0 L102 754 L150 754 L150 0 L102 0 Z " />
<glyph glyph-name="Idieresis" unicode="&#xcf;" horiz-adv-x="252" d="M55 921 Q73 921 85.5 908.5 Q98 896 98 878 Q98 859 85.5 846.5 Q73 834 55 834 Q37 834 24 846.5 Q11 859 11 878 Q11 896 24 908.5 Q37 921 55 921 Z M198 921 Q215 921 228 908.5 Q241 896 241 878 Q241 860 228.5 847 Q216 834 198 834 Q179 834 166.5 846.5 Q154 859 154 878 Q154 896 167 908.5 Q180 921 198 921 Z M102 0 L102 754 L150 754 L150 0 L102 0 Z " />
<glyph glyph-name="Idot" unicode="&#x130;" horiz-adv-x="252" d="M127 924 Q145 924 158.5 911 Q172 898 172 879 Q172 860 158.5 847 Q145 834 127 834 Q107 834 93.5 847.5 Q80 861 80 880 Q80 898 94 911 Q108 924 127 924 Z M102 0 L102 754 L150 754 L150 0 L102 0 Z " />
<glyph glyph-name="Igrave" unicode="&#xcc;" horiz-adv-x="252" d="M171 835 L131 806 L-3 922 L47 957 L171 835 Z M103 0 L103 754 L151 754 L151 0 L103 0 Z " />
<glyph glyph-name="Imacron" unicode="&#x12a;" horiz-adv-x="252" d="M240 852 L14 852 L14 901 L240 901 L240 852 Z M102 0 L102 754 L150 754 L150 0 L102 0 Z " />
<glyph glyph-name="Iogonek" unicode="&#x12e;" horiz-adv-x="252" d="M150 0 Q120 -25 106 -51.5 Q92 -78 92 -111 Q92 -139 105 -154 Q118 -169 141 -169 Q153 -169 163 -166 Q173 -163 190 -153 L179 -199 Q156 -211 130 -211 Q89 -211 64.5 -185 Q40 -159 40 -116 Q40 -47 102 0 L102 754 L150 754 L150 0 Z " />
<glyph glyph-name="Itilde" unicode="&#x128;" horiz-adv-x="252" d="M-20 854 Q-4 891 14.5 906.5 Q33 922 60 922 Q75 922 89 918 Q103 914 130 903 Q174 883 194 883 Q210 883 220 892 Q230 901 241 925 L272 901 Q261 866 241.5 849.5 Q222 833 192 833 Q167 833 125 851 Q96 864 82 868 Q68 872 56 872 Q40 872 31 863 Q22 854 12 829 L-20 854 Z M102 0 L102 754 L150 754 L150 0 L102 0 Z " />
<glyph glyph-name="J" unicode="J" horiz-adv-x="299" d="M198 2 Q198 -38 192.5 -61.5 Q187 -85 173 -106 Q156 -130 128.5 -143.5 Q101 -157 68 -157 Q25 -157 -7.5 -136.5 Q-40 -116 -60 -76 L-25 -49 Q-8 -79 16.5 -95 Q41 -111 70 -111 Q149 -111 149 2 L149 754 L198 754 L198 2 Z " />
<glyph glyph-name="Jcircumflex" unicode="&#x134;" horiz-adv-x="299" d="M310 838 L269 807 L169 892 L69 807 L28 838 L169 957 L310 838 Z M198 2 Q198 -38 192.5 -61.5 Q187 -85 173 -106 Q156 -130 128.5 -143.5 Q101 -157 68 -157 Q25 -157 -7.5 -136.5 Q-40 -116 -60 -76 L-25 -49 Q-8 -79 16.5 -95 Q41 -111 70 -111 Q149 -111 149 2 L149 754 L198 754 L198 2 Z " />
<glyph glyph-name="K" unicode="K" horiz-adv-x="609" d="M571 754 L202 390 L594 0 L522 0 L168 358 L150 340 L150 0 L102 0 L102 754 L150 754 L150 403 L504 754 L571 754 Z " />
<glyph glyph-name="uni0136" unicode="&#x136;" horiz-adv-x="609" d="M571 754 L202 390 L594 0 L522 0 L168 358 L150 340 L150 0 L102 0 L102 754 L150 754 L150 403 L504 754 L571 754 Z M286 -232 L251 -220 L299 -53 L355 -68 L286 -232 Z " />
<glyph glyph-name="L" unicode="L" horiz-adv-x="356" d="M341 45 L341 0 L102 0 L102 754 L150 754 L150 45 L341 45 Z " />
<glyph glyph-name="Lacute" unicode="&#x139;" horiz-adv-x="356" d="M96 835 L234 957 L286 922 L136 806 L96 835 Z M341 45 L341 0 L102 0 L102 754 L150 754 L150 45 L341 45 Z " />
<glyph glyph-name="Lcaron" unicode="&#x13d;" horiz-adv-x="356" d="M247 575 L212 585 L261 762 L316 746 L247 575 Z M341 45 L341 0 L102 0 L102 754 L150 754 L150 45 L341 45 Z " />
<glyph glyph-name="uni013B" unicode="&#x13b;" horiz-adv-x="356" d="M341 45 L341 0 L102 0 L102 754 L150 754 L150 45 L341 45 Z M190 -232 L155 -220 L203 -53 L259 -68 L190 -232 Z " />
<glyph glyph-name="Ldot" unicode="&#x13f;" horiz-adv-x="356" d="M341 45 L341 0 L102 0 L102 754 L150 754 L150 45 L341 45 Z M305 438 Q327 438 342.5 422.5 Q358 407 358 385 Q358 363 342.5 347 Q327 331 305 331 Q283 331 267 347 Q251 363 251 385 Q251 407 267 422.5 Q283 438 305 438 Z " />
<glyph glyph-name="Lslash" unicode="&#x141;" horiz-adv-x="356" d="M278 459 L150 364 L150 45 L341 45 L341 0 L102 0 L102 339 L25 280 L25 334 L102 393 L102 754 L150 754 L150 418 L278 512 L278 459 Z " />
<glyph glyph-name="M" unicode="M" horiz-adv-x="944" d="M469 82 L798 780 L884 0 L834 0 L766 606 L469 -27 L174 606 L109 0 L59 0 L144 780 L469 82 Z " />
<glyph glyph-name="N" unicode="N" horiz-adv-x="885" d="M734 99 L734 754 L783 754 L783 -19 L150 643 L150 0 L102 0 L102 762 L734 99 Z " />
<glyph glyph-name="Nacute" unicode="&#x143;" horiz-adv-x="885" d="M390 835 L528 957 L580 922 L429 806 L390 835 Z M734 99 L734 754 L783 754 L783 -19 L150 643 L150 0 L102 0 L102 762 L734 99 Z " />
<glyph glyph-name="Ncaron" unicode="&#x147;" horiz-adv-x="885" d="M302 925 L342 957 L442 873 L542 957 L583 925 L442 807 L302 925 Z M734 99 L734 754 L783 754 L783 -19 L150 643 L150 0 L102 0 L102 762 L734 99 Z " />
<glyph glyph-name="uni0145" unicode="&#x145;" horiz-adv-x="885" d="M734 99 L734 754 L783 754 L783 -19 L150 643 L150 0 L102 0 L102 762 L734 99 Z M407 -232 L372 -220 L420 -53 L476 -68 L407 -232 Z " />
<glyph glyph-name="Eng" unicode="&#x14a;" horiz-adv-x="758" d="M150 631 Q201 701 261.5 733 Q322 765 403 765 Q473 765 532 736.5 Q591 708 619 660 Q639 628 648 582 Q657 536 657 469 L657 99 Q657 -24 619 -79 Q592 -116 549.5 -136.5 Q507 -157 457 -157 Q438 -157 424.5 -155 Q411 -153 390 -147 L390 -105 Q429 -113 452 -113 Q536 -113 572 -66.5 Q608 -20 608 88 L608 475 Q608 540 601 576 Q594 612 576 640 Q553 676 504.5 697.5 Q456 719 397 719 Q330 719 278 693 Q226 667 194 617 Q170 578 160 533.5 Q150 489 150 415 L150 0 L102 0 L102 754 L150 754 L150 631 Z " />
<glyph glyph-name="Ntilde" unicode="&#xd1;" horiz-adv-x="885" d="M296 854 Q312 891 330.5 906.5 Q349 922 376 922 Q390 922 404.5 918 Q419 914 445 903 Q490 883 511 883 Q526 883 536 892 Q546 901 556 925 L589 901 Q577 866 557 849.5 Q537 833 508 833 Q482 833 442 851 Q412 864 398.5 868 Q385 872 373 872 Q357 872 347.5 863 Q338 854 328 829 L296 854 Z M734 99 L734 754 L783 754 L783 -19 L150 643 L150 0 L102 0 L102 762 L734 99 Z " />
<glyph glyph-name="O" unicode="O" horiz-adv-x="902" d="M450 764 Q555 764 645 711.5 Q735 659 788 569.5 Q841 480 841 376 Q841 271 787.5 182 Q734 93 643.5 40.5 Q553 -12 447 -12 Q343 -12 254 41.5 Q165 95 112.5 185.5 Q60 276 60 382 Q60 482 114 570 Q168 658 257.5 711 Q347 764 450 764 Z M450 718 Q360 718 282 672 Q204 626 157.5 548 Q111 470 111 381 Q111 226 220 125 Q268 82 327.5 58 Q387 34 447 34 Q540 34 619 80 Q698 126 744 205 Q790 284 790 376 Q790 468 744 546.5 Q698 625 619.5 671.5 Q541 718 450 718 Z " />
<glyph glyph-name="Oacute" unicode="&#xd3;" horiz-adv-x="902" d="M399 835 L536 957 L588 922 L438 806 L399 835 Z M450 764 Q555 764 645 711.5 Q735 659 788 569.5 Q841 480 841 376 Q841 271 787.5 182 Q734 93 643.5 40.5 Q553 -12 447 -12 Q343 -12 254 41.5 Q165 95 112.5 185.5 Q60 276 60 382 Q60 482 114 570 Q168 658 257.5 711 Q347 764 450 764 Z M450 718 Q360 718 282 672 Q204 626 157.5 548 Q111 470 111 381 Q111 226 220 125 Q268 82 327.5 58 Q387 34 447 34 Q540 34 619 80 Q698 126 744 205 Q790 284 790 376 Q790 468 744 546.5 Q698 625 619.5 671.5 Q541 718 450 718 Z " />
<glyph glyph-name="Obreve" unicode="&#x14e;" horiz-adv-x="902" d="M358 944 Q369 900 391.5 880 Q414 860 451 860 Q487 860 509.5 880.5 Q532 901 544 944 L591 944 Q583 882 546 846 Q509 810 451 810 Q393 810 355.5 846 Q318 882 311 944 L358 944 Z M450 764 Q555 764 645 711.5 Q735 659 788 569.5 Q841 480 841 376 Q841 271 787.5 182 Q734 93 643.5 40.5 Q553 -12 447 -12 Q343 -12 254 41.5 Q165 95 112.5 185.5 Q60 276 60 382 Q60 482 114 570 Q168 658 257.5 711 Q347 764 450 764 Z M450 718 Q360 718 282 672 Q204 626 157.5 548 Q111 470 111 381 Q111 226 220 125 Q268 82 327.5 58 Q387 34 447 34 Q540 34 619 80 Q698 126 744 205 Q790 284 790 376 Q790 468 744 546.5 Q698 625 619.5 671.5 Q541 718 450 718 Z " />
<glyph glyph-name="Ocircumflex" unicode="&#xd4;" horiz-adv-x="902" d="M591 838 L550 807 L451 892 L350 807 L310 838 L451 957 L591 838 Z M450 764 Q555 764 645 711.5 Q735 659 788 569.5 Q841 480 841 376 Q841 271 787.5 182 Q734 93 643.5 40.5 Q553 -12 447 -12 Q343 -12 254 41.5 Q165 95 112.5 185.5 Q60 276 60 382 Q60 482 114 570 Q168 658 257.5 711 Q347 764 450 764 Z M450 718 Q360 718 282 672 Q204 626 157.5 548 Q111 470 111 381 Q111 226 220 125 Q268 82 327.5 58 Q387 34 447 34 Q540 34 619 80 Q698 126 744 205 Q790 284 790 376 Q790 468 744 546.5 Q698 625 619.5 671.5 Q541 718 450 718 Z " />
<glyph glyph-name="Odieresis" unicode="&#xd6;" horiz-adv-x="902" d="M346 921 Q364 921 376.5 908.5 Q389 896 389 878 Q389 859 376.5 846.5 Q364 834 346 834 Q327 834 314.5 846.5 Q302 859 302 878 Q302 896 314.5 908.5 Q327 921 346 921 Z M556 921 Q574 921 586.5 908.5 Q599 896 599 878 Q599 859 586.5 846.5 Q574 834 556 834 Q537 834 524.5 846.5 Q512 859 512 878 Q512 896 524.5 908.5 Q537 921 556 921 Z M450 764 Q555 764 645 711.5 Q735 659 788 569.5 Q841 480 841 376 Q841 271 787.5 182 Q734 93 643.5 40.5 Q553 -12 447 -12 Q343 -12 254 41.5 Q165 95 112.5 185.5 Q60 276 60 382 Q60 482 114 570 Q168 658 257.5 711 Q347 764 450 764 Z M450 718 Q360 718 282 672 Q204 626 157.5 548 Q111 470 111 381 Q111 226 220 125 Q268 82 327.5 58 Q387 34 447 34 Q540 34 619 80 Q698 126 744 205 Q790 284 790 376 Q790 468 744 546.5 Q698 625 619.5 671.5 Q541 718 450 718 Z " />
<glyph glyph-name="Ograve" unicode="&#xd2;" horiz-adv-x="902" d="M520 835 L480 806 L330 922 L383 957 L520 835 Z M450 764 Q555 764 645 711.5 Q735 659 788 569.5 Q841 480 841 376 Q841 271 787.5 182 Q734 93 643.5 40.5 Q553 -12 447 -12 Q343 -12 254 41.5 Q165 95 112.5 185.5 Q60 276 60 382 Q60 482 114 570 Q168 658 257.5 711 Q347 764 450 764 Z M450 718 Q360 718 282 672 Q204 626 157.5 548 Q111 470 111 381 Q111 226 220 125 Q268 82 327.5 58 Q387 34 447 34 Q540 34 619 80 Q698 126 744 205 Q790 284 790 376 Q790 468 744 546.5 Q698 625 619.5 671.5 Q541 718 450 718 Z " />
<glyph glyph-name="Ohorn" unicode="&#x1a0;" horiz-adv-x="902" d="M820 771 L757 615 Q797 565 819 502 Q841 439 841 375 Q841 271 788 182 Q735 93 645 40.5 Q555 -12 451 -12 Q346 -12 256 40.5 Q166 93 113 182.5 Q60 272 60 376 Q60 480 113 569.5 Q166 659 255.5 711.5 Q345 764 450 764 Q527 764 598.5 734.5 Q670 705 727 649 L765 785 L820 771 Z M450 718 Q360 718 282 672 Q204 626 157.5 548 Q111 470 111 381 Q111 226 220 125 Q268 82 327.5 58 Q387 34 447 34 Q540 34 619 80 Q698 126 744 205 Q790 284 790 376 Q790 468 744 546.5 Q698 625 619.5 671.5 Q541 718 450 718 Z " />
<glyph glyph-name="Ohungarumlaut" unicode="&#x150;" horiz-adv-x="902" d="M331 835 L468 957 L518 922 L367 806 L331 835 Z M489 835 L626 957 L676 922 L525 806 L489 835 Z M450 764 Q555 764 645 711.5 Q735 659 788 569.5 Q841 480 841 376 Q841 271 787.5 182 Q734 93 643.5 40.5 Q553 -12 447 -12 Q343 -12 254 41.5 Q165 95 112.5 185.5 Q60 276 60 382 Q60 482 114 570 Q168 658 257.5 711 Q347 764 450 764 Z M450 718 Q360 718 282 672 Q204 626 157.5 548 Q111 470 111 381 Q111 226 220 125 Q268 82 327.5 58 Q387 34 447 34 Q540 34 619 80 Q698 126 744 205 Q790 284 790 376 Q790 468 744 546.5 Q698 625 619.5 671.5 Q541 718 450 718 Z " />
<glyph glyph-name="Omacron" unicode="&#x14c;" horiz-adv-x="902" d="M605 852 L296 852 L296 901 L605 901 L605 852 Z M450 764 Q555 764 645 711.5 Q735 659 788 569.5 Q841 480 841 376 Q841 271 787.5 182 Q734 93 643.5 40.5 Q553 -12 447 -12 Q343 -12 254 41.5 Q165 95 112.5 185.5 Q60 276 60 382 Q60 482 114 570 Q168 658 257.5 711 Q347 764 450 764 Z M450 718 Q360 718 282 672 Q204 626 157.5 548 Q111 470 111 381 Q111 226 220 125 Q268 82 327.5 58 Q387 34 447 34 Q540 34 619 80 Q698 126 744 205 Q790 284 790 376 Q790 468 744 546.5 Q698 625 619.5 671.5 Q541 718 450 718 Z " />
<glyph glyph-name="Oslash" unicode="&#xd8;" horiz-adv-x="902" d="M157 120 Q110 175 85 241 Q60 307 60 377 Q60 480 113 569 Q166 658 256 711 Q346 764 450 764 Q588 764 704 669 L796 760 L826 731 L736 640 Q841 524 841 375 Q841 272 788 183 Q735 94 645 41 Q555 -12 451 -12 Q378 -12 313 13 Q248 38 188 90 L96 -5 L68 26 L157 120 Z M669 636 Q621 676 565 697 Q509 718 450 718 Q360 718 282 671.5 Q204 625 157.5 546 Q111 467 111 376 Q111 250 193 153 L669 636 Z M223 122 Q272 79 330.5 56.5 Q389 34 451 34 Q541 34 619 80.5 Q697 127 743.5 205.5 Q790 284 790 375 Q790 506 699 608 L223 122 Z " />
<glyph glyph-name="Oslashacute" unicode="&#x1fe;" horiz-adv-x="902" d="M388 835 L525 957 L577 922 L427 806 L388 835 Z M157 120 Q110 175 85 241 Q60 307 60 377 Q60 480 113 569 Q166 658 256 711 Q346 764 450 764 Q588 764 704 669 L796 760 L826 731 L736 640 Q841 524 841 375 Q841 272 788 183 Q735 94 645 41 Q555 -12 451 -12 Q378 -12 313 13 Q248 38 188 90 L96 -5 L68 26 L157 120 Z M669 636 Q621 676 565 697 Q509 718 450 718 Q360 718 282 671.5 Q204 625 157.5 546 Q111 467 111 376 Q111 250 193 153 L669 636 Z M223 122 Q272 79 330.5 56.5 Q389 34 451 34 Q541 34 619 80.5 Q697 127 743.5 205.5 Q790 284 790 375 Q790 506 699 608 L223 122 Z " />
<glyph glyph-name="Otilde" unicode="&#xd5;" horiz-adv-x="902" d="M312 854 Q328 891 346.5 906.5 Q365 922 392 922 Q406 922 420.5 918 Q435 914 461 903 Q506 883 527 883 Q542 883 552 892 Q562 901 572 925 L605 901 Q593 866 573 849.5 Q553 833 524 833 Q498 833 458 851 Q428 864 414 868 Q400 872 389 872 Q373 872 363.5 863 Q354 854 344 829 L312 854 Z M450 764 Q555 764 645 711.5 Q735 659 788 569.5 Q841 480 841 376 Q841 271 787.5 182 Q734 93 643.5 40.5 Q553 -12 447 -12 Q343 -12 254 41.5 Q165 95 112.5 185.5 Q60 276 60 382 Q60 482 114 570 Q168 658 257.5 711 Q347 764 450 764 Z M450 718 Q360 718 282 672 Q204 626 157.5 548 Q111 470 111 381 Q111 226 220 125 Q268 82 327.5 58 Q387 34 447 34 Q540 34 619 80 Q698 126 744 205 Q790 284 790 376 Q790 468 744 546.5 Q698 625 619.5 671.5 Q541 718 450 718 Z " />
<glyph glyph-name="OE" unicode="&#x152;" horiz-adv-x="1210" d="M838 435 L1142 435 L1142 390 L838 390 L838 45 L1150 45 L1150 0 L790 0 L790 194 Q740 99 649.5 43.5 Q559 -12 453 -12 Q348 -12 257.5 41 Q167 94 113.5 183 Q60 272 60 376 Q60 481 113 570 Q166 659 256 711.5 Q346 764 452 764 Q559 764 649.5 709 Q740 654 790 558 L790 754 L1150 754 L1150 709 L838 709 L838 435 Z M452 718 Q362 718 283.5 671 Q205 624 158 546 Q111 468 111 380 Q111 304 139.5 238.5 Q168 173 224 123 Q271 81 330 57.5 Q389 34 447 34 Q539 34 618 80 Q697 126 743 205 Q789 284 789 376 Q789 468 743.5 547 Q698 626 620.5 672 Q543 718 452 718 Z " />
<glyph glyph-name="P" unicode="P" horiz-adv-x="503" d="M102 0 L102 754 L246 754 Q304 754 343.5 740.5 Q383 727 411 696 Q437 669 451.5 632.5 Q466 596 466 556 Q466 464 407.5 411 Q349 358 247 358 L150 358 L150 0 L102 0 Z M249 403 Q324 403 369.5 444.5 Q415 486 415 556 Q415 589 404 618.5 Q393 648 374 667 Q352 689 320.5 699 Q289 709 242 709 L150 709 L150 403 L249 403 Z " />
<glyph glyph-name="Thorn" unicode="&#xde;" horiz-adv-x="503" d="M102 0 L102 754 L150 754 L150 641 L246 641 Q304 641 343.5 627.5 Q383 614 411 583 Q437 556 451.5 519.5 Q466 483 466 443 Q466 351 407.5 298 Q349 245 247 245 L150 245 L150 0 L102 0 Z M249 290 Q324 290 369.5 331.5 Q415 373 415 443 Q415 476 404 505.5 Q393 535 374 554 Q352 576 320.5 586 Q289 596 242 596 L150 596 L150 290 L249 290 Z " />
<glyph glyph-name="Q" unicode="Q" horiz-adv-x="902" d="M697 77 Q636 31 576 9.5 Q516 -12 447 -12 Q343 -12 254 40.5 Q165 93 112.5 182 Q60 271 60 375 Q60 480 113 569.5 Q166 659 255.5 711.5 Q345 764 451 764 Q556 764 645.5 711.5 Q735 659 788 570 Q841 481 841 376 Q841 302 815.5 239 Q790 176 731 105 L829 0 L765 0 L697 77 Z M696 141 Q748 203 769 254.5 Q790 306 790 372 Q790 466 744.5 545.5 Q699 625 621.5 671.5 Q544 718 452 718 Q360 718 281.5 671.5 Q203 625 157 546 Q111 467 111 374 Q111 282 157 204 Q203 126 281 80 Q359 34 451 34 Q508 34 558.5 52.5 Q609 71 663 112 L476 308 L544 308 L696 141 Z " />
<glyph glyph-name="R" unicode="R" horiz-adv-x="528" d="M415 0 L173 356 L150 356 L150 0 L102 0 L102 754 L208 754 Q266 754 302 745.5 Q338 737 367 715 Q404 689 423.5 647.5 Q443 606 443 554 Q443 495 418 449.5 Q393 404 348 381 Q326 370 299 364 Q272 358 228 356 L475 0 L415 0 Z M223 401 Q304 401 348.5 441.5 Q393 482 393 555 Q393 599 375 634 Q357 669 327 686 Q285 709 212 709 L150 709 L150 401 L223 401 Z " />
<glyph glyph-name="Racute" unicode="&#x154;" horiz-adv-x="528" d="M185 835 L323 957 L375 922 L225 806 L185 835 Z M415 0 L173 356 L150 356 L150 0 L102 0 L102 754 L208 754 Q266 754 302 745.5 Q338 737 367 715 Q404 689 423.5 647.5 Q443 606 443 554 Q443 495 418 449.5 Q393 404 348 381 Q326 370 299 364 Q272 358 228 356 L475 0 L415 0 Z M223 401 Q304 401 348.5 441.5 Q393 482 393 555 Q393 599 375 634 Q357 669 327 686 Q285 709 212 709 L150 709 L150 401 L223 401 Z " />
<glyph glyph-name="Rcaron" unicode="&#x158;" horiz-adv-x="528" d="M107 925 L148 957 L249 873 L349 957 L389 925 L249 807 L107 925 Z M415 0 L173 356 L150 356 L150 0 L102 0 L102 754 L208 754 Q266 754 302 745.5 Q338 737 367 715 Q404 689 423.5 647.5 Q443 606 443 554 Q443 495 418 449.5 Q393 404 348 381 Q326 370 299 364 Q272 358 228 356 L475 0 L415 0 Z M223 401 Q304 401 348.5 441.5 Q393 482 393 555 Q393 599 375 634 Q357 669 327 686 Q285 709 212 709 L150 709 L150 401 L223 401 Z " />
<glyph glyph-name="uni0156" unicode="&#x156;" horiz-adv-x="528" d="M415 0 L173 356 L150 356 L150 0 L102 0 L102 754 L208 754 Q266 754 302 745.5 Q338 737 367 715 Q404 689 423.5 647.5 Q443 606 443 554 Q443 495 418 449.5 Q393 404 348 381 Q326 370 299 364 Q272 358 228 356 L475 0 L415 0 Z M223 401 Q304 401 348.5 441.5 Q393 482 393 555 Q393 599 375 634 Q357 669 327 686 Q285 709 212 709 L150 709 L150 401 L223 401 Z M234 -232 L199 -220 L247 -53 L303 -68 L234 -232 Z " />
<glyph glyph-name="S" unicode="S" horiz-adv-x="579" d="M444 627 Q412 676 378 697 Q344 718 296 718 Q257 718 224.5 699 Q192 680 173.5 647 Q155 614 155 575 Q155 544 167 521 Q179 498 207.5 477.5 Q236 457 288 432 Q348 403 381 386 Q414 369 438 354 Q518 300 518 209 Q518 149 486 98.5 Q454 48 400 18 Q346 -12 283 -12 Q205 -12 148.5 28.5 Q92 69 60 149 L102 169 Q116 141 124.5 126 Q133 111 144 97 Q167 68 204.5 51 Q242 34 283 34 Q332 34 374.5 57.5 Q417 81 442 121.5 Q467 162 467 209 Q467 282 393 325 Q360 344 253 397 Q195 425 163 450.5 Q131 476 117.5 505.5 Q104 535 104 576 Q104 630 129 673 Q154 716 198 740 Q242 764 297 764 Q355 764 403 736 Q451 708 480 657 L444 627 Z " />
<glyph glyph-name="Sacute" unicode="&#x15a;" horiz-adv-x="579" d="M237 835 L374 957 L426 922 L277 806 L237 835 Z M444 627 Q412 676 378 697 Q344 718 296 718 Q257 718 224.5 699 Q192 680 173.5 647 Q155 614 155 575 Q155 544 167 521 Q179 498 207.5 477.5 Q236 457 288 432 Q348 403 381 386 Q414 369 438 354 Q518 300 518 209 Q518 149 486 98.5 Q454 48 400 18 Q346 -12 283 -12 Q205 -12 148.5 28.5 Q92 69 60 149 L102 169 Q116 141 124.5 126 Q133 111 144 97 Q167 68 204.5 51 Q242 34 283 34 Q332 34 374.5 57.5 Q417 81 442 121.5 Q467 162 467 209 Q467 282 393 325 Q360 344 253 397 Q195 425 163 450.5 Q131 476 117.5 505.5 Q104 535 104 576 Q104 630 129 673 Q154 716 198 740 Q242 764 297 764 Q355 764 403 736 Q451 708 480 657 L444 627 Z " />
<glyph glyph-name="Scaron" unicode="&#x160;" horiz-adv-x="579" d="M158 925 L199 957 L298 873 L399 957 L440 925 L298 807 L158 925 Z M444 627 Q412 676 378 697 Q344 718 296 718 Q257 718 224.5 699 Q192 680 173.5 647 Q155 614 155 575 Q155 544 167 521 Q179 498 207.5 477.5 Q236 457 288 432 Q348 403 381 386 Q414 369 438 354 Q518 300 518 209 Q518 149 486 98.5 Q454 48 400 18 Q346 -12 283 -12 Q205 -12 148.5 28.5 Q92 69 60 149 L102 169 Q116 141 124.5 126 Q133 111 144 97 Q167 68 204.5 51 Q242 34 283 34 Q332 34 374.5 57.5 Q417 81 442 121.5 Q467 162 467 209 Q467 282 393 325 Q360 344 253 397 Q195 425 163 450.5 Q131 476 117.5 505.5 Q104 535 104 576 Q104 630 129 673 Q154 716 198 740 Q242 764 297 764 Q355 764 403 736 Q451 708 480 657 L444 627 Z " />
<glyph glyph-name="Scedilla" unicode="&#x15e;" horiz-adv-x="579" d="M444 627 Q412 676 378 697 Q344 718 296 718 Q257 718 224.5 699 Q192 680 173.5 647 Q155 614 155 575 Q155 544 167 521 Q179 498 207.5 477.5 Q236 457 288 432 Q348 403 381 386 Q414 369 438 354 Q518 300 518 209 Q518 149 486 98.5 Q454 48 400 18 Q346 -12 283 -12 Q205 -12 148.5 28.5 Q92 69 60 149 L102 169 Q116 141 124.5 126 Q133 111 144 97 Q167 68 204.5 51 Q242 34 283 34 Q332 34 374.5 57.5 Q417 81 442 121.5 Q467 162 467 209 Q467 282 393 325 Q360 344 253 397 Q195 425 163 450.5 Q131 476 117.5 505.5 Q104 535 104 576 Q104 630 129 673 Q154 716 198 740 Q242 764 297 764 Q355 764 403 736 Q451 708 480 657 L444 627 Z M173 -203 L272 -53 L329 -81 L214 -224 L173 -203 Z " />
<glyph glyph-name="Scircumflex" unicode="&#x15c;" horiz-adv-x="579" d="M441 838 L400 807 L301 892 L200 807 L159 838 L301 957 L441 838 Z M444 627 Q412 676 378 697 Q344 718 296 718 Q257 718 224.5 699 Q192 680 173.5 647 Q155 614 155 575 Q155 544 167 521 Q179 498 207.5 477.5 Q236 457 288 432 Q348 403 381 386 Q414 369 438 354 Q518 300 518 209 Q518 149 486 98.5 Q454 48 400 18 Q346 -12 283 -12 Q205 -12 148.5 28.5 Q92 69 60 149 L102 169 Q116 141 124.5 126 Q133 111 144 97 Q167 68 204.5 51 Q242 34 283 34 Q332 34 374.5 57.5 Q417 81 442 121.5 Q467 162 467 209 Q467 282 393 325 Q360 344 253 397 Q195 425 163 450.5 Q131 476 117.5 505.5 Q104 535 104 576 Q104 630 129 673 Q154 716 198 740 Q242 764 297 764 Q355 764 403 736 Q451 708 480 657 L444 627 Z " />
<glyph glyph-name="uni0218" unicode="&#x218;" horiz-adv-x="579" d="M444 627 Q412 676 378 697 Q344 718 296 718 Q257 718 224.5 699 Q192 680 173.5 647 Q155 614 155 575 Q155 544 167 521 Q179 498 207.5 477.5 Q236 457 288 432 Q348 403 381 386 Q414 369 438 354 Q518 300 518 209 Q518 149 486 98.5 Q454 48 400 18 Q346 -12 283 -12 Q205 -12 148.5 28.5 Q92 69 60 149 L102 169 Q116 141 124.5 126 Q133 111 144 97 Q167 68 204.5 51 Q242 34 283 34 Q332 34 374.5 57.5 Q417 81 442 121.5 Q467 162 467 209 Q467 282 393 325 Q360 344 253 397 Q195 425 163 450.5 Q131 476 117.5 505.5 Q104 535 104 576 Q104 630 129 673 Q154 716 198 740 Q242 764 297 764 Q355 764 403 736 Q451 708 480 657 L444 627 Z M253 -232 L218 -220 L267 -53 L322 -68 L253 -232 Z " />
<glyph glyph-name="uni1E9E" unicode="&#x1e9e;" horiz-adv-x="655" d="M371 -12 Q333 -12 304.5 -6 Q276 0 249 12 L249 71 Q274 52 302 43 Q330 34 371 34 Q459 34 505 81 Q551 128 551 199 Q551 251 528.5 285 Q506 319 460.5 343.5 Q415 368 336 393 L502 684 Q474 699 432 709 Q390 719 349 719 Q283 719 242 701 Q201 683 175 647 Q152 617 145.5 578.5 Q139 540 139 475 L139 -1 L90 -1 L90 488 Q90 553 99 594 Q108 635 134 671 Q165 715 220.5 740 Q276 765 351 765 Q406 765 465 748 Q524 731 567 704 L405 418 Q502 382 552 333.5 Q602 285 602 199 Q602 140 575 92 Q548 44 496 16 Q444 -12 371 -12 Z " />
<glyph glyph-name="uni018F" unicode="&#x18f;" horiz-adv-x="902" d="M790 399 Q782 490 735.5 563 Q689 636 614 677 Q539 718 449 718 Q355 718 277.5 671 Q200 624 153 541 L108 560 Q136 619 189 665.5 Q242 712 310 738 Q378 764 450 764 Q557 764 647 712 Q737 660 789.5 571 Q842 482 842 376 Q842 272 789 182.5 Q736 93 646 40.5 Q556 -12 451 -12 Q349 -12 257.5 40 Q166 92 114 180 Q86 228 73 280.5 Q60 333 60 399 L790 399 Z M112 354 Q115 311 125.5 276.5 Q136 242 155 208 Q200 129 280.5 81.5 Q361 34 451 34 Q538 34 613 76 Q688 118 735.5 191 Q783 264 790 354 L112 354 Z " />
<glyph glyph-name="T" unicode="T" horiz-adv-x="469" d="M208 0 L208 709 L15 709 L15 754 L453 754 L453 709 L257 709 L257 0 L208 0 Z " />
<glyph glyph-name="Tbar" unicode="&#x166;" horiz-adv-x="469" d="M257 490 L257 0 L208 0 L208 490 L53 490 L53 532 L208 532 L208 709 L15 709 L15 754 L453 754 L453 709 L257 709 L257 532 L415 532 L415 490 L257 490 Z " />
<glyph glyph-name="Tcaron" unicode="&#x164;" horiz-adv-x="469" d="M93 925 L133 957 L234 873 L334 957 L375 925 L234 807 L93 925 Z M208 0 L208 709 L15 709 L15 754 L453 754 L453 709 L257 709 L257 0 L208 0 Z " />
<glyph glyph-name="uni0162" unicode="&#x162;" horiz-adv-x="469" d="M208 0 L208 709 L15 709 L15 754 L453 754 L453 709 L257 709 L257 0 L208 0 Z M192 -232 L157 -220 L206 -53 L261 -68 L192 -232 Z " />
<glyph glyph-name="U" unicode="U" horiz-adv-x="715" d="M150 283 Q150 213 155.5 179.5 Q161 146 177 121 Q202 83 252.5 58.5 Q303 34 358 34 Q413 34 463 58.5 Q513 83 538 121 Q554 146 559.5 179.5 Q565 213 565 283 L565 754 L614 754 L614 269 Q614 194 606 158 Q598 122 574 90 Q540 43 482 15.5 Q424 -12 358 -12 Q291 -12 233 15.5 Q175 43 141 90 Q118 122 110 158 Q102 194 102 269 L102 754 L150 754 L150 283 Z " />
<glyph glyph-name="Uacute" unicode="&#xda;" horiz-adv-x="715" d="M302 835 L440 957 L492 922 L341 806 L302 835 Z M150 283 Q150 213 155.5 179.5 Q161 146 177 121 Q202 83 252.5 58.5 Q303 34 358 34 Q413 34 463 58.5 Q513 83 538 121 Q554 146 559.5 179.5 Q565 213 565 283 L565 754 L614 754 L614 269 Q614 194 606 158 Q598 122 574 90 Q540 43 482 15.5 Q424 -12 358 -12 Q291 -12 233 15.5 Q175 43 141 90 Q118 122 110 158 Q102 194 102 269 L102 754 L150 754 L150 283 Z " />
<glyph glyph-name="Ubreve" unicode="&#x16c;" horiz-adv-x="715" d="M266 944 Q277 900 299 880 Q321 860 358 860 Q395 860 417 880 Q439 900 451 944 L498 944 Q490 882 453 846 Q416 810 358 810 Q300 810 262.5 846 Q225 882 218 944 L266 944 Z M150 283 Q150 213 155.5 179.5 Q161 146 177 121 Q202 83 252.5 58.5 Q303 34 358 34 Q413 34 463 58.5 Q513 83 538 121 Q554 146 559.5 179.5 Q565 213 565 283 L565 754 L614 754 L614 269 Q614 194 606 158 Q598 122 574 90 Q540 43 482 15.5 Q424 -12 358 -12 Q291 -12 233 15.5 Q175 43 141 90 Q118 122 110 158 Q102 194 102 269 L102 754 L150 754 L150 283 Z " />
<glyph glyph-name="Ucircumflex" unicode="&#xdb;" horiz-adv-x="715" d="M498 838 L458 807 L358 892 L258 807 L217 838 L358 957 L498 838 Z M150 283 Q150 213 155.5 179.5 Q161 146 177 121 Q202 83 252.5 58.5 Q303 34 358 34 Q413 34 463 58.5 Q513 83 538 121 Q554 146 559.5 179.5 Q565 213 565 283 L565 754 L614 754 L614 269 Q614 194 606 158 Q598 122 574 90 Q540 43 482 15.5 Q424 -12 358 -12 Q291 -12 233 15.5 Q175 43 141 90 Q118 122 110 158 Q102 194 102 269 L102 754 L150 754 L150 283 Z " />
<glyph glyph-name="Udieresis" unicode="&#xdc;" horiz-adv-x="715" d="M253 921 Q271 921 283.5 908.5 Q296 896 296 878 Q296 859 283.5 846.5 Q271 834 253 834 Q234 834 221.5 846.5 Q209 859 209 878 Q209 896 221.5 908.5 Q234 921 253 921 Z M463 921 Q481 921 493.5 908.5 Q506 896 506 878 Q506 859 493.5 846.5 Q481 834 463 834 Q444 834 431.5 846.5 Q419 859 419 878 Q419 896 431.5 908.5 Q444 921 463 921 Z M150 283 Q150 213 155.5 179.5 Q161 146 177 121 Q202 83 252.5 58.5 Q303 34 358 34 Q413 34 463 58.5 Q513 83 538 121 Q554 146 559.5 179.5 Q565 213 565 283 L565 754 L614 754 L614 269 Q614 194 606 158 Q598 122 574 90 Q540 43 482 15.5 Q424 -12 358 -12 Q291 -12 233 15.5 Q175 43 141 90 Q118 122 110 158 Q102 194 102 269 L102 754 L150 754 L150 283 Z " />
<glyph glyph-name="Ugrave" unicode="&#xd9;" horiz-adv-x="715" d="M421 835 L382 806 L232 922 L284 957 L421 835 Z M150 283 Q150 213 155.5 179.5 Q161 146 177 121 Q202 83 252.5 58.5 Q303 34 358 34 Q413 34 463 58.5 Q513 83 538 121 Q554 146 559.5 179.5 Q565 213 565 283 L565 754 L614 754 L614 269 Q614 194 606 158 Q598 122 574 90 Q540 43 482 15.5 Q424 -12 358 -12 Q291 -12 233 15.5 Q175 43 141 90 Q118 122 110 158 Q102 194 102 269 L102 754 L150 754 L150 283 Z " />
<glyph glyph-name="Uhorn" unicode="&#x1af;" horiz-adv-x="715" d="M721 606 L686 616 L733 792 L789 776 L721 606 Z M150 283 Q150 213 155.5 179.5 Q161 146 177 121 Q202 83 252.5 58.5 Q303 34 358 34 Q413 34 463 58.5 Q513 83 538 121 Q554 146 559.5 179.5 Q565 213 565 283 L565 754 L614 754 L614 269 Q614 194 606 158 Q598 122 574 90 Q540 43 482 15.5 Q424 -12 358 -12 Q291 -12 233 15.5 Q175 43 141 90 Q118 122 110 158 Q102 194 102 269 L102 754 L150 754 L150 283 Z " />
<glyph glyph-name="Uhungarumlaut" unicode="&#x170;" horiz-adv-x="715" d="M235 835 L372 957 L421 922 L271 806 L235 835 Z M393 835 L530 957 L580 922 L429 806 L393 835 Z M150 283 Q150 213 155.5 179.5 Q161 146 177 121 Q202 83 252.5 58.5 Q303 34 358 34 Q413 34 463 58.5 Q513 83 538 121 Q554 146 559.5 179.5 Q565 213 565 283 L565 754 L614 754 L614 269 Q614 194 606 158 Q598 122 574 90 Q540 43 482 15.5 Q424 -12 358 -12 Q291 -12 233 15.5 Q175 43 141 90 Q118 122 110 158 Q102 194 102 269 L102 754 L150 754 L150 283 Z " />
<glyph glyph-name="Umacron" unicode="&#x16a;" horiz-adv-x="715" d="M512 852 L203 852 L203 901 L512 901 L512 852 Z M150 283 Q150 213 155.5 179.5 Q161 146 177 121 Q202 83 252.5 58.5 Q303 34 358 34 Q413 34 463 58.5 Q513 83 538 121 Q554 146 559.5 179.5 Q565 213 565 283 L565 754 L614 754 L614 269 Q614 194 606 158 Q598 122 574 90 Q540 43 482 15.5 Q424 -12 358 -12 Q291 -12 233 15.5 Q175 43 141 90 Q118 122 110 158 Q102 194 102 269 L102 754 L150 754 L150 283 Z " />
<glyph glyph-name="Uogonek" unicode="&#x172;" horiz-adv-x="715" d="M534 -182 Q514 -190 499 -193.5 Q484 -197 468 -197 Q422 -197 395 -172.5 Q368 -148 368 -105 Q368 -73 383 -49 Q398 -25 432 -3 Q392 -12 358 -12 Q292 -12 233.5 15.5 Q175 43 141 90 Q118 122 110 158 Q102 194 102 269 L102 754 L150 754 L150 283 Q150 213 155.5 179.5 Q161 146 177 121 Q202 83 252.5 58.5 Q303 34 358 34 Q413 34 463 58.5 Q513 83 538 121 Q554 146 559.5 179.5 Q565 213 565 283 L565 754 L614 754 L614 269 Q615 203 607 162.5 Q599 122 577 92 Q555 62 512 29 Q464 -8 442 -39 Q420 -70 420 -101 Q420 -127 435.5 -141.5 Q451 -156 479 -156 Q496 -156 509.5 -151.5 Q523 -147 546 -134 L534 -182 Z " />
<glyph glyph-name="Uring" unicode="&#x16e;" horiz-adv-x="715" d="M358 980 Q396 980 422.5 953.5 Q449 927 449 889 Q449 852 422 825.5 Q395 799 358 799 Q321 799 294.5 825.5 Q268 852 268 890 Q268 927 294.5 953.5 Q321 980 358 980 Z M358 936 Q339 936 325.5 922.5 Q312 909 312 890 Q312 870 325 856.5 Q338 843 358 843 Q378 843 391.5 856.5 Q405 870 405 889 Q405 909 391.5 922.5 Q378 936 358 936 Z M150 283 Q150 213 155.5 179.5 Q161 146 177 121 Q202 83 252.5 58.5 Q303 34 358 34 Q413 34 463 58.5 Q513 83 538 121 Q554 146 559.5 179.5 Q565 213 565 283 L565 754 L614 754 L614 269 Q614 194 606 158 Q598 122 574 90 Q540 43 482 15.5 Q424 -12 358 -12 Q291 -12 233 15.5 Q175 43 141 90 Q118 122 110 158 Q102 194 102 269 L102 754 L150 754 L150 283 Z " />
<glyph glyph-name="Utilde" unicode="&#x168;" horiz-adv-x="715" d="M211 854 Q228 892 246 907 Q264 922 292 922 Q307 922 320 918.5 Q333 915 362 903 Q405 883 426 883 Q442 883 452 892 Q462 901 472 925 L504 901 Q492 866 472.5 849.5 Q453 833 424 833 Q399 833 357 851 Q327 864 313.5 868 Q300 872 288 872 Q272 872 263 863 Q254 854 244 829 L211 854 Z M150 283 Q150 213 155.5 179.5 Q161 146 177 121 Q202 83 252.5 58.5 Q303 34 358 34 Q413 34 463 58.5 Q513 83 538 121 Q554 146 559.5 179.5 Q565 213 565 283 L565 754 L614 754 L614 269 Q614 194 606 158 Q598 122 574 90 Q540 43 482 15.5 Q424 -12 358 -12 Q291 -12 233 15.5 Q175 43 141 90 Q118 122 110 158 Q102 194 102 269 L102 754 L150 754 L150 283 Z " />
<glyph glyph-name="V" unicode="V" horiz-adv-x="574" d="M506 754 L558 754 L289 -31 L15 754 L69 754 L289 118 L506 754 Z " />
<glyph glyph-name="W" unicode="W" horiz-adv-x="1110" d="M548 794 L803 116 L1038 754 L1094 754 L803 -28 L548 655 L268 -28 L15 754 L70 754 L275 116 L548 794 Z " />
<glyph glyph-name="Wacute" unicode="&#x1e82;" horiz-adv-x="1110" d="M460 835 L597 957 L649 922 L499 806 L460 835 Z M548 794 L803 116 L1038 754 L1094 754 L803 -28 L548 655 L268 -28 L15 754 L70 754 L275 116 L548 794 Z " />
<glyph glyph-name="Wcircumflex" unicode="&#x174;" horiz-adv-x="1110" d="M687 838 L646 807 L547 892 L446 807 L406 838 L547 957 L687 838 Z M548 794 L803 116 L1038 754 L1094 754 L803 -28 L548 655 L268 -28 L15 754 L70 754 L275 116 L548 794 Z " />
<glyph glyph-name="Wdieresis" unicode="&#x1e84;" horiz-adv-x="1110" d="M443 921 Q461 921 473.5 908.5 Q486 896 486 878 Q486 859 473.5 846.5 Q461 834 443 834 Q424 834 411.5 846.5 Q399 859 399 878 Q399 896 411.5 908.5 Q424 921 443 921 Z M653 921 Q671 921 683.5 908.5 Q696 896 696 878 Q696 859 683.5 846.5 Q671 834 653 834 Q634 834 621.5 846.5 Q609 859 609 878 Q609 896 621.5 908.5 Q634 921 653 921 Z M548 794 L803 116 L1038 754 L1094 754 L803 -28 L548 655 L268 -28 L15 754 L70 754 L275 116 L548 794 Z " />
<glyph glyph-name="Wgrave" unicode="&#x1e80;" horiz-adv-x="1110" d="M649 835 L609 806 L460 922 L512 957 L649 835 Z M548 794 L803 116 L1038 754 L1094 754 L803 -28 L548 655 L268 -28 L15 754 L70 754 L275 116 L548 794 Z " />
<glyph glyph-name="X" unicode="X" horiz-adv-x="522" d="M89 754 L260 436 L429 754 L486 754 L288 385 L496 0 L441 0 L260 334 L81 0 L26 0 L232 385 L34 754 L89 754 Z " />
<glyph glyph-name="Y" unicode="Y" horiz-adv-x="581" d="M71 754 L286 375 L506 754 L564 754 L310 322 L310 0 L261 0 L261 322 L15 754 L71 754 Z " />
<glyph glyph-name="Yacute" unicode="&#xdd;" horiz-adv-x="581" d="M234 835 L372 957 L424 922 L273 806 L234 835 Z M71 754 L286 375 L506 754 L564 754 L310 322 L310 0 L261 0 L261 322 L15 754 L71 754 Z " />
<glyph glyph-name="Ycircumflex" unicode="&#x176;" horiz-adv-x="581" d="M431 838 L390 807 L289 892 L189 807 L149 838 L289 957 L431 838 Z M71 754 L286 375 L506 754 L564 754 L310 322 L310 0 L261 0 L261 322 L15 754 L71 754 Z " />
<glyph glyph-name="Ydieresis" unicode="&#x178;" horiz-adv-x="581" d="M185 921 Q203 921 215.5 908.5 Q228 896 228 878 Q228 859 215.5 846.5 Q203 834 185 834 Q166 834 153.5 846.5 Q141 859 141 878 Q141 896 153.5 908.5 Q166 921 185 921 Z M395 921 Q413 921 425.5 908.5 Q438 896 438 878 Q438 859 425.5 846.5 Q413 834 395 834 Q377 834 364 846.5 Q351 859 351 878 Q351 896 364 908.5 Q377 921 395 921 Z M71 754 L286 375 L506 754 L564 754 L310 322 L310 0 L261 0 L261 322 L15 754 L71 754 Z " />
<glyph glyph-name="Ygrave" unicode="&#x1ef2;" horiz-adv-x="581" d="M384 835 L345 806 L195 922 L247 957 L384 835 Z M71 754 L286 375 L506 754 L564 754 L310 322 L310 0 L261 0 L261 322 L15 754 L71 754 Z " />
<glyph glyph-name="Z" unicode="Z" horiz-adv-x="627" d="M573 0 L42 0 L502 709 L86 709 L86 754 L586 754 L125 45 L573 45 L573 0 Z " />
<glyph glyph-name="Zacute" unicode="&#x179;" horiz-adv-x="627" d="M277 835 L415 957 L467 922 L316 806 L277 835 Z M573 0 L42 0 L502 709 L86 709 L86 754 L586 754 L125 45 L573 45 L573 0 Z " />
<glyph glyph-name="Zcaron" unicode="&#x17d;" horiz-adv-x="627" d="M195 925 L236 957 L337 873 L437 957 L477 925 L337 807 L195 925 Z M573 0 L42 0 L502 709 L86 709 L86 754 L586 754 L125 45 L573 45 L573 0 Z " />
<glyph glyph-name="Zdotaccent" unicode="&#x17b;" horiz-adv-x="627" d="M336 924 Q355 924 368.5 911 Q382 898 382 879 Q382 860 369 847 Q356 834 337 834 Q317 834 303.5 847.5 Q290 861 290 880 Q290 898 303.5 911 Q317 924 336 924 Z M573 0 L42 0 L502 709 L86 709 L86 754 L586 754 L125 45 L573 45 L573 0 Z " />
<glyph glyph-name="uni01C4" unicode="&#x1c4;" horiz-adv-x="1324" d="M893 925 L933 957 L1034 873 L1135 957 L1174 925 L1034 807 L893 925 Z M251 754 Q338 754 405 728.5 Q472 703 527 650 Q580 597 608.5 526.5 Q637 456 637 377 Q637 298 608.5 227.5 Q580 157 527 105 Q472 51 405 25.5 Q338 0 251 0 L102 0 L102 754 L251 754 Z M1270 0 L739 0 L1199 709 L783 709 L783 754 L1284 754 L823 45 L1270 45 L1270 0 Z M250 45 Q394 45 485 132 Q534 178 560 241.5 Q586 305 586 377 Q586 473 543 548.5 Q500 624 423.5 666.5 Q347 709 250 709 L150 709 L150 45 L250 45 Z " />
<glyph glyph-name="uni01C5" unicode="&#x1c5;" horiz-adv-x="1209" d="M251 754 Q338 754 405 728.5 Q472 703 527 650 Q580 597 608.5 526.5 Q637 456 637 377 Q637 298 608.5 227.5 Q580 157 527 105 Q472 51 405 25.5 Q338 0 251 0 L102 0 L102 754 L251 754 Z M250 45 Q394 45 485 132 Q534 178 560 241.5 Q586 305 586 377 Q586 473 543 548.5 Q500 624 423.5 666.5 Q347 709 250 709 L150 709 L150 45 L250 45 Z M983 586 L1084 685 L1121 657 L983 528 L846 657 L883 685 L983 586 Z M1187 0 L719 0 L1094 419 L779 419 L779 461 L1189 461 L816 42 L1187 42 L1187 0 Z " />
<glyph glyph-name="uni01C7" unicode="&#x1c7;" horiz-adv-x="655" d="M341 45 L341 0 L102 0 L102 754 L150 754 L150 45 L341 45 Z M554 2 Q554 -38 548.5 -61.5 Q543 -85 529 -106 Q512 -130 484.5 -143.5 Q457 -157 424 -157 Q381 -157 348.5 -136.5 Q316 -116 296 -76 L332 -49 Q366 -111 426 -111 Q505 -111 505 2 L505 754 L554 754 L554 2 Z " />
<glyph glyph-name="uni01C8" unicode="&#x1c8;" horiz-adv-x="570" d="M341 45 L341 0 L102 0 L102 754 L150 754 L150 45 L341 45 Z M466 573 Q449 573 437 585 Q425 597 425 615 Q425 632 437 643.5 Q449 655 466 655 Q483 655 495 643 Q507 631 507 615 Q507 597 495 585 Q483 573 466 573 Z M370 -276 Q347 -276 327 -269 L327 -227 Q347 -233 363 -233 Q406 -233 424.5 -204.5 Q443 -176 443 -110 L443 461 L488 461 L488 -119 Q488 -160 481.5 -188 Q475 -216 460 -237 Q448 -255 424 -265.5 Q400 -276 370 -276 Z " />
<glyph glyph-name="uni01CA" unicode="&#x1ca;" horiz-adv-x="1184" d="M734 99 L734 754 L783 754 L783 -19 L150 643 L150 0 L102 0 L102 762 L734 99 Z M1083 2 Q1083 -38 1077.5 -61.5 Q1072 -85 1058 -106 Q1041 -130 1013.5 -143.5 Q986 -157 953 -157 Q910 -157 877.5 -136.5 Q845 -116 825 -76 L861 -49 Q895 -111 955 -111 Q1034 -111 1034 2 L1034 754 L1083 754 L1083 2 Z " />
<glyph glyph-name="uni01CB" unicode="&#x1cb;" horiz-adv-x="1098" d="M734 99 L734 754 L783 754 L783 -19 L150 643 L150 0 L102 0 L102 762 L734 99 Z M994 573 Q977 573 965 585 Q953 597 953 615 Q953 632 965 643.5 Q977 655 994 655 Q1011 655 1023 643 Q1035 631 1035 615 Q1035 597 1023 585 Q1011 573 994 573 Z M898 -276 Q875 -276 855 -269 L855 -227 Q875 -233 891 -233 Q934 -233 952.5 -204.5 Q971 -176 971 -110 L971 461 L1016 461 L1016 -119 Q1016 -160 1009.5 -188 Q1003 -216 988 -237 Q976 -255 952 -265.5 Q928 -276 898 -276 Z " />
<glyph glyph-name="uni01CD" unicode="&#x1cd;" horiz-adv-x="660" d="M189 925 L229 957 L330 873 L431 957 L470 925 L330 807 L189 925 Z M69 0 L15 0 L331 776 L645 0 L590 0 L490 247 L169 247 L69 0 Z M188 293 L472 293 L331 650 L188 293 Z " />
<glyph glyph-name="uni01CF" unicode="&#x1cf;" horiz-adv-x="252" d="M-15 925 L26 957 L127 873 L227 957 L267 925 L127 807 L-15 925 Z M102 0 L102 754 L150 754 L150 0 L102 0 Z " />
<glyph glyph-name="uni01D1" unicode="&#x1d1;" horiz-adv-x="902" d="M310 925 L350 957 L451 873 L551 957 L591 925 L451 807 L310 925 Z M450 764 Q555 764 645 711.5 Q735 659 788 569.5 Q841 480 841 376 Q841 271 787.5 182 Q734 93 643.5 40.5 Q553 -12 447 -12 Q343 -12 254 41.5 Q165 95 112.5 185.5 Q60 276 60 382 Q60 482 114 570 Q168 658 257.5 711 Q347 764 450 764 Z M450 718 Q360 718 282 672 Q204 626 157.5 548 Q111 470 111 381 Q111 226 220 125 Q268 82 327.5 58 Q387 34 447 34 Q540 34 619 80 Q698 126 744 205 Q790 284 790 376 Q790 468 744 546.5 Q698 625 619.5 671.5 Q541 718 450 718 Z " />
<glyph glyph-name="uni01D3" unicode="&#x1d3;" horiz-adv-x="715" d="M217 925 L258 957 L358 873 L459 957 L498 925 L358 807 L217 925 Z M150 283 Q150 213 155.5 179.5 Q161 146 177 121 Q202 83 252.5 58.5 Q303 34 358 34 Q413 34 463 58.5 Q513 83 538 121 Q554 146 559.5 179.5 Q565 213 565 283 L565 754 L614 754 L614 269 Q614 194 606 158 Q598 122 574 90 Q540 43 482 15.5 Q424 -12 358 -12 Q291 -12 233 15.5 Q175 43 141 90 Q118 122 110 158 Q102 194 102 269 L102 754 L150 754 L150 283 Z " />
<glyph glyph-name="uni01F4" unicode="&#x1f4;" horiz-adv-x="871" d="M391 835 L529 957 L581 922 L431 806 L391 835 Z M811 362 Q811 289 802 246 Q793 203 770 162 Q725 84 636.5 36 Q548 -12 450 -12 Q345 -12 255.5 40.5 Q166 93 113 181.5 Q60 270 60 374 Q60 480 113 569.5 Q166 659 256.5 711.5 Q347 764 453 764 Q518 764 579 743 Q640 722 689 683 Q711 666 729.5 646.5 Q748 627 780 588 L740 557 Q717 589 701.5 606 Q686 623 668 637 Q625 675 567.5 696.5 Q510 718 451 718 Q360 718 281.5 670.5 Q203 623 156.5 543.5 Q110 464 110 373 Q110 282 156 204 Q202 126 280 80 Q358 34 449 34 Q531 34 608.5 75 Q686 116 724 179 Q741 206 748.5 237 Q756 268 758 316 L494 316 L494 362 L811 362 Z " />
<glyph glyph-name="uni0200" unicode="&#x200;" horiz-adv-x="660" d="M308 835 L271 806 L122 922 L171 957 L308 835 Z M467 835 L429 806 L280 922 L329 957 L467 835 Z M69 0 L15 0 L331 776 L645 0 L590 0 L490 247 L169 247 L69 0 Z M188 293 L472 293 L331 650 L188 293 Z " />
<glyph glyph-name="uni021A" unicode="&#x21a;" horiz-adv-x="469" d="M208 0 L208 709 L15 709 L15 754 L453 754 L453 709 L257 709 L257 0 L208 0 Z M192 -232 L157 -220 L206 -53 L261 -68 L192 -232 Z " />
<glyph glyph-name="uni0226" unicode="&#x226;" horiz-adv-x="660" d="M330 924 Q349 924 362 911 Q375 898 375 879 Q375 860 362 847 Q349 834 330 834 Q311 834 297.5 847.5 Q284 861 284 880 Q284 898 297.5 911 Q311 924 330 924 Z M69 0 L15 0 L331 776 L645 0 L590 0 L490 247 L169 247 L69 0 Z M188 293 L472 293 L331 650 L188 293 Z " />
<glyph glyph-name="uni1E1E" unicode="&#x1e1e;" horiz-adv-x="459" d="M257 924 Q275 924 288.5 911 Q302 898 302 879 Q302 860 288.5 847 Q275 834 257 834 Q237 834 223.5 847.5 Q210 861 210 880 Q210 898 224 911 Q238 924 257 924 Z M150 435 L399 435 L399 390 L150 390 L150 0 L102 0 L102 754 L406 754 L406 709 L150 709 L150 435 Z " />
<glyph glyph-name="uni1EA0" unicode="&#x1ea0;" horiz-adv-x="660" d="M69 0 L15 0 L331 776 L645 0 L590 0 L490 247 L169 247 L69 0 Z M188 293 L472 293 L331 650 L188 293 Z M316 -85 Q333 -85 345 -96.5 Q357 -108 357 -125 Q357 -143 345 -155 Q333 -167 316 -167 Q299 -167 287 -155 Q275 -143 275 -125 Q275 -109 287 -97 Q299 -85 316 -85 Z " />
<glyph glyph-name="uni1EA2" unicode="&#x1ea2;" horiz-adv-x="660" d="M316 916 Q341 921 348 921 Q386 927 400 937 Q414 947 414 968 Q414 992 397 1005.5 Q380 1019 350 1019 Q335 1019 327.5 1017 Q320 1015 310 1009 Q301 1004 290 1000 L279 1028 Q309 1040 329.5 1044.5 Q350 1049 373 1049 Q419 1049 448 1025.5 Q477 1002 477 965 Q477 933 454.5 915 Q432 897 391 897 Q372 897 354 898 L354 854 L316 854 L316 916 Z M69 0 L15 0 L331 776 L645 0 L590 0 L490 247 L169 247 L69 0 Z M188 293 L472 293 L331 650 L188 293 Z " />
<glyph glyph-name="uni1EA4" unicode="&#x1ea4;" horiz-adv-x="660" d="M589 966 L449 858 L470 838 L429 807 L330 892 L229 807 L189 838 L330 957 L410 889 L536 1001 L589 966 Z M69 0 L15 0 L331 776 L645 0 L590 0 L490 247 L169 247 L69 0 Z M188 293 L472 293 L331 650 L188 293 Z " />
<glyph glyph-name="uni1EA6" unicode="&#x1ea6;" horiz-adv-x="660" d="M559 899 L522 873 L372 989 L421 1021 L559 899 Z M470 838 L429 807 L330 892 L229 807 L189 838 L330 957 L470 838 Z M69 0 L15 0 L331 776 L645 0 L590 0 L490 247 L169 247 L69 0 Z M188 293 L472 293 L331 650 L188 293 Z " />
<glyph glyph-name="uni1EA8" unicode="&#x1ea8;" horiz-adv-x="660" d="M426 923 Q432 924 458 929 Q495 934 509 944 Q523 954 523 975 Q523 999 506 1012.5 Q489 1026 460 1026 Q445 1026 437.5 1024.5 Q430 1023 419 1016 Q411 1011 400 1007 L389 1036 Q439 1055 483 1055 Q529 1055 557.5 1032 Q586 1009 586 972 Q586 940 564 922 Q542 904 502 904 L463 905 L463 861 L444 861 L471 838 L431 807 L331 892 L231 807 L190 838 L331 957 L426 877 L426 923 Z M69 0 L15 0 L331 776 L645 0 L590 0 L490 247 L169 247 L69 0 Z M188 293 L472 293 L331 650 L188 293 Z " />
<glyph glyph-name="uni1EAA" unicode="&#x1eaa;" horiz-adv-x="660" d="M183 994 Q200 1032 218 1047 Q236 1062 263 1062 Q279 1062 293 1058 Q307 1054 333 1042 Q378 1022 399 1022 Q414 1022 424 1031 Q434 1040 444 1064 L477 1040 Q454 972 397 972 Q369 972 329 990 Q299 1004 285.5 1008 Q272 1012 260 1012 Q245 1012 235 1003 Q225 994 216 970 L183 994 Z M470 838 L429 807 L330 892 L229 807 L189 838 L330 957 L470 838 Z M69 0 L15 0 L331 776 L645 0 L590 0 L490 247 L169 247 L69 0 Z M188 293 L472 293 L331 650 L188 293 Z " />
<glyph glyph-name="uni1EAC" unicode="&#x1eac;" horiz-adv-x="660" d="M470 838 L429 807 L330 892 L229 807 L189 838 L330 957 L470 838 Z M69 0 L15 0 L331 776 L645 0 L590 0 L490 247 L169 247 L69 0 Z M188 293 L472 293 L331 650 L188 293 Z M338 -85 Q355 -85 367 -97 Q379 -109 379 -125 Q379 -143 367 -155 Q355 -167 338 -167 Q320 -167 308 -155 Q296 -143 296 -125 Q296 -109 308.5 -97 Q321 -85 338 -85 Z " />
<glyph glyph-name="uni1EAE" unicode="&#x1eae;" horiz-adv-x="660" d="M286 944 L423 1067 L475 1031 L324 915 L286 944 Z M237 944 Q248 900 270.5 880 Q293 860 330 860 Q367 860 389.5 880.5 Q412 901 423 944 L470 944 Q462 882 425 846 Q388 810 330 810 Q272 810 234.5 846 Q197 882 190 944 L237 944 Z M69 0 L15 0 L331 776 L645 0 L590 0 L490 247 L169 247 L69 0 Z M188 293 L472 293 L331 650 L188 293 Z " />
<glyph glyph-name="uni1EB0" unicode="&#x1eb0;" horiz-adv-x="660" d="M374 920 L334 890 L184 1007 L237 1042 L374 920 Z M237 944 Q248 900 270.5 880 Q293 860 330 860 Q367 860 389.5 880.5 Q412 901 423 944 L470 944 Q462 882 425 846 Q388 810 330 810 Q272 810 235 846 Q198 882 190 944 L237 944 Z M69 0 L15 0 L331 776 L645 0 L590 0 L490 247 L169 247 L69 0 Z M188 293 L472 293 L331 650 L188 293 Z " />
<glyph glyph-name="uni1EB2" unicode="&#x1eb2;" horiz-adv-x="660" d="M288 966 Q298 967 306.5 969 Q315 971 320 971 Q357 975 371 985.5 Q385 996 385 1018 Q385 1042 368.5 1055.5 Q352 1069 322 1069 Q307 1069 299.5 1067.5 Q292 1066 281 1059 Q276 1056 262 1049 L251 1078 Q279 1089 300 1093.5 Q321 1098 345 1098 Q391 1098 420 1074.5 Q449 1051 449 1014 Q449 982 426.5 964 Q404 946 363 946 Q342 946 325 947 L325 904 L288 904 L288 966 Z M237 944 Q248 900 270.5 880 Q293 860 330 860 Q367 860 389.5 880.5 Q412 901 423 944 L470 944 Q462 882 425 846 Q388 810 330 810 Q272 810 235 846 Q198 882 190 944 L237 944 Z M69 0 L15 0 L331 776 L645 0 L590 0 L490 247 L169 247 L69 0 Z M188 293 L472 293 L331 650 L188 293 Z " />
<glyph glyph-name="uni1EB4" unicode="&#x1eb4;" horiz-adv-x="660" d="M183 993 Q200 1031 218 1046 Q236 1061 263 1061 Q279 1061 293 1057 Q307 1053 333 1041 Q360 1029 374 1024.5 Q388 1020 399 1020 Q414 1020 424 1029.5 Q434 1039 444 1063 L477 1038 Q454 971 397 971 Q369 971 329 989 Q299 1003 285.5 1007 Q272 1011 260 1011 Q245 1011 235 1001.5 Q225 992 216 968 L183 993 Z M237 944 Q248 900 270.5 880 Q293 860 330 860 Q367 860 389.5 880.5 Q412 901 423 944 L470 944 Q462 882 425 846 Q388 810 330 810 Q272 810 235 846 Q198 882 190 944 L237 944 Z M69 0 L15 0 L331 776 L645 0 L590 0 L490 247 L169 247 L69 0 Z M188 293 L472 293 L331 650 L188 293 Z " />
<glyph glyph-name="uni1EB6" unicode="&#x1eb6;" horiz-adv-x="660" d="M237 944 Q248 900 270.5 880 Q293 860 330 860 Q367 860 389.5 880.5 Q412 901 423 944 L470 944 Q462 882 425 846 Q388 810 330 810 Q272 810 235 846 Q198 882 190 944 L237 944 Z M69 0 L15 0 L331 776 L645 0 L590 0 L490 247 L169 247 L69 0 Z M188 293 L472 293 L331 650 L188 293 Z M344 -85 Q361 -85 372.5 -97 Q384 -109 384 -125 Q384 -143 372.5 -155 Q361 -167 344 -167 Q326 -167 314 -155 Q302 -143 302 -125 Q302 -109 314.5 -97 Q327 -85 344 -85 Z " />
<glyph glyph-name="uni1EB8" unicode="&#x1eb8;" horiz-adv-x="523" d="M150 435 L455 435 L455 390 L150 390 L150 45 L462 45 L462 0 L102 0 L102 754 L462 754 L462 709 L150 709 L150 435 Z M249 -85 Q266 -85 277.5 -97 Q289 -109 289 -125 Q289 -143 277.5 -155 Q266 -167 249 -167 Q231 -167 219 -155 Q207 -143 207 -125 Q207 -109 219.5 -97 Q232 -85 249 -85 Z " />
<glyph glyph-name="uni1EBA" unicode="&#x1eba;" horiz-adv-x="523" d="M263 911 Q293 915 295 915 Q333 921 346.5 931 Q360 941 360 963 Q360 987 343.5 1000.5 Q327 1014 297 1014 Q283 1014 275.5 1012 Q268 1010 257 1003 L237 994 L226 1023 Q255 1034 276 1038.5 Q297 1043 320 1043 Q366 1043 395 1019.5 Q424 996 424 959 Q424 927 401.5 909.5 Q379 892 338 892 Q319 892 301 893 L301 849 L263 849 L263 911 Z M150 435 L455 435 L455 390 L150 390 L150 45 L462 45 L462 0 L102 0 L102 754 L462 754 L462 709 L150 709 L150 435 Z " />
<glyph glyph-name="uni1EBC" unicode="&#x1ebc;" horiz-adv-x="523" d="M115 854 Q131 891 149.5 906.5 Q168 922 195 922 Q210 922 224 918 Q238 914 264 903 Q309 883 330 883 Q345 883 355 892 Q365 901 375 925 L408 901 Q385 833 328 833 Q302 833 261 851 Q231 864 217.5 868 Q204 872 192 872 Q176 872 166.5 863 Q157 854 147 829 L115 854 Z M150 435 L455 435 L455 390 L150 390 L150 45 L462 45 L462 0 L102 0 L102 754 L462 754 L462 709 L150 709 L150 435 Z " />
<glyph glyph-name="uni1EBE" unicode="&#x1ebe;" horiz-adv-x="523" d="M523 980 L384 872 L425 838 L384 807 L284 892 L183 807 L142 838 L284 957 L347 904 L471 1016 L523 980 Z M150 435 L455 435 L455 390 L150 390 L150 45 L462 45 L462 0 L102 0 L102 754 L462 754 L462 709 L150 709 L150 435 Z " />
<glyph glyph-name="uni1EC0" unicode="&#x1ec0;" horiz-adv-x="523" d="M514 899 L477 873 L327 989 L376 1021 L514 899 Z M425 838 L384 807 L285 892 L184 807 L144 838 L285 957 L425 838 Z M150 435 L455 435 L455 390 L150 390 L150 45 L462 45 L462 0 L102 0 L102 754 L462 754 L462 709 L150 709 L150 435 Z " />
<glyph glyph-name="uni1EC2" unicode="&#x1ec2;" horiz-adv-x="523" d="M376 924 Q401 929 408 929 Q445 934 459 944 Q473 954 473 976 Q473 1000 456.5 1013.5 Q440 1027 410 1027 Q395 1027 387.5 1025 Q380 1023 370 1017 Q361 1012 350 1008 L339 1036 Q368 1047 389 1052 Q410 1057 433 1057 Q479 1057 508 1033.5 Q537 1010 537 973 Q537 941 514.5 923 Q492 905 452 905 L414 906 L414 862 L398 862 L425 838 L384 807 L285 892 L184 807 L144 838 L285 957 L376 880 L376 924 Z M150 435 L455 435 L455 390 L150 390 L150 45 L462 45 L462 0 L102 0 L102 754 L462 754 L462 709 L150 709 L150 435 Z " />
<glyph glyph-name="uni1EC4" unicode="&#x1ec4;" horiz-adv-x="523" d="M145 994 Q161 1031 179.5 1046.5 Q198 1062 225 1062 Q239 1062 253.5 1058 Q268 1054 294 1043 Q339 1023 359 1023 Q375 1023 385 1032 Q395 1041 405 1066 L437 1041 Q414 973 357 973 Q331 973 290 991 Q261 1004 247 1008 Q233 1012 221 1012 Q205 1012 196 1003 Q187 994 176 970 L145 994 Z M425 838 L384 807 L284 892 L183 807 L142 838 L284 957 L425 838 Z M150 435 L455 435 L455 390 L150 390 L150 45 L462 45 L462 0 L102 0 L102 754 L462 754 L462 709 L150 709 L150 435 Z " />
<glyph glyph-name="uni1EC6" unicode="&#x1ec6;" horiz-adv-x="523" d="M425 838 L384 807 L284 892 L183 807 L142 838 L284 957 L425 838 Z M150 435 L455 435 L455 390 L150 390 L150 45 L462 45 L462 0 L102 0 L102 754 L462 754 L462 709 L150 709 L150 435 Z M266 -85 Q283 -85 294.5 -97 Q306 -109 306 -125 Q306 -143 294.5 -155 Q283 -167 266 -167 Q248 -167 236 -155 Q224 -143 224 -125 Q224 -109 236.5 -97 Q249 -85 266 -85 Z " />
<glyph glyph-name="uni1EC8" unicode="&#x1ec8;" horiz-adv-x="252" d="M108 916 Q133 921 140 921 Q178 927 192 937 Q206 947 206 968 Q206 992 189 1005.5 Q172 1019 142 1019 Q127 1019 119.5 1017 Q112 1015 102 1009 Q95 1005 82 1000 L71 1028 Q99 1039 120.5 1044 Q142 1049 165 1049 Q211 1049 240 1025.5 Q269 1002 269 965 Q269 933 246.5 915 Q224 897 183 897 Q164 897 146 898 L146 854 L108 854 L108 916 Z M102 0 L102 754 L150 754 L150 0 L102 0 Z " />
<glyph glyph-name="uni1ECA" unicode="&#x1eca;" horiz-adv-x="252" d="M102 0 L102 754 L150 754 L150 0 L102 0 Z M130 -85 Q147 -85 159 -96.5 Q171 -108 171 -125 Q171 -143 159 -155 Q147 -167 130 -167 Q112 -167 100 -155 Q88 -143 88 -125 Q88 -109 100.5 -97 Q113 -85 130 -85 Z " />
<glyph glyph-name="uni1ECC" unicode="&#x1ecc;" horiz-adv-x="902" d="M450 764 Q555 764 645 711.5 Q735 659 788 569.5 Q841 480 841 376 Q841 271 787.5 182 Q734 93 643.5 40.5 Q553 -12 447 -12 Q343 -12 254 41.5 Q165 95 112.5 185.5 Q60 276 60 382 Q60 482 114 570 Q168 658 257.5 711 Q347 764 450 764 Z M447 718 Q378 718 312 687 Q246 656 197 601 Q111 508 111 371 Q111 282 157.5 204.5 Q204 127 282.5 80.5 Q361 34 450 34 Q541 34 619.5 80.5 Q698 127 744 205.5 Q790 284 790 376 Q790 468 744 547 Q698 626 619 672 Q540 718 447 718 Z M437 -85 Q454 -85 466 -96.5 Q478 -108 478 -125 Q478 -143 466 -155 Q454 -167 437 -167 Q420 -167 407.5 -155 Q395 -143 395 -125 Q395 -109 407.5 -97 Q420 -85 437 -85 Z " />
<glyph glyph-name="uni1ECE" unicode="&#x1ece;" horiz-adv-x="902" d="M409 916 Q434 921 441 921 Q478 927 492 937 Q506 947 506 968 Q506 992 489.5 1005.5 Q473 1019 443 1019 Q428 1019 420.5 1017.5 Q413 1016 402 1009 Q394 1004 383 1000 L372 1028 Q401 1039 422 1044 Q443 1049 466 1049 Q512 1049 541 1025.5 Q570 1002 570 965 Q570 933 547.5 915 Q525 897 484 897 Q464 897 446 898 L446 854 L409 854 L409 916 Z M450 764 Q555 764 645 711.5 Q735 659 788 569.5 Q841 480 841 376 Q841 271 787.5 182 Q734 93 643.5 40.5 Q553 -12 447 -12 Q343 -12 254 41.5 Q165 95 112.5 185.5 Q60 276 60 382 Q60 482 114 570 Q168 658 257.5 711 Q347 764 450 764 Z M447 718 Q378 718 312 687 Q246 656 197 601 Q111 508 111 371 Q111 282 157.5 204.5 Q204 127 282.5 80.5 Q361 34 450 34 Q541 34 619.5 80.5 Q698 127 744 205.5 Q790 284 790 376 Q790 468 744 547 Q698 626 619 672 Q540 718 447 718 Z " />
<glyph glyph-name="uni1ED0" unicode="&#x1ed0;" horiz-adv-x="902" d="M693 979 L554 871 L591 838 L550 807 L451 892 L350 807 L310 838 L451 957 L515 903 L641 1014 L693 979 Z M447 764 Q553 764 643.5 711.5 Q734 659 787.5 570 Q841 481 841 376 Q841 272 788 182.5 Q735 93 645 40.5 Q555 -12 450 -12 Q347 -12 257.5 40.5 Q168 93 114 181 Q60 269 60 370 Q60 544 189 661 Q241 708 310.5 736 Q380 764 447 764 Z M450 718 Q360 718 282 672 Q204 626 157.5 548 Q111 470 111 381 Q111 226 220 125 Q268 82 327.5 58 Q387 34 447 34 Q540 34 619 80 Q698 126 744 205 Q790 284 790 376 Q790 468 744 546.5 Q698 625 619.5 671.5 Q541 718 450 718 Z " />
<glyph glyph-name="uni1ED2" unicode="&#x1ed2;" horiz-adv-x="902" d="M680 899 L643 873 L493 989 L542 1021 L680 899 Z M591 838 L550 807 L451 892 L350 807 L310 838 L451 957 L591 838 Z M447 764 Q553 764 643.5 711.5 Q734 659 787.5 570 Q841 481 841 376 Q841 272 788 182.5 Q735 93 645 40.5 Q555 -12 450 -12 Q347 -12 257.5 40.5 Q168 93 114 181 Q60 269 60 370 Q60 544 189 661 Q241 708 310.5 736 Q380 764 447 764 Z M450 718 Q360 718 282 672 Q204 626 157.5 548 Q111 470 111 381 Q111 226 220 125 Q268 82 327.5 58 Q387 34 447 34 Q540 34 619 80 Q698 126 744 205 Q790 284 790 376 Q790 468 744 546.5 Q698 625 619.5 671.5 Q541 718 450 718 Z " />
<glyph glyph-name="uni1ED4" unicode="&#x1ed4;" horiz-adv-x="902" d="M546 923 Q562 925 577 929 Q615 934 629 944 Q643 954 643 975 Q643 999 626 1012.5 Q609 1026 580 1026 Q565 1026 557.5 1024.5 Q550 1023 539 1016 Q531 1011 520 1007 L508 1036 Q560 1055 602 1055 Q648 1055 677 1032 Q706 1009 706 972 Q706 940 683.5 922 Q661 904 621 904 L583 905 L583 861 L565 861 L592 838 L551 807 L451 892 L350 807 L311 838 L451 957 L546 878 L546 923 Z M447 764 Q553 764 643.5 711.5 Q734 659 787.5 570 Q841 481 841 376 Q841 272 788 182.5 Q735 93 645 40.5 Q555 -12 450 -12 Q347 -12 257.5 40.5 Q168 93 114 181 Q60 269 60 370 Q60 544 189 661 Q241 708 310.5 736 Q380 764 447 764 Z M450 718 Q360 718 282 672 Q204 626 157.5 548 Q111 470 111 381 Q111 226 220 125 Q268 82 327.5 58 Q387 34 447 34 Q540 34 619 80 Q698 126 744 205 Q790 284 790 376 Q790 468 744 546.5 Q698 625 619.5 671.5 Q541 718 450 718 Z " />
<glyph glyph-name="uni1ED6" unicode="&#x1ed6;" horiz-adv-x="902" d="M305 992 Q321 1029 339.5 1044.5 Q358 1060 385 1060 Q399 1060 412.5 1056 Q426 1052 454 1041 Q481 1029 495 1024.5 Q509 1020 520 1020 Q535 1020 544.5 1029.5 Q554 1039 565 1063 L598 1038 Q575 971 518 971 Q504 971 489.5 975 Q475 979 451 989 Q421 1002 407.5 1006 Q394 1010 382 1010 Q366 1010 356.5 1001 Q347 992 337 967 L305 992 Z M591 838 L550 807 L451 892 L350 807 L310 838 L451 957 L591 838 Z M450 764 Q555 764 645 711.5 Q735 659 788 569.5 Q841 480 841 376 Q841 271 787.5 182 Q734 93 643.5 40.5 Q553 -12 447 -12 Q343 -12 254 41.5 Q165 95 112.5 185.5 Q60 276 60 382 Q60 482 114 570 Q168 658 257.5 711 Q347 764 450 764 Z M450 718 Q360 718 282 672 Q204 626 157.5 548 Q111 470 111 381 Q111 226 220 125 Q268 82 327.5 58 Q387 34 447 34 Q540 34 619 80 Q698 126 744 205 Q790 284 790 376 Q790 468 744 546.5 Q698 625 619.5 671.5 Q541 718 450 718 Z " />
<glyph glyph-name="uni1ED8" unicode="&#x1ed8;" horiz-adv-x="902" d="M591 838 L550 807 L451 892 L350 807 L310 838 L451 957 L591 838 Z M450 764 Q555 764 645 711.5 Q735 659 788 569.5 Q841 480 841 376 Q841 271 787.5 182 Q734 93 643.5 40.5 Q553 -12 447 -12 Q343 -12 254 41.5 Q165 95 112.5 185.5 Q60 276 60 382 Q60 482 114 570 Q168 658 257.5 711 Q347 764 450 764 Z M450 718 Q360 718 282 672 Q204 626 157.5 548 Q111 470 111 381 Q111 226 220 125 Q268 82 327.5 58 Q387 34 447 34 Q540 34 619 80 Q698 126 744 205 Q790 284 790 376 Q790 468 744 546.5 Q698 625 619.5 671.5 Q541 718 450 718 Z M437 -85 Q454 -85 466 -96.5 Q478 -108 478 -125 Q478 -143 466 -155 Q454 -167 437 -167 Q420 -167 407.5 -155 Q395 -143 395 -125 Q395 -109 407.5 -97 Q420 -85 437 -85 Z " />
<glyph glyph-name="uni1EDA" unicode="&#x1eda;" horiz-adv-x="902" d="M406 835 L544 957 L596 922 L445 806 L406 835 Z M820 771 L757 615 Q797 565 819 502 Q841 439 841 375 Q841 271 788 182 Q735 93 645 40.5 Q555 -12 451 -12 Q346 -12 256 40.5 Q166 93 113 182.5 Q60 272 60 376 Q60 480 113 569.5 Q166 659 255.5 711.5 Q345 764 450 764 Q527 764 598.5 734.5 Q670 705 727 649 L765 785 L820 771 Z M450 718 Q360 718 282 672 Q204 626 157.5 548 Q111 470 111 381 Q111 226 220 125 Q268 82 327.5 58 Q387 34 447 34 Q540 34 619 80 Q698 126 744 205 Q790 284 790 376 Q790 468 744 546.5 Q698 625 619.5 671.5 Q541 718 450 718 Z " />
<glyph glyph-name="uni1EDC" unicode="&#x1edc;" horiz-adv-x="902" d="M495 835 L455 806 L305 922 L357 957 L495 835 Z M820 771 L757 615 Q797 565 819 502 Q841 439 841 375 Q841 271 788 182 Q735 93 645 40.5 Q555 -12 451 -12 Q346 -12 256 40.5 Q166 93 113 182.5 Q60 272 60 376 Q60 480 113 569.5 Q166 659 255.5 711.5 Q345 764 450 764 Q527 764 598.5 734.5 Q670 705 727 649 L765 785 L820 771 Z M450 718 Q360 718 282 672 Q204 626 157.5 548 Q111 470 111 381 Q111 226 220 125 Q268 82 327.5 58 Q387 34 447 34 Q540 34 619 80 Q698 126 744 205 Q790 284 790 376 Q790 468 744 546.5 Q698 625 619.5 671.5 Q541 718 450 718 Z " />
<glyph glyph-name="uni1EDE" unicode="&#x1ede;" horiz-adv-x="902" d="M409 916 Q434 921 441 921 Q478 927 492 937 Q506 947 506 968 Q506 992 489.5 1005.5 Q473 1019 443 1019 Q428 1019 420.5 1017.5 Q413 1016 402 1009 Q394 1004 383 1000 L372 1028 Q401 1039 422 1044 Q443 1049 466 1049 Q512 1049 541 1025.5 Q570 1002 570 965 Q570 933 547.5 915 Q525 897 484 897 Q464 897 446 898 L446 854 L409 854 L409 916 Z M820 771 L757 615 Q797 565 819 502 Q841 439 841 375 Q841 271 788 182 Q735 93 645 40.5 Q555 -12 451 -12 Q346 -12 256 40.5 Q166 93 113 182.5 Q60 272 60 376 Q60 480 113 569.5 Q166 659 255.5 711.5 Q345 764 450 764 Q527 764 598.5 734.5 Q670 705 727 649 L765 785 L820 771 Z M450 718 Q360 718 282 672 Q204 626 157.5 548 Q111 470 111 381 Q111 226 220 125 Q268 82 327.5 58 Q387 34 447 34 Q540 34 619 80 Q698 126 744 205 Q790 284 790 376 Q790 468 744 546.5 Q698 625 619.5 671.5 Q541 718 450 718 Z " />
<glyph glyph-name="uni1EE0" unicode="&#x1ee0;" horiz-adv-x="902" d="M304 854 Q321 892 339 907 Q357 922 384 922 Q399 922 412.5 918.5 Q426 915 454 903 Q498 883 519 883 Q535 883 544.5 892 Q554 901 565 925 L597 901 Q585 866 565.5 849.5 Q546 833 516 833 Q503 833 488.5 837 Q474 841 450 851 Q420 864 406 868 Q392 872 381 872 Q365 872 355.5 863 Q346 854 337 829 L304 854 Z M820 771 L757 615 Q797 565 819 502 Q841 439 841 375 Q841 271 788 182 Q735 93 645 40.5 Q555 -12 451 -12 Q346 -12 256 40.5 Q166 93 113 182.5 Q60 272 60 376 Q60 480 113 569.5 Q166 659 255.5 711.5 Q345 764 450 764 Q527 764 598.5 734.5 Q670 705 727 649 L765 785 L820 771 Z M450 718 Q360 718 282 672 Q204 626 157.5 548 Q111 470 111 381 Q111 226 220 125 Q268 82 327.5 58 Q387 34 447 34 Q540 34 619 80 Q698 126 744 205 Q790 284 790 376 Q790 468 744 546.5 Q698 625 619.5 671.5 Q541 718 450 718 Z " />
<glyph glyph-name="uni1EE2" unicode="&#x1ee2;" horiz-adv-x="902" d="M820 771 L757 615 Q797 565 819 502 Q841 439 841 375 Q841 271 788 182 Q735 93 645 40.5 Q555 -12 451 -12 Q346 -12 256 40.5 Q166 93 113 182.5 Q60 272 60 376 Q60 480 113 569.5 Q166 659 255.5 711.5 Q345 764 450 764 Q527 764 598.5 734.5 Q670 705 727 649 L765 785 L820 771 Z M450 718 Q360 718 282 672 Q204 626 157.5 548 Q111 470 111 381 Q111 226 220 125 Q268 82 327.5 58 Q387 34 447 34 Q540 34 619 80 Q698 126 744 205 Q790 284 790 376 Q790 468 744 546.5 Q698 625 619.5 671.5 Q541 718 450 718 Z M437 -85 Q454 -85 466 -96.5 Q478 -108 478 -125 Q478 -143 466 -155 Q454 -167 437 -167 Q420 -167 407.5 -155 Q395 -143 395 -125 Q395 -109 407.5 -97 Q420 -85 437 -85 Z " />
<glyph glyph-name="uni1EE4" unicode="&#x1ee4;" horiz-adv-x="715" d="M150 283 Q150 213 155.5 179.5 Q161 146 177 121 Q202 83 252.5 58.5 Q303 34 358 34 Q413 34 463 58.5 Q513 83 538 121 Q554 146 559.5 179.5 Q565 213 565 283 L565 754 L614 754 L614 269 Q614 194 606 158 Q598 122 574 90 Q540 43 482 15.5 Q424 -12 358 -12 Q291 -12 233 15.5 Q175 43 141 90 Q118 122 110 158 Q102 194 102 269 L102 754 L150 754 L150 283 Z M345 -85 Q362 -85 373.5 -97 Q385 -109 385 -125 Q385 -143 373.5 -155 Q362 -167 345 -167 Q327 -167 315 -155 Q303 -143 303 -125 Q303 -109 315.5 -97 Q328 -85 345 -85 Z " />
<glyph glyph-name="uni1EE6" unicode="&#x1ee6;" horiz-adv-x="715" d="M323 916 Q348 921 355 921 Q393 927 406.5 936.5 Q420 946 420 968 Q420 992 403.5 1005.5 Q387 1019 357 1019 Q342 1019 334.5 1017.5 Q327 1016 316 1009 Q308 1004 297 1000 L286 1028 Q315 1039 336 1044 Q357 1049 380 1049 Q426 1049 455 1025.5 Q484 1002 484 965 Q484 933 461.5 915 Q439 897 398 897 L360 898 L360 854 L323 854 L323 916 Z M150 283 Q150 213 155.5 179.5 Q161 146 177 121 Q202 83 252.5 58.5 Q303 34 358 34 Q413 34 463 58.5 Q513 83 538 121 Q554 146 559.5 179.5 Q565 213 565 283 L565 754 L614 754 L614 269 Q614 194 606 158 Q598 122 574 90 Q540 43 482 15.5 Q424 -12 358 -12 Q291 -12 233 15.5 Q175 43 141 90 Q118 122 110 158 Q102 194 102 269 L102 754 L150 754 L150 283 Z " />
<glyph glyph-name="uni1EE8" unicode="&#x1ee8;" horiz-adv-x="715" d="M313 835 L451 957 L503 922 L353 806 L313 835 Z M721 606 L686 616 L733 792 L789 776 L721 606 Z M150 283 Q150 213 155.5 179.5 Q161 146 177 121 Q202 83 252.5 58.5 Q303 34 358 34 Q413 34 463 58.5 Q513 83 538 121 Q554 146 559.5 179.5 Q565 213 565 283 L565 754 L614 754 L614 269 Q614 194 606 158 Q598 122 574 90 Q540 43 482 15.5 Q424 -12 358 -12 Q291 -12 233 15.5 Q175 43 141 90 Q118 122 110 158 Q102 194 102 269 L102 754 L150 754 L150 283 Z " />
<glyph glyph-name="uni1EEA" unicode="&#x1eea;" horiz-adv-x="715" d="M402 835 L363 806 L212 922 L264 957 L402 835 Z M721 606 L686 616 L733 792 L789 776 L721 606 Z M150 283 Q150 213 155.5 179.5 Q161 146 177 121 Q202 83 252.5 58.5 Q303 34 358 34 Q413 34 463 58.5 Q513 83 538 121 Q554 146 559.5 179.5 Q565 213 565 283 L565 754 L614 754 L614 269 Q614 194 606 158 Q598 122 574 90 Q540 43 482 15.5 Q424 -12 358 -12 Q291 -12 233 15.5 Q175 43 141 90 Q118 122 110 158 Q102 194 102 269 L102 754 L150 754 L150 283 Z " />
<glyph glyph-name="uni1EEC" unicode="&#x1eec;" horiz-adv-x="715" d="M316 916 Q341 921 348 921 Q386 927 400 937 Q414 947 414 968 Q414 992 397 1005.5 Q380 1019 350 1019 Q335 1019 327.5 1017 Q320 1015 310 1009 Q301 1004 290 1000 L279 1028 Q309 1040 329.5 1044.5 Q350 1049 373 1049 Q419 1049 448 1025.5 Q477 1002 477 965 Q477 933 454.5 915 Q432 897 391 897 Q372 897 354 898 L354 854 L316 854 L316 916 Z M721 606 L686 616 L733 792 L789 776 L721 606 Z M150 283 Q150 213 155.5 179.5 Q161 146 177 121 Q202 83 252.5 58.5 Q303 34 358 34 Q413 34 463 58.5 Q513 83 538 121 Q554 146 559.5 179.5 Q565 213 565 283 L565 754 L614 754 L614 269 Q614 194 606 158 Q598 122 574 90 Q540 43 482 15.5 Q424 -12 358 -12 Q291 -12 233 15.5 Q175 43 141 90 Q118 122 110 158 Q102 194 102 269 L102 754 L150 754 L150 283 Z " />
<glyph glyph-name="uni1EEE" unicode="&#x1eee;" horiz-adv-x="715" d="M211 854 Q228 892 246 907 Q264 922 292 922 Q307 922 320 918.5 Q333 915 362 903 Q405 883 426 883 Q442 883 452 892 Q462 901 472 925 L504 901 Q492 866 472.5 849.5 Q453 833 424 833 Q399 833 357 851 Q327 864 313.5 868 Q300 872 288 872 Q272 872 263 863 Q254 854 244 829 L211 854 Z M721 606 L686 616 L733 792 L789 776 L721 606 Z M150 283 Q150 213 155.5 179.5 Q161 146 177 121 Q202 83 252.5 58.5 Q303 34 358 34 Q413 34 463 58.5 Q513 83 538 121 Q554 146 559.5 179.5 Q565 213 565 283 L565 754 L614 754 L614 269 Q614 194 606 158 Q598 122 574 90 Q540 43 482 15.5 Q424 -12 358 -12 Q291 -12 233 15.5 Q175 43 141 90 Q118 122 110 158 Q102 194 102 269 L102 754 L150 754 L150 283 Z " />
<glyph glyph-name="uni1EF0" unicode="&#x1ef0;" horiz-adv-x="715" d="M721 606 L686 616 L733 792 L789 776 L721 606 Z M150 283 Q150 213 155.5 179.5 Q161 146 177 121 Q202 83 252.5 58.5 Q303 34 358 34 Q413 34 463 58.5 Q513 83 538 121 Q554 146 559.5 179.5 Q565 213 565 283 L565 754 L614 754 L614 269 Q614 194 606 158 Q598 122 574 90 Q540 43 482 15.5 Q424 -12 358 -12 Q291 -12 233 15.5 Q175 43 141 90 Q118 122 110 158 Q102 194 102 269 L102 754 L150 754 L150 283 Z M345 -85 Q362 -85 373.5 -97 Q385 -109 385 -125 Q385 -143 373.5 -155 Q362 -167 345 -167 Q327 -167 315 -155 Q303 -143 303 -125 Q303 -109 315.5 -97 Q328 -85 345 -85 Z " />
<glyph glyph-name="uni1EF4" unicode="&#x1ef4;" horiz-adv-x="581" d="M71 754 L286 375 L506 754 L564 754 L310 322 L310 0 L261 0 L261 322 L15 754 L71 754 Z M288 -85 Q305 -85 317 -96.5 Q329 -108 329 -125 Q329 -143 317 -155 Q305 -167 288 -167 Q270 -167 258 -155 Q246 -143 246 -125 Q246 -109 258.5 -97 Q271 -85 288 -85 Z " />
<glyph glyph-name="uni1EF6" unicode="&#x1ef6;" horiz-adv-x="581" d="M267 913 Q277 914 285 916 Q293 918 298 918 Q336 923 350 933 Q364 943 364 965 Q364 989 347 1002.5 Q330 1016 301 1016 Q286 1016 278.5 1014.5 Q271 1013 260 1006 Q252 1001 241 997 L229 1025 Q258 1036 279 1040.5 Q300 1045 323 1045 Q369 1045 398 1022 Q427 999 427 962 Q427 930 404.5 912 Q382 894 341 894 Q322 894 304 895 L304 851 L267 851 L267 913 Z M71 754 L286 375 L506 754 L564 754 L310 322 L310 0 L261 0 L261 322 L15 754 L71 754 Z " />
<glyph glyph-name="uni1EF8" unicode="&#x1ef8;" horiz-adv-x="581" d="M144 854 Q160 891 178.5 906.5 Q197 922 224 922 Q239 922 253 918 Q267 914 293 903 Q338 883 358 883 Q374 883 383.5 892 Q393 901 403 925 L436 901 Q413 833 356 833 Q330 833 289 851 Q259 864 245.5 868 Q232 872 220 872 Q204 872 195 863 Q186 854 176 829 L144 854 Z M71 754 L286 375 L506 754 L564 754 L310 322 L310 0 L261 0 L261 322 L15 754 L71 754 Z " />
<glyph glyph-name="a" unicode="a" horiz-adv-x="582" d="M502 0 L457 0 L457 82 Q426 36 380 12 Q334 -12 277 -12 Q212 -12 160.5 19.5 Q109 51 80 106.5 Q51 162 51 233 Q51 302 79.5 356 Q108 410 159.5 440.5 Q211 471 276 471 Q334 471 377.5 449.5 Q421 428 457 381 L457 461 L502 461 L502 0 Z M278 429 Q228 429 186.5 403.5 Q145 378 121 333.5 Q97 289 97 235 Q97 176 120.5 129 Q144 82 185.5 55.5 Q227 29 278 29 Q330 29 371.5 55 Q413 81 436.5 128 Q460 175 460 235 Q460 284 446 319.5 Q432 355 402 381 Q376 404 343 416.5 Q310 429 278 429 Z " />
<glyph glyph-name="aacute" unicode="&#xe1;" horiz-adv-x="582" d="M244 546 L348 687 L395 657 L278 528 L244 546 Z M502 0 L457 0 L457 82 Q426 36 380 12 Q334 -12 277 -12 Q212 -12 160.5 19.5 Q109 51 80 106.5 Q51 162 51 233 Q51 302 79.5 356 Q108 410 159.5 440.5 Q211 471 276 471 Q334 471 377.5 449.5 Q421 428 457 381 L457 461 L502 461 L502 0 Z M278 429 Q228 429 186.5 403.5 Q145 378 121 333.5 Q97 289 97 235 Q97 176 120.5 129 Q144 82 185.5 55.5 Q227 29 278 29 Q330 29 371.5 55 Q413 81 436.5 128 Q460 175 460 235 Q460 284 446 319.5 Q432 355 402 381 Q376 404 343 416.5 Q310 429 278 429 Z " />
<glyph glyph-name="abreve" unicode="&#x103;" horiz-adv-x="582" d="M201 670 Q211 621 233.5 598 Q256 575 292 575 Q327 575 349 598 Q371 621 382 670 L425 670 Q418 606 382 568.5 Q346 531 292 531 Q237 531 201 568.5 Q165 606 157 670 L201 670 Z M502 0 L457 0 L457 82 Q426 36 380 12 Q334 -12 277 -12 Q212 -12 160.5 19.5 Q109 51 80 106.5 Q51 162 51 233 Q51 302 79.5 356 Q108 410 159.5 440.5 Q211 471 276 471 Q334 471 377.5 449.5 Q421 428 457 381 L457 461 L502 461 L502 0 Z M278 429 Q228 429 186.5 403.5 Q145 378 121 333.5 Q97 289 97 235 Q97 176 120.5 129 Q144 82 185.5 55.5 Q227 29 278 29 Q330 29 371.5 55 Q413 81 436.5 128 Q460 175 460 235 Q460 284 446 319.5 Q432 355 402 381 Q376 404 343 416.5 Q310 429 278 429 Z " />
<glyph glyph-name="acircumflex" unicode="&#xe2;" horiz-adv-x="582" d="M428 556 L392 528 L292 626 L191 528 L154 556 L292 685 L428 556 Z M502 0 L457 0 L457 82 Q426 36 380 12 Q334 -12 277 -12 Q212 -12 160.5 19.5 Q109 51 80 106.5 Q51 162 51 233 Q51 302 79.5 356 Q108 410 159.5 440.5 Q211 471 276 471 Q334 471 377.5 449.5 Q421 428 457 381 L457 461 L502 461 L502 0 Z M278 429 Q228 429 186.5 403.5 Q145 378 121 333.5 Q97 289 97 235 Q97 176 120.5 129 Q144 82 185.5 55.5 Q227 29 278 29 Q330 29 371.5 55 Q413 81 436.5 128 Q460 175 460 235 Q460 284 446 319.5 Q432 355 402 381 Q376 404 343 416.5 Q310 429 278 429 Z " />
<glyph glyph-name="adieresis" unicode="&#xe4;" horiz-adv-x="582" d="M197 640 Q213 640 225 628 Q237 616 237 599 Q237 581 225.5 569 Q214 557 197 557 Q179 557 167 569 Q155 581 155 599 Q155 616 167.5 628 Q180 640 197 640 Z M384 640 Q401 640 413 628 Q425 616 425 599 Q425 581 413 569 Q401 557 384 557 Q366 557 354 569 Q342 581 342 599 Q342 615 354.5 627.5 Q367 640 384 640 Z M502 0 L457 0 L457 82 Q426 36 380 12 Q334 -12 277 -12 Q212 -12 160.5 19.5 Q109 51 80 106.5 Q51 162 51 233 Q51 302 79.5 356 Q108 410 159.5 440.5 Q211 471 276 471 Q334 471 377.5 449.5 Q421 428 457 381 L457 461 L502 461 L502 0 Z M278 429 Q228 429 186.5 403.5 Q145 378 121 333.5 Q97 289 97 235 Q97 176 120.5 129 Q144 82 185.5 55.5 Q227 29 278 29 Q330 29 371.5 55 Q413 81 436.5 128 Q460 175 460 235 Q460 284 446 319.5 Q432 355 402 381 Q376 404 343 416.5 Q310 429 278 429 Z " />
<glyph glyph-name="agrave" unicode="&#xe0;" horiz-adv-x="582" d="M351 546 L319 528 L201 657 L249 687 L351 546 Z M502 0 L457 0 L457 82 Q426 36 380 12 Q334 -12 277 -12 Q212 -12 160.5 19.5 Q109 51 80 106.5 Q51 162 51 233 Q51 302 79.5 356 Q108 410 159.5 440.5 Q211 471 276 471 Q334 471 377.5 449.5 Q421 428 457 381 L457 461 L502 461 L502 0 Z M278 429 Q228 429 186.5 403.5 Q145 378 121 333.5 Q97 289 97 235 Q97 176 120.5 129 Q144 82 185.5 55.5 Q227 29 278 29 Q330 29 371.5 55 Q413 81 436.5 128 Q460 175 460 235 Q460 284 446 319.5 Q432 355 402 381 Q376 404 343 416.5 Q310 429 278 429 Z " />
<glyph glyph-name="amacron" unicode="&#x101;" horiz-adv-x="582" d="M429 572 L148 572 L148 615 L429 615 L429 572 Z M502 0 L457 0 L457 82 Q426 36 380 12 Q334 -12 277 -12 Q212 -12 160.5 19.5 Q109 51 80 106.5 Q51 162 51 233 Q51 302 79.5 356 Q108 410 159.5 440.5 Q211 471 276 471 Q334 471 377.5 449.5 Q421 428 457 381 L457 461 L502 461 L502 0 Z M278 429 Q228 429 186.5 403.5 Q145 378 121 333.5 Q97 289 97 235 Q97 176 120.5 129 Q144 82 185.5 55.5 Q227 29 278 29 Q330 29 371.5 55 Q413 81 436.5 128 Q460 175 460 235 Q460 284 446 319.5 Q432 355 402 381 Q376 404 343 416.5 Q310 429 278 429 Z " />
<glyph glyph-name="aogonek" unicode="&#x105;" horiz-adv-x="582" d="M502 0 Q421 -49 421 -103 Q421 -128 434.5 -142 Q448 -156 471 -156 Q484 -156 497.5 -152 Q511 -148 532 -137 L522 -182 Q490 -197 460 -197 Q420 -197 395.5 -173.5 Q371 -150 371 -112 Q371 -76 391.5 -49.5 Q412 -23 457 0 L457 82 Q426 36 380 12 Q334 -12 277 -12 Q212 -12 160.5 19.5 Q109 51 80 106.5 Q51 162 51 233 Q51 302 79.5 356 Q108 410 159.5 440.5 Q211 471 276 471 Q334 471 377.5 449.5 Q421 428 457 381 L457 461 L502 461 L502 0 Z M278 429 Q228 429 186.5 403.5 Q145 378 121 333.5 Q97 289 97 235 Q97 176 120.5 129 Q144 82 185.5 55.5 Q227 29 278 29 Q330 29 371.5 55 Q413 81 436.5 128 Q460 175 460 235 Q460 284 446 319.5 Q432 355 402 381 Q376 404 343 416.5 Q310 429 278 429 Z " />
<glyph glyph-name="aring" unicode="&#xe5;" horiz-adv-x="582" d="M290 701 Q327 701 352 676 Q377 651 377 615 Q377 578 352 553 Q327 528 292 528 Q255 528 230 553 Q205 578 205 615 Q205 650 230 675.5 Q255 701 290 701 Z M290 660 Q272 660 258 646.5 Q244 633 244 615 Q244 595 257.5 581 Q271 567 292 567 Q311 567 324.5 580.5 Q338 594 338 614 Q338 634 324.5 647 Q311 660 290 660 Z M502 0 L457 0 L457 82 Q426 36 380 12 Q334 -12 277 -12 Q212 -12 160.5 19.5 Q109 51 80 106.5 Q51 162 51 233 Q51 302 79.5 356 Q108 410 159.5 440.5 Q211 471 276 471 Q334 471 377.5 449.5 Q421 428 457 381 L457 461 L502 461 L502 0 Z M278 429 Q228 429 186.5 403.5 Q145 378 121 333.5 Q97 289 97 235 Q97 176 120.5 129 Q144 82 185.5 55.5 Q227 29 278 29 Q330 29 371.5 55 Q413 81 436.5 128 Q460 175 460 235 Q460 284 446 319.5 Q432 355 402 381 Q376 404 343 416.5 Q310 429 278 429 Z " />
<glyph glyph-name="aringacute" unicode="&#x1fb;" horiz-adv-x="582" d="M191 711 L294 852 L341 822 L224 693 L191 711 Z M290 701 Q327 701 352 676 Q377 651 377 615 Q377 578 352 553 Q327 528 292 528 Q255 528 230 553 Q205 578 205 615 Q205 650 230 675.5 Q255 701 290 701 Z M290 660 Q272 660 258 646.5 Q244 633 244 615 Q244 595 257.5 581 Q271 567 292 567 Q311 567 324.5 580.5 Q338 594 338 614 Q338 634 324.5 647 Q311 660 290 660 Z M502 0 L457 0 L457 82 Q426 36 380 12 Q334 -12 277 -12 Q212 -12 160.5 19.5 Q109 51 80 106.5 Q51 162 51 233 Q51 302 79.5 356 Q108 410 159.5 440.5 Q211 471 276 471 Q334 471 377.5 449.5 Q421 428 457 381 L457 461 L502 461 L502 0 Z M278 429 Q228 429 186.5 403.5 Q145 378 121 333.5 Q97 289 97 235 Q97 176 120.5 129 Q144 82 185.5 55.5 Q227 29 278 29 Q330 29 371.5 55 Q413 81 436.5 128 Q460 175 460 235 Q460 284 446 319.5 Q432 355 402 381 Q376 404 343 416.5 Q310 429 278 429 Z " />
<glyph glyph-name="atilde" unicode="&#xe3;" horiz-adv-x="582" d="M153 575 Q182 641 232 641 Q248 641 263 636 Q278 631 329 608 Q346 599 362 599 Q376 599 386.5 608.5 Q397 618 408 642 L437 620 Q427 588 406 571.5 Q385 555 358 555 Q345 555 332.5 558.5 Q320 562 296 573 Q264 588 249.5 593 Q235 598 225 598 Q198 598 183 554 L153 575 Z M502 0 L457 0 L457 82 Q426 36 380 12 Q334 -12 277 -12 Q212 -12 160.5 19.5 Q109 51 80 106.5 Q51 162 51 233 Q51 302 79.5 356 Q108 410 159.5 440.5 Q211 471 276 471 Q334 471 377.5 449.5 Q421 428 457 381 L457 461 L502 461 L502 0 Z M278 429 Q228 429 186.5 403.5 Q145 378 121 333.5 Q97 289 97 235 Q97 176 120.5 129 Q144 82 185.5 55.5 Q227 29 278 29 Q330 29 371.5 55 Q413 81 436.5 128 Q460 175 460 235 Q460 284 446 319.5 Q432 355 402 381 Q376 404 343 416.5 Q310 429 278 429 Z " />
<glyph glyph-name="ae" unicode="&#xe6;" horiz-adv-x="896" d="M450 224 Q451 193 456 170 Q461 147 472 124 Q495 81 536.5 55 Q578 29 626 29 Q657 29 689 41 Q721 53 745 73 Q769 97 792 134 L831 107 Q790 47 739.5 17.5 Q689 -12 626 -12 Q563 -12 512.5 18.5 Q462 49 436 103 Q418 48 368 18 Q318 -12 244 -12 Q189 -12 145 6 Q101 24 76 57 Q51 90 51 131 Q51 196 107 236.5 Q163 277 254 277 Q301 277 334 266 Q367 255 399 229 Q399 326 357.5 377.5 Q316 429 238 429 Q202 429 168.5 420 Q135 411 82 386 L82 433 Q124 453 162.5 462 Q201 471 243 471 Q311 471 356.5 439 Q402 407 427 342 Q440 369 449.5 383 Q459 397 473 410 Q502 438 543 454.5 Q584 471 625 471 Q686 471 738.5 438.5 Q791 406 817 351 Q830 324 837 294.5 Q844 265 846 224 L450 224 Z M794 267 Q790 293 784 310.5 Q778 328 767 347 Q745 384 705.5 406.5 Q666 429 623 429 Q558 429 511.5 385 Q465 341 453 267 L794 267 Z M250 235 Q180 235 138.5 207 Q97 179 97 132 Q97 105 107.5 86.5 Q118 68 141 54 Q160 43 188 36 Q216 29 243 29 Q313 29 355 58 Q397 87 397 136 Q397 180 357 207.5 Q317 235 250 235 Z " />
<glyph glyph-name="aeacute" unicode="&#x1fd;" horiz-adv-x="896" d="M375 546 L478 687 L525 657 L408 528 L375 546 Z M450 224 Q451 193 456 170 Q461 147 472 124 Q495 81 536.5 55 Q578 29 626 29 Q657 29 689 41 Q721 53 745 73 Q769 97 792 134 L831 107 Q790 47 739.5 17.5 Q689 -12 626 -12 Q563 -12 512.5 18.5 Q462 49 436 103 Q418 48 368 18 Q318 -12 244 -12 Q189 -12 145 6 Q101 24 76 57 Q51 90 51 131 Q51 196 107 236.5 Q163 277 254 277 Q301 277 334 266 Q367 255 399 229 Q399 326 357.5 377.5 Q316 429 238 429 Q202 429 168.5 420 Q135 411 82 386 L82 433 Q124 453 162.5 462 Q201 471 243 471 Q311 471 356.5 439 Q402 407 427 342 Q440 369 449.5 383 Q459 397 473 410 Q502 438 543 454.5 Q584 471 625 471 Q686 471 738.5 438.5 Q791 406 817 351 Q830 324 837 294.5 Q844 265 846 224 L450 224 Z M794 267 Q790 293 784 310.5 Q778 328 767 347 Q745 384 705.5 406.5 Q666 429 623 429 Q558 429 511.5 385 Q465 341 453 267 L794 267 Z M250 235 Q180 235 138.5 207 Q97 179 97 132 Q97 105 107.5 86.5 Q118 68 141 54 Q160 43 188 36 Q216 29 243 29 Q313 29 355 58 Q397 87 397 136 Q397 180 357 207.5 Q317 235 250 235 Z " />
<glyph glyph-name="b" unicode="b" horiz-adv-x="582" d="M125 381 Q160 427 204 449 Q248 471 306 471 Q371 471 422.5 440.5 Q474 410 502.5 356 Q531 302 531 233 Q531 162 502 106.5 Q473 51 421.5 19.5 Q370 -12 305 -12 Q248 -12 202 12 Q156 36 125 82 L125 0 L80 0 L80 824 L125 824 L125 381 Z M305 429 Q222 429 165 366 Q122 320 122 235 Q122 176 145.5 129 Q169 82 210 55.5 Q251 29 303 29 Q354 29 395.5 55.5 Q437 82 461 127.5 Q485 173 485 229 Q485 286 461.5 331.5 Q438 377 397 403 Q356 429 305 429 Z " />
<glyph glyph-name="c" unicode="c" horiz-adv-x="498" d="M450 353 Q409 394 371.5 411.5 Q334 429 288 429 Q235 429 191.5 402.5 Q148 376 122.5 330 Q97 284 97 228 Q97 174 122.5 128 Q148 82 192 55.5 Q236 29 288 29 Q383 29 455 113 L455 52 Q415 19 374.5 3.5 Q334 -12 288 -12 Q222 -12 168 19.5 Q114 51 82.5 105.5 Q51 160 51 226 Q51 295 82.5 351 Q114 407 168 439 Q222 471 289 471 Q335 471 372.5 457 Q410 443 450 412 L450 353 Z " />
<glyph glyph-name="cacute" unicode="&#x107;" horiz-adv-x="498" d="M244 546 L348 687 L395 657 L278 528 L244 546 Z M450 353 Q409 394 371.5 411.5 Q334 429 288 429 Q235 429 191.5 402.5 Q148 376 122.5 330 Q97 284 97 228 Q97 174 122.5 128 Q148 82 192 55.5 Q236 29 288 29 Q383 29 455 113 L455 52 Q415 19 374.5 3.5 Q334 -12 288 -12 Q222 -12 168 19.5 Q114 51 82.5 105.5 Q51 160 51 226 Q51 295 82.5 351 Q114 407 168 439 Q222 471 289 471 Q335 471 372.5 457 Q410 443 450 412 L450 353 Z " />
<glyph glyph-name="ccaron" unicode="&#x10d;" horiz-adv-x="498" d="M289 586 L390 685 L427 657 L289 528 L151 657 L189 685 L289 586 Z M450 353 Q409 394 371.5 411.5 Q334 429 288 429 Q235 429 191.5 402.5 Q148 376 122.5 330 Q97 284 97 228 Q97 174 122.5 128 Q148 82 192 55.5 Q236 29 288 29 Q383 29 455 113 L455 52 Q415 19 374.5 3.5 Q334 -12 288 -12 Q222 -12 168 19.5 Q114 51 82.5 105.5 Q51 160 51 226 Q51 295 82.5 351 Q114 407 168 439 Q222 471 289 471 Q335 471 372.5 457 Q410 443 450 412 L450 353 Z " />
<glyph glyph-name="ccedilla" unicode="&#xe7;" horiz-adv-x="498" d="M450 353 Q409 394 371.5 411.5 Q334 429 288 429 Q235 429 191.5 402.5 Q148 376 122.5 330 Q97 284 97 228 Q97 174 122.5 128 Q148 82 192 55.5 Q236 29 288 29 Q383 29 455 113 L455 52 Q415 19 374.5 3.5 Q334 -12 288 -12 Q222 -12 168 19.5 Q114 51 82.5 105.5 Q51 160 51 226 Q51 295 82.5 351 Q114 407 168 439 Q222 471 289 471 Q335 471 372.5 457 Q410 443 450 412 L450 353 Z M166 -198 L260 -53 L310 -77 L201 -216 L166 -198 Z " />
<glyph glyph-name="ccircumflex" unicode="&#x109;" horiz-adv-x="498" d="M419 556 L382 528 L281 626 L181 528 L144 556 L281 685 L419 556 Z M450 353 Q409 394 371.5 411.5 Q334 429 288 429 Q235 429 191.5 402.5 Q148 376 122.5 330 Q97 284 97 228 Q97 174 122.5 128 Q148 82 192 55.5 Q236 29 288 29 Q383 29 455 113 L455 52 Q415 19 374.5 3.5 Q334 -12 288 -12 Q222 -12 168 19.5 Q114 51 82.5 105.5 Q51 160 51 226 Q51 295 82.5 351 Q114 407 168 439 Q222 471 289 471 Q335 471 372.5 457 Q410 443 450 412 L450 353 Z " />
<glyph glyph-name="cdotaccent" unicode="&#x10b;" horiz-adv-x="498" d="M286 643 Q305 643 317.5 630.5 Q330 618 330 600 Q330 582 317.5 569.5 Q305 557 287 557 Q268 557 255.5 569.5 Q243 582 243 600 Q243 618 255.5 630.5 Q268 643 286 643 Z M450 353 Q409 394 371.5 411.5 Q334 429 288 429 Q235 429 191.5 402.5 Q148 376 122.5 330 Q97 284 97 228 Q97 174 122.5 128 Q148 82 192 55.5 Q236 29 288 29 Q383 29 455 113 L455 52 Q415 19 374.5 3.5 Q334 -12 288 -12 Q222 -12 168 19.5 Q114 51 82.5 105.5 Q51 160 51 226 Q51 295 82.5 351 Q114 407 168 439 Q222 471 289 471 Q335 471 372.5 457 Q410 443 450 412 L450 353 Z " />
<glyph glyph-name="d" unicode="d" horiz-adv-x="582" d="M502 0 L457 0 L457 82 Q426 36 380 12 Q334 -12 277 -12 Q212 -12 160.5 19.5 Q109 51 80 106.5 Q51 162 51 233 Q51 302 79.5 356 Q108 410 159.5 440.5 Q211 471 276 471 Q334 471 377.5 449.5 Q421 428 457 381 L457 824 L502 824 L502 0 Z M278 429 Q228 429 186.5 403.5 Q145 378 121 333.5 Q97 289 97 235 Q97 176 120.5 129 Q144 82 185.5 55.5 Q227 29 278 29 Q330 29 371.5 55 Q413 81 436.5 128 Q460 175 460 235 Q460 284 446 319.5 Q432 355 402 381 Q376 404 343 416.5 Q310 429 278 429 Z " />
<glyph glyph-name="eth" unicode="&#xf0;" horiz-adv-x="584" d="M105 827 Q152 815 199.5 794.5 Q247 774 280 751 L401 814 L423 779 L320 723 Q420 640 477 512.5 Q534 385 534 245 Q534 170 504 111.5 Q474 53 419.5 20.5 Q365 -12 295 -12 Q227 -12 171 20 Q115 52 83 106.5 Q51 161 51 228 Q51 294 83 349.5 Q115 405 170.5 437.5 Q226 470 292 470 Q386 470 464 398 Q436 500 393 569 Q350 638 276 701 L156 634 L136 670 L236 727 Q185 762 85 796 L105 827 Z M290 428 Q237 428 193 401.5 Q149 375 123 330 Q97 285 97 232 Q97 176 122.5 129.5 Q148 83 192 56 Q236 29 289 29 Q344 29 389.5 55.5 Q435 82 461 127.5 Q487 173 487 229 Q487 284 461 329.5 Q435 375 390 401.5 Q345 428 290 428 Z " />
<glyph glyph-name="dcaron" unicode="&#x10f;" horiz-adv-x="660" d="M593 651 L558 663 L608 828 L660 814 L593 651 Z M502 0 L457 0 L457 82 Q426 36 380 12 Q334 -12 277 -12 Q212 -12 160.5 19.5 Q109 51 80 106.5 Q51 162 51 233 Q51 302 79.5 356 Q108 410 159.5 440.5 Q211 471 276 471 Q334 471 377.5 449.5 Q421 428 457 381 L457 824 L502 824 L502 0 Z M278 429 Q228 429 186.5 403.5 Q145 378 121 333.5 Q97 289 97 235 Q97 176 120.5 129 Q144 82 185.5 55.5 Q227 29 278 29 Q330 29 371.5 55 Q413 81 436.5 128 Q460 175 460 235 Q460 284 446 319.5 Q432 355 402 381 Q376 404 343 416.5 Q310 429 278 429 Z " />
<glyph glyph-name="dslash" unicode="&#x111;" horiz-adv-x="582" d="M502 662 L502 0 L457 0 L457 82 Q393 -12 276 -12 Q212 -12 160.5 19.5 Q109 51 80 107 Q51 163 51 233 Q51 302 79.5 356 Q108 410 159 440.5 Q210 471 275 471 Q332 471 376.5 449 Q421 427 457 381 L457 662 L319 662 L319 704 L457 704 L457 824 L502 824 L502 704 L576 704 L576 662 L502 662 Z M278 429 Q227 429 185.5 403.5 Q144 378 120.5 333.5 Q97 289 97 235 Q97 176 120.5 129 Q144 82 185 55.5 Q226 29 278 29 Q330 29 371.5 55 Q413 81 436.5 128 Q460 175 460 235 Q460 284 446 319.5 Q432 355 402 381 Q376 404 343 416.5 Q310 429 278 429 Z " />
<glyph glyph-name="e" unicode="e" horiz-adv-x="547" d="M101 225 Q102 189 107 166 Q112 143 125 121 Q148 80 190.5 54.5 Q233 29 280 29 Q311 29 342.5 41 Q374 53 397 73 Q420 96 443 136 L481 113 Q413 -12 277 -12 Q212 -12 160.5 19 Q109 50 80 104.5 Q51 159 51 228 Q51 297 80.5 352.5 Q110 408 161 439.5 Q212 471 276 471 Q340 471 389.5 440.5 Q439 410 467 354 Q495 298 496 225 L101 225 Z M444 268 Q431 341 384.5 385 Q338 429 275 429 Q211 429 163 384 Q115 339 104 268 L444 268 Z " />
<glyph glyph-name="eacute" unicode="&#xe9;" horiz-adv-x="547" d="M233 546 L337 687 L384 657 L267 528 L233 546 Z M101 225 Q102 189 107 166 Q112 143 125 121 Q148 80 190.5 54.5 Q233 29 280 29 Q311 29 342.5 41 Q374 53 397 73 Q420 96 443 136 L481 113 Q413 -12 277 -12 Q212 -12 160.5 19 Q109 50 80 104.5 Q51 159 51 228 Q51 297 80.5 352.5 Q110 408 161 439.5 Q212 471 276 471 Q340 471 389.5 440.5 Q439 410 467 354 Q495 298 496 225 L101 225 Z M444 268 Q431 341 384.5 385 Q338 429 275 429 Q211 429 163 384 Q115 339 104 268 L444 268 Z " />
<glyph glyph-name="ebreve" unicode="&#x115;" horiz-adv-x="547" d="M189 670 Q208 575 279 575 Q315 575 337 598 Q359 621 370 670 L412 670 Q405 606 369 568.5 Q333 531 279 531 Q225 531 189 568.5 Q153 606 145 670 L189 670 Z M101 225 Q102 189 107 166 Q112 143 125 121 Q148 80 190.5 54.5 Q233 29 280 29 Q311 29 342.5 41 Q374 53 397 73 Q420 96 443 136 L481 113 Q413 -12 277 -12 Q212 -12 160.5 19 Q109 50 80 104.5 Q51 159 51 228 Q51 297 80.5 352.5 Q110 408 161 439.5 Q212 471 276 471 Q340 471 389.5 440.5 Q439 410 467 354 Q495 298 496 225 L101 225 Z M444 268 Q431 341 384.5 385 Q338 429 275 429 Q211 429 163 384 Q115 339 104 268 L444 268 Z " />
<glyph glyph-name="ecaron" unicode="&#x11b;" horiz-adv-x="547" d="M279 586 L380 685 L416 657 L279 528 L141 657 L179 685 L279 586 Z M101 225 Q102 189 107 166 Q112 143 125 121 Q148 80 190.5 54.5 Q233 29 280 29 Q311 29 342.5 41 Q374 53 397 73 Q420 96 443 136 L481 113 Q413 -12 277 -12 Q212 -12 160.5 19 Q109 50 80 104.5 Q51 159 51 228 Q51 297 80.5 352.5 Q110 408 161 439.5 Q212 471 276 471 Q340 471 389.5 440.5 Q439 410 467 354 Q495 298 496 225 L101 225 Z M444 268 Q431 341 384.5 385 Q338 429 275 429 Q211 429 163 384 Q115 339 104 268 L444 268 Z " />
<glyph glyph-name="ecircumflex" unicode="&#xea;" horiz-adv-x="547" d="M416 556 L380 528 L279 626 L179 528 L141 556 L279 685 L416 556 Z M101 225 Q102 189 107 166 Q112 143 125 121 Q148 80 190.5 54.5 Q233 29 280 29 Q311 29 342.5 41 Q374 53 397 73 Q420 96 443 136 L481 113 Q413 -12 277 -12 Q212 -12 160.5 19 Q109 50 80 104.5 Q51 159 51 228 Q51 297 80.5 352.5 Q110 408 161 439.5 Q212 471 276 471 Q340 471 389.5 440.5 Q439 410 467 354 Q495 298 496 225 L101 225 Z M444 268 Q431 341 384.5 385 Q338 429 275 429 Q211 429 163 384 Q115 339 104 268 L444 268 Z " />
<glyph glyph-name="edieresis" unicode="&#xeb;" horiz-adv-x="547" d="M184 640 Q201 640 213 628 Q225 616 225 599 Q225 581 213 569 Q201 557 184 557 Q166 557 154 569 Q142 581 142 599 Q142 615 154.5 627.5 Q167 640 184 640 Z M372 640 Q388 640 400 628 Q412 616 412 599 Q412 581 400.5 569 Q389 557 372 557 Q354 557 342 569 Q330 581 330 599 Q330 616 342.5 628 Q355 640 372 640 Z M101 225 Q102 189 107 166 Q112 143 125 121 Q148 80 190.5 54.5 Q233 29 280 29 Q311 29 342.5 41 Q374 53 397 73 Q420 96 443 136 L481 113 Q413 -12 277 -12 Q212 -12 160.5 19 Q109 50 80 104.5 Q51 159 51 228 Q51 297 80.5 352.5 Q110 408 161 439.5 Q212 471 276 471 Q340 471 389.5 440.5 Q439 410 467 354 Q495 298 496 225 L101 225 Z M444 268 Q431 341 384.5 385 Q338 429 275 429 Q211 429 163 384 Q115 339 104 268 L444 268 Z " />
<glyph glyph-name="edotaccent" unicode="&#x117;" horiz-adv-x="547" d="M278 643 Q297 643 309.5 630.5 Q322 618 322 600 Q322 582 309.5 569.5 Q297 557 279 557 Q260 557 247.5 569.5 Q235 582 235 600 Q235 618 247.5 630.5 Q260 643 278 643 Z M101 225 Q102 189 107 166 Q112 143 125 121 Q148 80 190.5 54.5 Q233 29 280 29 Q311 29 342.5 41 Q374 53 397 73 Q420 96 443 136 L481 113 Q413 -12 277 -12 Q212 -12 160.5 19 Q109 50 80 104.5 Q51 159 51 228 Q51 297 80.5 352.5 Q110 408 161 439.5 Q212 471 276 471 Q340 471 389.5 440.5 Q439 410 467 354 Q495 298 496 225 L101 225 Z M444 268 Q431 341 384.5 385 Q338 429 275 429 Q211 429 163 384 Q115 339 104 268 L444 268 Z " />
<glyph glyph-name="egrave" unicode="&#xe8;" horiz-adv-x="547" d="M336 546 L303 528 L185 657 L233 687 L336 546 Z M101 225 Q102 189 107 166 Q112 143 125 121 Q148 80 190.5 54.5 Q233 29 280 29 Q311 29 342.5 41 Q374 53 397 73 Q420 96 443 136 L481 113 Q413 -12 277 -12 Q212 -12 160.5 19 Q109 50 80 104.5 Q51 159 51 228 Q51 297 80.5 352.5 Q110 408 161 439.5 Q212 471 276 471 Q340 471 389.5 440.5 Q439 410 467 354 Q495 298 496 225 L101 225 Z M444 268 Q431 341 384.5 385 Q338 429 275 429 Q211 429 163 384 Q115 339 104 268 L444 268 Z " />
<glyph glyph-name="emacron" unicode="&#x113;" horiz-adv-x="547" d="M419 572 L138 572 L138 615 L419 615 L419 572 Z M101 225 Q102 189 107 166 Q112 143 125 121 Q148 80 190.5 54.5 Q233 29 280 29 Q311 29 342.5 41 Q374 53 397 73 Q420 96 443 136 L481 113 Q413 -12 277 -12 Q212 -12 160.5 19 Q109 50 80 104.5 Q51 159 51 228 Q51 297 80.5 352.5 Q110 408 161 439.5 Q212 471 276 471 Q340 471 389.5 440.5 Q439 410 467 354 Q495 298 496 225 L101 225 Z M444 268 Q431 341 384.5 385 Q338 429 275 429 Q211 429 163 384 Q115 339 104 268 L444 268 Z " />
<glyph glyph-name="eogonek" unicode="&#x119;" horiz-adv-x="547" d="M418 -174 Q388 -189 355 -189 Q316 -189 291 -165.5 Q266 -142 266 -105 Q266 -74 281.5 -50.5 Q297 -27 329 -7 Q305 -12 279 -12 Q213 -12 161 19 Q109 50 80 104.5 Q51 159 51 228 Q51 297 80.5 352.5 Q110 408 161 439.5 Q212 471 276 471 Q340 471 389.5 440.5 Q439 410 467 354 Q495 298 496 225 L101 225 Q102 189 107 166 Q112 143 125 121 Q148 80 190.5 54.5 Q233 29 280 29 Q311 29 342.5 41 Q374 53 397 73 Q420 96 443 136 L481 113 Q466 84 449.5 65.5 Q433 47 399 19 Q352 -19 334 -43.5 Q316 -68 316 -96 Q316 -120 330 -134 Q344 -148 366 -148 Q380 -148 394 -144 Q408 -140 428 -129 L418 -174 Z M444 268 Q431 341 384.5 385 Q338 429 275 429 Q211 429 163 384 Q115 339 104 268 L444 268 Z " />
<glyph glyph-name="uni0259" unicode="&#x259;" horiz-adv-x="547" d="M447 234 Q446 269 440 292 Q434 315 421 338 Q399 379 357 404 Q315 429 268 429 Q236 429 205.5 417.5 Q175 406 151 385 Q138 375 128 361.5 Q118 348 104 323 L66 346 Q137 471 270 471 Q335 471 386.5 440 Q438 409 467 354.5 Q496 300 496 231 Q496 162 466.5 106.5 Q437 51 386 19.5 Q335 -12 271 -12 Q207 -12 157.5 18.5 Q108 49 80 105 Q52 161 51 234 L447 234 Z M103 191 Q117 118 163 73.5 Q209 29 272 29 Q337 29 385.5 75 Q434 121 444 191 L103 191 Z " />
<glyph glyph-name="f" unicode="f" horiz-adv-x="241" d="M80 0 L80 419 L29 419 L29 461 L80 461 L80 680 Q80 755 103 789 Q119 812 144.5 824.5 Q170 837 201 837 Q222 837 242 831 L242 789 Q221 794 206 794 Q163 794 144 765.5 Q125 737 125 671 L125 461 L242 461 L242 419 L125 419 L125 0 L80 0 Z " />
<glyph glyph-name="g" unicode="g" horiz-adv-x="589" d="M508 9 Q508 -61 497.5 -103 Q487 -145 459 -181 Q428 -221 380.5 -242.5 Q333 -264 277 -264 Q213 -264 160.5 -237.5 Q108 -211 80 -164 Q67 -143 60.5 -121.5 Q54 -100 51 -67 L97 -67 Q101 -97 106.5 -114 Q112 -131 124 -149 Q148 -184 188.5 -203.5 Q229 -223 278 -223 Q367 -223 415 -163 Q463 -103 463 9 L463 79 Q424 33 379.5 11 Q335 -11 280 -11 Q218 -11 166.5 21 Q115 53 85 108.5 Q55 164 55 231 Q55 298 85.5 353 Q116 408 169 439.5 Q222 471 287 471 Q342 471 382.5 450.5 Q423 430 463 381 L463 461 L508 461 L508 9 Z M283 429 Q233 429 191.5 402.5 Q150 376 126 331 Q102 286 102 232 Q102 174 125 128.5 Q148 83 188.5 57 Q229 31 280 31 Q321 31 359 48.5 Q397 66 424 97 Q467 150 467 233 Q467 281 453.5 315 Q440 349 410 376 Q383 401 349.5 415 Q316 429 283 429 Z " />
<glyph glyph-name="gbreve" unicode="&#x11f;" horiz-adv-x="589" d="M205 670 Q216 621 237.5 598 Q259 575 295 575 Q330 575 352.5 598 Q375 621 385 670 L428 670 Q421 606 385 568.5 Q349 531 295 531 Q241 531 204.5 568.5 Q168 606 160 670 L205 670 Z M508 9 Q508 -61 497.5 -103 Q487 -145 459 -181 Q428 -221 380.5 -242.5 Q333 -264 277 -264 Q213 -264 160.5 -237.5 Q108 -211 80 -164 Q67 -143 60.5 -121.5 Q54 -100 51 -67 L97 -67 Q101 -97 106.5 -114 Q112 -131 124 -149 Q148 -184 188.5 -203.5 Q229 -223 278 -223 Q367 -223 415 -163 Q463 -103 463 9 L463 79 Q424 33 379.5 11 Q335 -11 280 -11 Q218 -11 166.5 21 Q115 53 85 108.5 Q55 164 55 231 Q55 298 85.5 353 Q116 408 169 439.5 Q222 471 287 471 Q342 471 382.5 450.5 Q423 430 463 381 L463 461 L508 461 L508 9 Z M283 429 Q233 429 191.5 402.5 Q150 376 126 331 Q102 286 102 232 Q102 174 125 128.5 Q148 83 188.5 57 Q229 31 280 31 Q321 31 359 48.5 Q397 66 424 97 Q467 150 467 233 Q467 281 453.5 315 Q440 349 410 376 Q383 401 349.5 415 Q316 429 283 429 Z " />
<glyph glyph-name="gcaron" unicode="&#x1e7;" horiz-adv-x="589" d="M295 586 L395 685 L433 657 L295 528 L157 657 L194 685 L295 586 Z M508 9 Q508 -61 497.5 -103 Q487 -145 459 -181 Q428 -221 380.5 -242.5 Q333 -264 277 -264 Q213 -264 160.5 -237.5 Q108 -211 80 -164 Q67 -143 60.5 -121.5 Q54 -100 51 -67 L97 -67 Q101 -97 106.5 -114 Q112 -131 124 -149 Q148 -184 188.5 -203.5 Q229 -223 278 -223 Q367 -223 415 -163 Q463 -103 463 9 L463 79 Q424 33 379.5 11 Q335 -11 280 -11 Q218 -11 166.5 21 Q115 53 85 108.5 Q55 164 55 231 Q55 298 85.5 353 Q116 408 169 439.5 Q222 471 287 471 Q342 471 382.5 450.5 Q423 430 463 381 L463 461 L508 461 L508 9 Z M283 429 Q233 429 191.5 402.5 Q150 376 126 331 Q102 286 102 232 Q102 174 125 128.5 Q148 83 188.5 57 Q229 31 280 31 Q321 31 359 48.5 Q397 66 424 97 Q467 150 467 233 Q467 281 453.5 315 Q440 349 410 376 Q383 401 349.5 415 Q316 429 283 429 Z " />
<glyph glyph-name="gcircumflex" unicode="&#x11d;" horiz-adv-x="589" d="M433 556 L395 528 L295 626 L194 528 L157 556 L295 685 L433 556 Z M508 9 Q508 -61 497.5 -103 Q487 -145 459 -181 Q428 -221 380.5 -242.5 Q333 -264 277 -264 Q213 -264 160.5 -237.5 Q108 -211 80 -164 Q67 -143 60.5 -121.5 Q54 -100 51 -67 L97 -67 Q101 -97 106.5 -114 Q112 -131 124 -149 Q148 -184 188.5 -203.5 Q229 -223 278 -223 Q367 -223 415 -163 Q463 -103 463 9 L463 79 Q424 33 379.5 11 Q335 -11 280 -11 Q218 -11 166.5 21 Q115 53 85 108.5 Q55 164 55 231 Q55 298 85.5 353 Q116 408 169 439.5 Q222 471 287 471 Q342 471 382.5 450.5 Q423 430 463 381 L463 461 L508 461 L508 9 Z M283 429 Q233 429 191.5 402.5 Q150 376 126 331 Q102 286 102 232 Q102 174 125 128.5 Q148 83 188.5 57 Q229 31 280 31 Q321 31 359 48.5 Q397 66 424 97 Q467 150 467 233 Q467 281 453.5 315 Q440 349 410 376 Q383 401 349.5 415 Q316 429 283 429 Z " />
<glyph glyph-name="uni0123" unicode="&#x123;" horiz-adv-x="589" d="M325 696 L360 685 L311 528 L259 542 L325 696 Z M508 9 Q508 -61 497.5 -103 Q487 -145 459 -181 Q428 -221 380.5 -242.5 Q333 -264 277 -264 Q213 -264 160.5 -237.5 Q108 -211 80 -164 Q67 -143 60.5 -121.5 Q54 -100 51 -67 L97 -67 Q101 -97 106.5 -114 Q112 -131 124 -149 Q148 -184 188.5 -203.5 Q229 -223 278 -223 Q367 -223 415 -163 Q463 -103 463 9 L463 79 Q424 33 379.5 11 Q335 -11 280 -11 Q218 -11 166.5 21 Q115 53 85 108.5 Q55 164 55 231 Q55 298 85.5 353 Q116 408 169 439.5 Q222 471 287 471 Q342 471 382.5 450.5 Q423 430 463 381 L463 461 L508 461 L508 9 Z M283 429 Q233 429 191.5 402.5 Q150 376 126 331 Q102 286 102 232 Q102 174 125 128.5 Q148 83 188.5 57 Q229 31 280 31 Q321 31 359 48.5 Q397 66 424 97 Q467 150 467 233 Q467 281 453.5 315 Q440 349 410 376 Q383 401 349.5 415 Q316 429 283 429 Z " />
<glyph glyph-name="gdotaccent" unicode="&#x121;" horiz-adv-x="589" d="M294 643 Q313 643 325.5 630.5 Q338 618 338 600 Q338 582 325.5 569.5 Q313 557 295 557 Q276 557 263.5 569.5 Q251 582 251 600 Q251 618 263.5 630.5 Q276 643 294 643 Z M508 9 Q508 -61 497.5 -103 Q487 -145 459 -181 Q428 -221 380.5 -242.5 Q333 -264 277 -264 Q213 -264 160.5 -237.5 Q108 -211 80 -164 Q67 -143 60.5 -121.5 Q54 -100 51 -67 L97 -67 Q101 -97 106.5 -114 Q112 -131 124 -149 Q148 -184 188.5 -203.5 Q229 -223 278 -223 Q367 -223 415 -163 Q463 -103 463 9 L463 79 Q424 33 379.5 11 Q335 -11 280 -11 Q218 -11 166.5 21 Q115 53 85 108.5 Q55 164 55 231 Q55 298 85.5 353 Q116 408 169 439.5 Q222 471 287 471 Q342 471 382.5 450.5 Q423 430 463 381 L463 461 L508 461 L508 9 Z M283 429 Q233 429 191.5 402.5 Q150 376 126 331 Q102 286 102 232 Q102 174 125 128.5 Q148 83 188.5 57 Q229 31 280 31 Q321 31 359 48.5 Q397 66 424 97 Q467 150 467 233 Q467 281 453.5 315 Q440 349 410 376 Q383 401 349.5 415 Q316 429 283 429 Z " />
<glyph glyph-name="h" unicode="h" horiz-adv-x="498" d="M125 389 Q153 432 186.5 451.5 Q220 471 267 471 Q307 471 342 453.5 Q377 436 394 407 Q406 387 411.5 359.5 Q417 332 417 290 L417 0 L372 0 L372 290 Q372 326 368 347.5 Q364 369 355 384 Q343 405 317.5 417 Q292 429 261 429 Q224 429 195.5 413 Q167 397 150 366 Q136 342 130.5 314.5 Q125 287 125 240 L125 0 L80 0 L80 824 L125 824 L125 389 Z " />
<glyph glyph-name="hbar" unicode="&#x127;" horiz-adv-x="498" d="M127 662 L127 389 Q155 432 188 451.5 Q221 471 267 471 Q308 471 343 453.5 Q378 436 395 407 Q407 387 412.5 359.5 Q418 332 418 290 L418 0 L373 0 L373 290 Q373 326 369 347.5 Q365 369 356 384 Q344 405 318.5 417 Q293 429 261 429 Q186 429 151 366 Q137 343 132 315.5 Q127 288 127 240 L127 0 L81 0 L81 662 L6 662 L6 704 L81 704 L81 824 L127 824 L127 704 L263 704 L263 662 L127 662 Z " />
<glyph glyph-name="hcircumflex" unicode="&#x125;" horiz-adv-x="498" d="M269 862 L228 831 L129 915 L28 831 L-12 862 L129 981 L269 862 Z M125 389 Q153 432 186.5 451.5 Q220 471 267 471 Q307 471 342 453.5 Q377 436 394 407 Q406 387 411.5 359.5 Q417 332 417 290 L417 0 L372 0 L372 290 Q372 326 368 347.5 Q364 369 355 384 Q343 405 317.5 417 Q292 429 261 429 Q224 429 195.5 413 Q167 397 150 366 Q136 342 130.5 314.5 Q125 287 125 240 L125 0 L80 0 L80 824 L125 824 L125 389 Z " />
<glyph glyph-name="i" unicode="i" horiz-adv-x="207" d="M103 655 Q120 655 132 643 Q144 631 144 615 Q144 597 132 585 Q120 573 103 573 Q86 573 74 585 Q62 597 62 615 Q62 632 74 643.5 Q86 655 103 655 Z M80 0 L80 461 L125 461 L125 0 L80 0 Z " />
<glyph glyph-name="dotlessi" unicode="&#x131;" horiz-adv-x="207" d="M80 0 L80 461 L125 461 L125 0 L80 0 Z " />
<glyph glyph-name="iacute" unicode="&#xed;" horiz-adv-x="207" d="M73 546 L176 687 L225 657 L106 528 L73 546 Z M81 0 L81 461 L127 461 L127 0 L81 0 Z " />
<glyph glyph-name="ibreve" unicode="&#x12d;" horiz-adv-x="207" d="M35 670 Q51 575 103 575 Q130 575 146.5 598 Q163 621 172 670 L215 670 Q209 606 179 568.5 Q149 531 103 531 Q58 531 28 568.5 Q-2 606 -8 670 L35 670 Z M80 0 L80 461 L125 461 L125 0 L80 0 Z " />
<glyph glyph-name="icircumflex" unicode="&#xee;" horiz-adv-x="207" d="M219 556 L183 528 L103 621 L23 528 L-14 556 L103 685 L219 556 Z M80 0 L80 461 L125 461 L125 0 L80 0 Z " />
<glyph glyph-name="idieresis" unicode="&#xef;" horiz-adv-x="207" d="M38 640 Q55 640 67 628 Q79 616 79 599 Q79 581 67 569 Q55 557 38 557 Q21 557 9 569 Q-3 581 -3 599 Q-3 616 9.5 628 Q22 640 38 640 Z M168 640 Q185 640 197 628 Q209 616 209 599 Q209 581 197 569 Q185 557 168 557 Q151 557 139 569 Q127 581 127 599 Q127 616 139.5 628 Q152 640 168 640 Z M80 0 L80 461 L125 461 L125 0 L80 0 Z " />
<glyph glyph-name="igrave" unicode="&#xec;" horiz-adv-x="207" d="M134 546 L101 528 L-17 657 L31 687 L134 546 Z M81 0 L81 461 L127 461 L127 0 L81 0 Z " />
<glyph glyph-name="ij" unicode="&#x133;" horiz-adv-x="414" d="M103 655 Q120 655 132 643 Q144 631 144 615 Q144 597 132 585 Q120 573 103 573 Q86 573 74 585 Q62 597 62 615 Q62 632 74 643.5 Q86 655 103 655 Z M80 0 L80 461 L125 461 L125 0 L80 0 Z M310 573 Q293 573 281 585 Q269 597 269 615 Q269 632 281 643.5 Q293 655 310 655 Q327 655 339 643 Q351 631 351 615 Q351 597 339 585 Q327 573 310 573 Z M214 -276 Q191 -276 171 -269 L171 -227 Q191 -233 207 -233 Q250 -233 268.5 -204.5 Q287 -176 287 -110 L287 461 L332 461 L332 -119 Q332 -160 325.5 -188 Q319 -216 304 -237 Q292 -255 268 -265.5 Q244 -276 214 -276 Z " />
<glyph glyph-name="imacron" unicode="&#x12b;" horiz-adv-x="207" d="M202 572 L3 572 L3 615 L202 615 L202 572 Z M80 0 L80 461 L125 461 L125 0 L80 0 Z " />
<glyph glyph-name="iogonek" unicode="&#x12f;" horiz-adv-x="207" d="M103 655 Q120 655 132 643 Q144 631 144 615 Q144 597 132 585 Q120 573 103 573 Q86 573 74 585 Q62 597 62 615 Q62 632 74 643.5 Q86 655 103 655 Z M125 0 Q97 -31 87 -52 Q77 -73 77 -101 Q77 -127 89 -141.5 Q101 -156 122 -156 Q144 -156 172 -140 L160 -185 Q136 -197 112 -197 Q72 -197 49.5 -173 Q27 -149 27 -106 Q27 -75 40 -49 Q53 -23 80 0 L80 461 L125 461 L125 0 Z " />
<glyph glyph-name="itilde" unicode="&#x129;" horiz-adv-x="207" d="M-38 575 Q-10 641 40 641 Q57 641 72 636 Q87 631 138 608 Q154 599 169 599 Q184 599 195 609 Q206 619 217 642 L245 620 Q235 588 214.5 571.5 Q194 555 166 555 Q154 555 141.5 558.5 Q129 562 105 573 Q73 587 58 592.5 Q43 598 34 598 Q20 598 9.5 587.5 Q-1 577 -9 554 L-38 575 Z M81 0 L81 461 L127 461 L127 0 L81 0 Z " />
<glyph glyph-name="j" unicode="j" horiz-adv-x="207" d="M103 573 Q86 573 74 585 Q62 597 62 615 Q62 632 74 643.5 Q86 655 103 655 Q120 655 132 643 Q144 631 144 615 Q144 597 132 585 Q120 573 103 573 Z M7 -276 Q-16 -276 -36 -269 L-36 -227 Q-16 -233 0 -233 Q43 -233 61.5 -204.5 Q80 -176 80 -110 L80 461 L125 461 L125 -119 Q125 -160 118.5 -188 Q112 -216 97 -237 Q85 -255 61 -265.5 Q37 -276 7 -276 Z " />
<glyph glyph-name="uni0237" unicode="&#x237;" horiz-adv-x="207" d="M7 -276 Q-16 -276 -36 -269 L-36 -227 Q-16 -233 0 -233 Q43 -233 61.5 -204.5 Q80 -176 80 -110 L80 461 L125 461 L125 -119 Q125 -160 118.5 -188 Q112 -216 97 -237 Q85 -255 61 -265.5 Q37 -276 7 -276 Z " />
<glyph glyph-name="jcircumflex" unicode="&#x135;" horiz-adv-x="207" d="M240 556 L203 528 L103 626 L2 528 L-35 556 L103 685 L240 556 Z M7 -276 Q-16 -276 -36 -269 L-36 -227 Q-16 -233 0 -233 Q43 -233 61.5 -204.5 Q80 -176 80 -110 L80 461 L125 461 L125 -119 Q125 -160 118.5 -188 Q112 -216 97 -237 Q85 -255 61 -265.5 Q37 -276 7 -276 Z " />
<glyph glyph-name="k" unicode="k" horiz-adv-x="447" d="M314 461 L373 461 L180 261 L438 0 L376 0 L149 228 L125 205 L125 0 L80 0 L80 824 L125 824 L125 266 L314 461 Z " />
<glyph glyph-name="uni0137" unicode="&#x137;" horiz-adv-x="447" d="M314 461 L373 461 L180 261 L438 0 L376 0 L149 228 L125 205 L125 0 L80 0 L80 824 L125 824 L125 266 L314 461 Z M210 -221 L174 -210 L225 -53 L277 -68 L210 -221 Z " />
<glyph glyph-name="kgreenlandic" unicode="&#x138;" horiz-adv-x="447" d="M314 461 L373 461 L180 261 L438 0 L376 0 L149 228 L125 205 L125 0 L80 0 L80 461 L125 461 L125 266 L314 461 Z " />
<glyph glyph-name="l" unicode="l" horiz-adv-x="207" d="M80 0 L80 824 L125 824 L125 0 L80 0 Z " />
<glyph glyph-name="lacute" unicode="&#x13a;" horiz-adv-x="207" d="M68 888 L190 1014 L233 977 L98 862 L68 888 Z M80 0 L80 824 L125 824 L125 0 L80 0 Z " />
<glyph glyph-name="lcaron" unicode="&#x13e;" horiz-adv-x="285" d="M218 651 L182 663 L233 828 L284 814 L218 651 Z M80 0 L80 824 L125 824 L125 0 L80 0 Z " />
<glyph glyph-name="uni013C" unicode="&#x13c;" horiz-adv-x="207" d="M80 0 L80 824 L125 824 L125 0 L80 0 Z M66 -221 L29 -210 L80 -53 L131 -68 L66 -221 Z " />
<glyph glyph-name="ldot" unicode="&#x140;" horiz-adv-x="313" d="M80 0 L80 824 L125 824 L125 0 L80 0 Z M260 438 Q282 438 297.5 422.5 Q313 407 313 385 Q313 363 297.5 347 Q282 331 260 331 Q237 331 221.5 346.5 Q206 362 206 385 Q206 407 222 422.5 Q238 438 260 438 Z " />
<glyph glyph-name="lslash" unicode="&#x142;" horiz-adv-x="221" d="M208 443 L133 385 L133 0 L88 0 L88 362 L14 304 L14 357 L88 415 L88 824 L133 824 L133 437 L208 495 L208 443 Z " />
<glyph glyph-name="m" unicode="m" horiz-adv-x="732" d="M125 403 Q147 439 175.5 455 Q204 471 244 471 Q333 471 373 388 Q396 431 428.5 451 Q461 471 508 471 Q543 471 573.5 457.5 Q604 444 623 420 Q639 400 645 374 Q651 348 651 302 L651 0 L606 0 L606 307 Q606 343 601.5 361 Q597 379 585 395 Q572 411 551.5 420 Q531 429 506 429 Q450 429 420 390 Q390 351 390 278 L390 0 L345 0 L345 296 Q345 326 341 345 Q337 364 328 380 Q315 403 292.5 416 Q270 429 243 429 Q212 429 185 413 Q158 397 145 370 Q125 330 125 267 L125 0 L80 0 L80 461 L125 461 L125 403 Z " />
<glyph glyph-name="n" unicode="n" horiz-adv-x="497" d="M125 389 Q153 432 186.5 451.5 Q220 471 266 471 Q307 471 341.5 453.5 Q376 436 393 407 Q405 387 410.5 359.5 Q416 332 416 290 L416 0 L371 0 L371 290 Q371 326 367 347.5 Q363 369 354 384 Q342 405 317 417 Q292 429 260 429 Q185 429 150 366 Q136 342 130.5 314.5 Q125 287 125 240 L125 0 L80 0 L80 461 L125 461 L125 389 Z " />
<glyph glyph-name="nacute" unicode="&#x144;" horiz-adv-x="497" d="M203 546 L306 687 L354 657 L236 528 L203 546 Z M125 389 Q153 432 186.5 451.5 Q220 471 266 471 Q307 471 341.5 453.5 Q376 436 393 407 Q405 387 410.5 359.5 Q416 332 416 290 L416 0 L371 0 L371 290 Q371 326 367 347.5 Q363 369 354 384 Q342 405 317 417 Q292 429 260 429 Q185 429 150 366 Q136 342 130.5 314.5 Q125 287 125 240 L125 0 L80 0 L80 461 L125 461 L125 389 Z " />
<glyph glyph-name="napostrophe" unicode="&#x149;" horiz-adv-x="565" d="M71 451 L42 462 L110 690 L155 677 L71 451 Z M194 389 Q222 432 255 451.5 Q288 471 334 471 Q375 471 409.5 453.5 Q444 436 462 407 Q474 387 479.5 359.5 Q485 332 485 290 L485 0 L440 0 L440 290 Q440 326 436 347.5 Q432 369 423 384 Q411 405 386 417 Q361 429 329 429 Q254 429 219 366 Q205 342 199.5 314.5 Q194 287 194 240 L194 0 L149 0 L149 461 L194 461 L194 389 Z " />
<glyph glyph-name="ncaron" unicode="&#x148;" horiz-adv-x="497" d="M244 586 L345 685 L382 657 L244 528 L107 657 L144 685 L244 586 Z M125 389 Q153 432 186.5 451.5 Q220 471 266 471 Q307 471 341.5 453.5 Q376 436 393 407 Q405 387 410.5 359.5 Q416 332 416 290 L416 0 L371 0 L371 290 Q371 326 367 347.5 Q363 369 354 384 Q342 405 317 417 Q292 429 260 429 Q185 429 150 366 Q136 342 130.5 314.5 Q125 287 125 240 L125 0 L80 0 L80 461 L125 461 L125 389 Z " />
<glyph glyph-name="uni0146" unicode="&#x146;" horiz-adv-x="497" d="M125 389 Q153 432 186.5 451.5 Q220 471 266 471 Q307 471 341.5 453.5 Q376 436 393 407 Q405 387 410.5 359.5 Q416 332 416 290 L416 0 L371 0 L371 290 Q371 326 367 347.5 Q363 369 354 384 Q342 405 317 417 Q292 429 260 429 Q185 429 150 366 Q136 342 130.5 314.5 Q125 287 125 240 L125 0 L80 0 L80 461 L125 461 L125 389 Z M215 -221 L179 -210 L228 -53 L280 -68 L215 -221 Z " />
<glyph glyph-name="eng" unicode="&#x14b;" horiz-adv-x="497" d="M125 389 Q154 433 187.5 452 Q221 471 267 471 Q307 471 341.5 453.5 Q376 436 393 407 Q405 387 410.5 359.5 Q416 332 416 290 L416 0 Q416 -75 393 -110 Q359 -157 295 -157 Q275 -157 255 -150 L255 -108 Q277 -114 290 -114 Q333 -114 352 -85.5 Q371 -57 371 9 L371 290 Q371 326 367 347.5 Q363 369 354 384 Q342 405 317 417 Q292 429 260 429 Q224 429 195.5 413 Q167 397 150 366 Q136 342 130.5 314.5 Q125 287 125 240 L125 0 L80 0 L80 461 L125 461 L125 389 Z " />
<glyph glyph-name="ntilde" unicode="&#xf1;" horiz-adv-x="497" d="M106 575 Q135 641 184 641 Q202 641 217 636 Q232 631 283 608 Q300 599 314 599 Q328 599 339.5 609 Q351 619 362 642 L390 620 Q380 588 359.5 571.5 Q339 555 311 555 Q299 555 286 559 Q273 563 250 573 Q218 588 203.5 593 Q189 598 179 598 Q164 598 154 587.5 Q144 577 136 554 L106 575 Z M125 389 Q153 432 186.5 451.5 Q220 471 266 471 Q307 471 341.5 453.5 Q376 436 393 407 Q405 387 410.5 359.5 Q416 332 416 290 L416 0 L371 0 L371 290 Q371 326 367 347.5 Q363 369 354 384 Q342 405 317 417 Q292 429 260 429 Q185 429 150 366 Q136 342 130.5 314.5 Q125 287 125 240 L125 0 L80 0 L80 461 L125 461 L125 389 Z " />
<glyph glyph-name="o" unicode="o" horiz-adv-x="584" d="M293 471 Q359 471 414 439 Q469 407 501 351.5 Q533 296 533 229 Q533 162 501 107 Q469 52 413 20 Q357 -12 290 -12 Q224 -12 169 20.5 Q114 53 82.5 109.5 Q51 166 51 234 Q51 298 83.5 352.5 Q116 407 172 439 Q228 471 293 471 Z M290 429 Q238 429 193.5 402.5 Q149 376 123 331 Q97 286 97 233 Q97 177 122.5 130 Q148 83 192 56 Q236 29 289 29 Q344 29 389.5 55.5 Q435 82 461 127.5 Q487 173 487 229 Q487 285 461 330.5 Q435 376 390 402.5 Q345 429 290 429 Z " />
<glyph glyph-name="oacute" unicode="&#xf3;" horiz-adv-x="584" d="M252 546 L355 687 L402 657 L285 528 L252 546 Z M293 471 Q359 471 414 439 Q469 407 501 351.5 Q533 296 533 229 Q533 162 501 107 Q469 52 413 20 Q357 -12 290 -12 Q224 -12 169 20.5 Q114 53 82.5 109.5 Q51 166 51 234 Q51 298 83.5 352.5 Q116 407 172 439 Q228 471 293 471 Z M290 429 Q238 429 193.5 402.5 Q149 376 123 331 Q97 286 97 233 Q97 177 122.5 130 Q148 83 192 56 Q236 29 289 29 Q344 29 389.5 55.5 Q435 82 461 127.5 Q487 173 487 229 Q487 285 461 330.5 Q435 376 390 402.5 Q345 429 290 429 Z " />
<glyph glyph-name="obreve" unicode="&#x14f;" horiz-adv-x="584" d="M202 670 Q212 621 234.5 598 Q257 575 293 575 Q328 575 350 598 Q372 621 383 670 L426 670 Q419 606 383 568.5 Q347 531 293 531 Q238 531 202 568.5 Q166 606 158 670 L202 670 Z M293 471 Q359 471 414 439 Q469 407 501 351.5 Q533 296 533 229 Q533 162 501 107 Q469 52 413 20 Q357 -12 290 -12 Q224 -12 169 20.5 Q114 53 82.5 109.5 Q51 166 51 234 Q51 298 83.5 352.5 Q116 407 172 439 Q228 471 293 471 Z M290 429 Q238 429 193.5 402.5 Q149 376 123 331 Q97 286 97 233 Q97 177 122.5 130 Q148 83 192 56 Q236 29 289 29 Q344 29 389.5 55.5 Q435 82 461 127.5 Q487 173 487 229 Q487 285 461 330.5 Q435 376 390 402.5 Q345 429 290 429 Z " />
<glyph glyph-name="ocircumflex" unicode="&#xf4;" horiz-adv-x="584" d="M429 556 L393 528 L293 626 L192 528 L155 556 L293 685 L429 556 Z M293 471 Q359 471 414 439 Q469 407 501 351.5 Q533 296 533 229 Q533 162 501 107 Q469 52 413 20 Q357 -12 290 -12 Q224 -12 169 20.5 Q114 53 82.5 109.5 Q51 166 51 234 Q51 298 83.5 352.5 Q116 407 172 439 Q228 471 293 471 Z M290 429 Q238 429 193.5 402.5 Q149 376 123 331 Q97 286 97 233 Q97 177 122.5 130 Q148 83 192 56 Q236 29 289 29 Q344 29 389.5 55.5 Q435 82 461 127.5 Q487 173 487 229 Q487 285 461 330.5 Q435 376 390 402.5 Q345 429 290 429 Z " />
<glyph glyph-name="odieresis" unicode="&#xf6;" horiz-adv-x="584" d="M199 640 Q216 640 228 628 Q240 616 240 599 Q240 581 228 569 Q216 557 199 557 Q181 557 169 569 Q157 581 157 599 Q157 616 169.5 628 Q182 640 199 640 Z M386 640 Q403 640 415 628 Q427 616 427 599 Q427 581 415 569 Q403 557 386 557 Q369 557 357 569 Q345 581 345 599 Q345 616 357.5 628 Q370 640 386 640 Z M293 471 Q359 471 414 439 Q469 407 501 351.5 Q533 296 533 229 Q533 162 501 107 Q469 52 413 20 Q357 -12 290 -12 Q224 -12 169 20.5 Q114 53 82.5 109.5 Q51 166 51 234 Q51 298 83.5 352.5 Q116 407 172 439 Q228 471 293 471 Z M290 429 Q238 429 193.5 402.5 Q149 376 123 331 Q97 286 97 233 Q97 177 122.5 130 Q148 83 192 56 Q236 29 289 29 Q344 29 389.5 55.5 Q435 82 461 127.5 Q487 173 487 229 Q487 285 461 330.5 Q435 376 390 402.5 Q345 429 290 429 Z " />
<glyph glyph-name="ograve" unicode="&#xf2;" horiz-adv-x="584" d="M348 546 L314 528 L197 657 L245 687 L348 546 Z M293 471 Q359 471 414 439 Q469 407 501 351.5 Q533 296 533 229 Q533 162 501 107 Q469 52 413 20 Q357 -12 290 -12 Q224 -12 169 20.5 Q114 53 82.5 109.5 Q51 166 51 234 Q51 298 83.5 352.5 Q116 407 172 439 Q228 471 293 471 Z M290 429 Q238 429 193.5 402.5 Q149 376 123 331 Q97 286 97 233 Q97 177 122.5 130 Q148 83 192 56 Q236 29 289 29 Q344 29 389.5 55.5 Q435 82 461 127.5 Q487 173 487 229 Q487 285 461 330.5 Q435 376 390 402.5 Q345 429 290 429 Z " />
<glyph glyph-name="ohorn" unicode="&#x1a1;" horiz-adv-x="584" d="M576 470 L516 323 Q533 281 533 231 Q533 164 501 108 Q469 52 414.5 20 Q360 -12 293 -12 Q227 -12 171.5 20 Q116 52 83.5 107.5 Q51 163 51 229 Q51 295 83.5 350.5 Q116 406 171.5 438.5 Q227 471 293 471 Q352 471 403.5 444.5 Q455 418 489 371 L524 485 L576 470 Z M290 429 Q238 429 193.5 402.5 Q149 376 123 331 Q97 286 97 233 Q97 177 122.5 130 Q148 83 192 56 Q236 29 289 29 Q344 29 389.5 55.5 Q435 82 461 127.5 Q487 173 487 229 Q487 285 461 330.5 Q435 376 390 402.5 Q345 429 290 429 Z " />
<glyph glyph-name="ohungarumlaut" unicode="&#x151;" horiz-adv-x="584" d="M195 546 L298 687 L341 657 L226 528 L195 546 Z M328 546 L431 687 L473 657 L358 528 L328 546 Z M293 471 Q359 471 414 439 Q469 407 501 351.5 Q533 296 533 229 Q533 162 501 107 Q469 52 413 20 Q357 -12 290 -12 Q224 -12 169 20.5 Q114 53 82.5 109.5 Q51 166 51 234 Q51 298 83.5 352.5 Q116 407 172 439 Q228 471 293 471 Z M290 429 Q238 429 193.5 402.5 Q149 376 123 331 Q97 286 97 233 Q97 177 122.5 130 Q148 83 192 56 Q236 29 289 29 Q344 29 389.5 55.5 Q435 82 461 127.5 Q487 173 487 229 Q487 285 461 330.5 Q435 376 390 402.5 Q345 429 290 429 Z " />
<glyph glyph-name="omacron" unicode="&#x14d;" horiz-adv-x="584" d="M433 572 L151 572 L151 615 L433 615 L433 572 Z M293 471 Q359 471 414 439 Q469 407 501 351.5 Q533 296 533 229 Q533 162 501 107 Q469 52 413 20 Q357 -12 290 -12 Q224 -12 169 20.5 Q114 53 82.5 109.5 Q51 166 51 234 Q51 298 83.5 352.5 Q116 407 172 439 Q228 471 293 471 Z M290 429 Q238 429 193.5 402.5 Q149 376 123 331 Q97 286 97 233 Q97 177 122.5 130 Q148 83 192 56 Q236 29 289 29 Q344 29 389.5 55.5 Q435 82 461 127.5 Q487 173 487 229 Q487 285 461 330.5 Q435 376 390 402.5 Q345 429 290 429 Z " />
<glyph glyph-name="oslash" unicode="&#xf8;" horiz-adv-x="584" d="M105 76 Q51 142 51 231 Q51 296 83 351.5 Q115 407 170.5 439 Q226 471 292 471 Q378 471 445 417 L506 478 L534 451 L473 390 Q533 323 533 228 Q533 162 501 107 Q469 52 414 20 Q359 -12 294 -12 Q248 -12 208.5 3 Q169 18 132 49 L71 -14 L46 15 L105 76 Z M412 386 Q358 429 290 429 Q237 429 193 402.5 Q149 376 123 330.5 Q97 285 97 231 Q97 197 108 164 Q119 131 138 106 L412 386 Z M164 78 Q193 53 224 41 Q255 29 292 29 Q346 29 390.5 55.5 Q435 82 461 127.5 Q487 173 487 229 Q487 268 476 299 Q465 330 441 360 L164 78 Z " />
<glyph glyph-name="oslashacute" unicode="&#x1ff;" horiz-adv-x="584" d="M238 546 L342 687 L390 657 L272 528 L238 546 Z M105 76 Q51 142 51 231 Q51 296 83 351.5 Q115 407 170.5 439 Q226 471 292 471 Q378 471 445 417 L506 478 L534 451 L473 390 Q533 323 533 228 Q533 162 501 107 Q469 52 414 20 Q359 -12 294 -12 Q248 -12 208.5 3 Q169 18 132 49 L71 -14 L46 15 L105 76 Z M412 386 Q358 429 290 429 Q237 429 193 402.5 Q149 376 123 330.5 Q97 285 97 231 Q97 197 108 164 Q119 131 138 106 L412 386 Z M164 78 Q193 53 224 41 Q255 29 292 29 Q346 29 390.5 55.5 Q435 82 461 127.5 Q487 173 487 229 Q487 268 476 299 Q465 330 441 360 L164 78 Z " />
<glyph glyph-name="otilde" unicode="&#xf5;" horiz-adv-x="584" d="M158 575 Q187 641 236 641 Q254 641 268 636 Q282 631 333 608 Q351 599 366 599 Q380 599 391 609 Q402 619 412 642 L442 620 Q419 555 363 555 Q351 555 338 559 Q325 563 302 573 Q269 588 254 593 Q239 598 229 598 Q215 598 205.5 587.5 Q196 577 188 554 L158 575 Z M293 471 Q359 471 414 439 Q469 407 501 351.5 Q533 296 533 229 Q533 162 501 107 Q469 52 413 20 Q357 -12 290 -12 Q224 -12 169 20.5 Q114 53 82.5 109.5 Q51 166 51 234 Q51 298 83.5 352.5 Q116 407 172 439 Q228 471 293 471 Z M290 429 Q238 429 193.5 402.5 Q149 376 123 331 Q97 286 97 233 Q97 177 122.5 130 Q148 83 192 56 Q236 29 289 29 Q344 29 389.5 55.5 Q435 82 461 127.5 Q487 173 487 229 Q487 285 461 330.5 Q435 376 390 402.5 Q345 429 290 429 Z " />
<glyph glyph-name="oe" unicode="&#x153;" horiz-adv-x="981" d="M536 227 Q537 193 541.5 171 Q546 149 557 128 Q580 83 623.5 56 Q667 29 716 29 Q770 29 808.5 55 Q847 81 877 137 L914 114 Q881 52 830 20 Q779 -12 712 -12 Q642 -12 590.5 23 Q539 58 510 124 Q474 57 418.5 22.5 Q363 -12 292 -12 Q226 -12 170.5 20 Q115 52 83 107.5 Q51 163 51 228 Q51 295 83.5 350.5 Q116 406 171.5 438.5 Q227 471 294 471 Q366 471 421.5 436.5 Q477 402 510 336 Q536 400 588 435.5 Q640 471 710 471 Q775 471 825 441 Q875 411 902.5 356 Q930 301 931 227 L536 227 Z M292 429 Q239 429 194.5 402.5 Q150 376 123.5 330.5 Q97 285 97 231 Q97 176 123 129.5 Q149 83 193 56 Q237 29 289 29 Q343 29 389 55 Q435 81 461.5 126 Q488 171 488 225 Q488 281 462 328 Q436 375 391 402 Q346 429 292 429 Z M881 270 Q868 346 823.5 387.5 Q779 429 711 429 Q642 429 598 388 Q554 347 539 270 L881 270 Z " />
<glyph glyph-name="p" unicode="p" horiz-adv-x="582" d="M80 461 L125 461 L125 379 Q156 425 202 448 Q248 471 305 471 Q370 471 421.5 439.5 Q473 408 502 352.5 Q531 297 531 227 Q531 157 502.5 103 Q474 49 423 18.5 Q372 -12 307 -12 Q250 -12 205.5 10.5 Q161 33 125 80 L125 -270 L80 -270 L80 461 Z M304 429 Q251 429 209.5 403 Q168 377 145 330.5 Q122 284 122 225 Q122 175 136 139.5 Q150 104 180 79 Q207 54 239 41.5 Q271 29 304 29 Q354 29 395.5 55 Q437 81 461 125.5 Q485 170 485 224 Q485 283 461.5 330 Q438 377 397 403 Q356 429 304 429 Z " />
<glyph glyph-name="thorn" unicode="&#xfe;" horiz-adv-x="582" d="M80 824 L125 824 L125 379 Q188 471 305 471 Q370 471 421.5 439.5 Q473 408 502 352.5 Q531 297 531 227 Q531 157 502.5 103 Q474 49 423 18.5 Q372 -12 307 -12 Q250 -12 205.5 10.5 Q161 33 125 80 L125 -270 L80 -270 L80 824 Z M304 429 Q251 429 209.5 403 Q168 377 145 330.5 Q122 284 122 225 Q122 175 136 139.5 Q150 104 180 79 Q207 54 239 41.5 Q271 29 304 29 Q354 29 395.5 55 Q437 81 461 125.5 Q485 170 485 224 Q485 283 461.5 330 Q438 377 397 403 Q356 429 304 429 Z " />
<glyph glyph-name="q" unicode="q" horiz-adv-x="582" d="M457 80 Q421 33 376.5 10.5 Q332 -12 275 -12 Q210 -12 159 18.5 Q108 49 79.5 103 Q51 157 51 227 Q51 297 80 352.5 Q109 408 160.5 439.5 Q212 471 277 471 Q335 471 380.5 448 Q426 425 457 379 L457 461 L502 461 L502 -270 L457 -270 L457 80 Z M279 429 Q228 429 186.5 403 Q145 377 121 332 Q97 287 97 231 Q97 174 120.5 128 Q144 82 185 55.5 Q226 29 277 29 Q316 29 353 46 Q390 63 417 93 Q460 139 460 225 Q460 284 437 330.5 Q414 377 372.5 403 Q331 429 279 429 Z " />
<glyph glyph-name="r" unicode="r" horiz-adv-x="294" d="M125 401 Q144 438 168 454.5 Q192 471 227 471 Q240 471 250.5 469 Q261 467 277 460 L252 420 Q243 425 235.5 428 Q228 431 220 431 Q201 431 182 420.5 Q163 410 150 392 Q135 372 130 344 Q125 316 125 247 L125 0 L80 0 L80 461 L125 461 L125 401 Z " />
<glyph glyph-name="racute" unicode="&#x155;" horiz-adv-x="294" d="M125 546 L228 687 L277 657 L158 528 L125 546 Z M125 401 Q144 438 168 454.5 Q192 471 227 471 Q240 471 250.5 469 Q261 467 277 460 L252 420 Q243 425 235.5 428 Q228 431 220 431 Q201 431 182 420.5 Q163 410 150 392 Q135 372 130 344 Q125 316 125 247 L125 0 L80 0 L80 461 L125 461 L125 401 Z " />
<glyph glyph-name="rcaron" unicode="&#x159;" horiz-adv-x="294" d="M167 586 L260 685 L297 657 L167 528 L37 657 L75 685 L167 586 Z M125 401 Q144 438 168 454.5 Q192 471 227 471 Q240 471 250.5 469 Q261 467 277 460 L252 420 Q243 425 235.5 428 Q228 431 220 431 Q201 431 182 420.5 Q163 410 150 392 Q135 372 130 344 Q125 316 125 247 L125 0 L80 0 L80 461 L125 461 L125 401 Z " />
<glyph glyph-name="uni0157" unicode="&#x157;" horiz-adv-x="294" d="M127 401 Q145 438 169 454.5 Q193 471 228 471 Q252 471 278 460 L253 420 Q235 431 221 431 Q203 431 183.5 420.5 Q164 410 151 392 Q136 373 131.5 345 Q127 317 127 247 L127 0 L81 0 L81 461 L127 461 L127 401 Z M70 -221 L34 -210 L85 -53 L136 -68 L70 -221 Z " />
<glyph glyph-name="s" unicode="s" horiz-adv-x="386" d="M286 376 Q257 429 207 429 Q174 429 150.5 407 Q127 385 127 355 Q127 328 146.5 310 Q166 292 217 273 Q260 258 274.5 251 Q289 244 306 232 Q351 198 351 133 Q351 70 309 29 Q267 -12 201 -12 Q143 -12 102 20 Q61 52 43 110 L87 123 Q118 29 201 29 Q245 29 275 58.5 Q305 88 305 132 Q305 167 286 187 Q267 207 216 226 Q140 253 110 281 Q80 309 80 353 Q80 402 116.5 436.5 Q153 471 205 471 Q244 471 274 452 Q304 433 324 397 L286 376 Z " />
<glyph glyph-name="sacute" unicode="&#x15b;" horiz-adv-x="386" d="M162 546 L264 687 L312 657 L194 528 L162 546 Z M286 376 Q257 429 207 429 Q174 429 150.5 407 Q127 385 127 355 Q127 328 146.5 310 Q166 292 217 273 Q260 258 274.5 251 Q289 244 306 232 Q351 198 351 133 Q351 70 309 29 Q267 -12 201 -12 Q143 -12 102 20 Q61 52 43 110 L87 123 Q118 29 201 29 Q245 29 275 58.5 Q305 88 305 132 Q305 167 286 187 Q267 207 216 226 Q140 253 110 281 Q80 309 80 353 Q80 402 116.5 436.5 Q153 471 205 471 Q244 471 274 452 Q304 433 324 397 L286 376 Z " />
<glyph glyph-name="scaron" unicode="&#x161;" horiz-adv-x="386" d="M206 586 L306 685 L342 657 L206 528 L68 657 L105 685 L206 586 Z M286 376 Q257 429 207 429 Q174 429 150.5 407 Q127 385 127 355 Q127 328 146.5 310 Q166 292 217 273 Q260 258 274.5 251 Q289 244 306 232 Q351 198 351 133 Q351 70 309 29 Q267 -12 201 -12 Q143 -12 102 20 Q61 52 43 110 L87 123 Q118 29 201 29 Q245 29 275 58.5 Q305 88 305 132 Q305 167 286 187 Q267 207 216 226 Q140 253 110 281 Q80 309 80 353 Q80 402 116.5 436.5 Q153 471 205 471 Q244 471 274 452 Q304 433 324 397 L286 376 Z " />
<glyph glyph-name="scedilla" unicode="&#x15f;" horiz-adv-x="386" d="M286 376 Q257 429 207 429 Q174 429 150.5 407 Q127 385 127 355 Q127 328 146.5 310 Q166 292 217 273 Q260 258 274.5 251 Q289 244 306 232 Q351 198 351 133 Q351 70 309 29 Q267 -12 201 -12 Q143 -12 102 20 Q61 52 43 110 L87 123 Q118 29 201 29 Q245 29 275 58.5 Q305 88 305 132 Q305 167 286 187 Q267 207 216 226 Q140 253 110 281 Q80 309 80 353 Q80 402 116.5 436.5 Q153 471 205 471 Q244 471 274 452 Q304 433 324 397 L286 376 Z M95 -198 L189 -53 L238 -77 L130 -216 L95 -198 Z " />
<glyph glyph-name="scircumflex" unicode="&#x15d;" horiz-adv-x="386" d="M342 556 L306 528 L206 626 L105 528 L68 556 L206 685 L342 556 Z M286 376 Q257 429 207 429 Q174 429 150.5 407 Q127 385 127 355 Q127 328 146.5 310 Q166 292 217 273 Q260 258 274.5 251 Q289 244 306 232 Q351 198 351 133 Q351 70 309 29 Q267 -12 201 -12 Q143 -12 102 20 Q61 52 43 110 L87 123 Q118 29 201 29 Q245 29 275 58.5 Q305 88 305 132 Q305 167 286 187 Q267 207 216 226 Q140 253 110 281 Q80 309 80 353 Q80 402 116.5 436.5 Q153 471 205 471 Q244 471 274 452 Q304 433 324 397 L286 376 Z " />
<glyph glyph-name="uni0219" unicode="&#x219;" horiz-adv-x="386" d="M286 376 Q257 429 207 429 Q174 429 150.5 407 Q127 385 127 355 Q127 328 146.5 310 Q166 292 217 273 Q260 258 274.5 251 Q289 244 306 232 Q351 198 351 133 Q351 70 309 29 Q267 -12 201 -12 Q143 -12 102 20 Q61 52 43 110 L87 123 Q118 29 201 29 Q245 29 275 58.5 Q305 88 305 132 Q305 167 286 187 Q267 207 216 226 Q140 253 110 281 Q80 309 80 353 Q80 402 116.5 436.5 Q153 471 205 471 Q244 471 274 452 Q304 433 324 397 L286 376 Z M163 -221 L128 -210 L177 -53 L229 -68 L163 -221 Z " />
<glyph glyph-name="germandbls" unicode="&#xdf;" horiz-adv-x="556" d="M32 419 L32 461 L80 461 L80 661 Q80 747 123 790 Q144 812 176.5 824.5 Q209 837 244 837 Q290 837 327 816.5 Q364 796 385 759.5 Q406 723 406 677 Q406 579 318 538 Q353 525 374 513.5 Q395 502 414 485 Q455 449 479.5 391.5 Q504 334 504 276 Q504 210 472.5 150 Q441 90 384 50 Q350 26 316 13.5 Q282 1 234 -6 L234 41 Q336 55 397 120 Q458 185 458 278 Q458 337 430.5 389.5 Q403 442 357 471 Q331 488 304 497.5 Q277 507 234 514 L234 554 Q262 556 279 561 Q296 566 310 576 Q332 592 345.5 619.5 Q359 647 359 678 Q359 730 326.5 763 Q294 796 242 796 Q211 796 185.5 784 Q160 772 147 751 Q125 720 125 645 L125 0 L80 0 L80 419 L32 419 Z " />
<glyph glyph-name="longs" unicode="&#x17f;" horiz-adv-x="241" d="M80 419 L29 419 L29 461 L80 461 L80 680 Q80 755 103 789 Q119 812 144.5 824.5 Q170 837 201 837 Q222 837 242 831 L242 789 Q221 794 206 794 Q163 794 144 765.5 Q125 737 125 671 L125 0 L80 0 L80 419 Z " />
<glyph glyph-name="t" unicode="t" horiz-adv-x="253" d="M181 -10 Q129 -10 106 15 Q94 28 89.5 48.5 Q85 69 85 102 L85 419 L34 419 L34 461 L85 461 L85 626 L130 626 L130 461 L234 461 L234 419 L130 419 L130 94 Q130 60 142 46 Q154 32 189 32 Q217 32 242 44 L242 1 Q215 -10 181 -10 Z " />
<glyph glyph-name="tbar" unicode="&#x167;" horiz-adv-x="253" d="M189 32 Q217 32 242 44 L242 1 Q215 -10 181 -10 Q129 -10 106 15 Q94 28 89.5 48.5 Q85 69 85 102 L85 272 L34 272 L34 314 L85 314 L85 419 L34 419 L34 461 L85 461 L85 626 L130 626 L130 461 L234 461 L234 419 L130 419 L130 314 L233 314 L233 272 L130 272 L130 94 Q130 60 142 46 Q154 32 189 32 Z " />
<glyph glyph-name="tcaron" unicode="&#x165;" horiz-adv-x="288" d="M223 584 L186 596 L237 760 L289 746 L223 584 Z M181 -10 Q129 -10 106 15 Q94 28 89.5 48.5 Q85 69 85 102 L85 419 L34 419 L34 461 L85 461 L85 626 L130 626 L130 461 L234 461 L234 419 L130 419 L130 94 Q130 60 142 46 Q154 32 189 32 Q217 32 242 44 L242 1 Q215 -10 181 -10 Z " />
<glyph glyph-name="uni0163" unicode="&#x163;" horiz-adv-x="253" d="M181 -10 Q129 -10 106 15 Q94 28 89.5 48.5 Q85 69 85 102 L85 419 L34 419 L34 461 L85 461 L85 626 L130 626 L130 461 L234 461 L234 419 L130 419 L130 94 Q130 60 142 46 Q154 32 189 32 Q217 32 242 44 L242 1 Q215 -10 181 -10 Z M108 -221 L72 -210 L123 -53 L174 -68 L108 -221 Z " />
<glyph glyph-name="u" unicode="u" horiz-adv-x="493" d="M366 80 Q341 31 308 10 Q275 -11 227 -11 Q186 -11 154 5.5 Q122 22 104 52 Q80 91 80 171 L80 461 L125 461 L125 171 Q125 100 150 64.5 Q175 29 237 29 Q299 29 336 88 Q353 118 359.5 146 Q366 174 366 221 L366 461 L411 461 L411 0 L366 0 L366 80 Z " />
<glyph glyph-name="uacute" unicode="&#xfa;" horiz-adv-x="493" d="M366 80 Q341 31 308 10 Q275 -11 227 -11 Q186 -11 154 5.5 Q122 22 104 52 Q80 91 80 171 L80 461 L125 461 L125 171 Q125 100 150 64.5 Q175 29 237 29 Q299 29 336 88 Q353 118 359.5 146 Q366 174 366 221 L366 461 L411 461 L411 0 L366 0 L366 80 Z M205 546 L308 687 L356 657 L238 528 L205 546 Z " />
<glyph glyph-name="ubreve" unicode="&#x16d;" horiz-adv-x="493" d="M366 80 Q341 31 308 10 Q275 -11 227 -11 Q186 -11 154 5.5 Q122 22 104 52 Q80 91 80 171 L80 461 L125 461 L125 171 Q125 100 150 64.5 Q175 29 237 29 Q299 29 336 88 Q353 118 359.5 146 Q366 174 366 221 L366 461 L411 461 L411 0 L366 0 L366 80 Z M155 670 Q166 621 188 598 Q210 575 246 575 Q281 575 303.5 598 Q326 621 337 670 L380 670 Q372 606 336 568.5 Q300 531 246 531 Q191 531 155 568.5 Q119 606 112 670 L155 670 Z " />
<glyph glyph-name="ucircumflex" unicode="&#xfb;" horiz-adv-x="493" d="M366 80 Q341 31 308 10 Q275 -11 227 -11 Q186 -11 154 5.5 Q122 22 104 52 Q80 91 80 171 L80 461 L125 461 L125 171 Q125 100 150 64.5 Q175 29 237 29 Q299 29 336 88 Q353 118 359.5 146 Q366 174 366 221 L366 461 L411 461 L411 0 L366 0 L366 80 Z M383 556 L347 528 L247 626 L146 528 L109 556 L247 685 L383 556 Z " />
<glyph glyph-name="udieresis" unicode="&#xfc;" horiz-adv-x="493" d="M366 80 Q341 31 308 10 Q275 -11 227 -11 Q186 -11 154 5.5 Q122 22 104 52 Q80 91 80 171 L80 461 L125 461 L125 171 Q125 100 150 64.5 Q175 29 237 29 Q299 29 336 88 Q353 118 359.5 146 Q366 174 366 221 L366 461 L411 461 L411 0 L366 0 L366 80 Z M153 640 Q170 640 182 628 Q194 616 194 599 Q194 581 182 569 Q170 557 153 557 Q135 557 123 569 Q111 581 111 599 Q111 616 123.5 628 Q136 640 153 640 Z M340 640 Q357 640 369 628 Q381 616 381 599 Q381 581 369 569 Q357 557 340 557 Q323 557 311 569 Q299 581 299 599 Q299 616 311.5 628 Q324 640 340 640 Z " />
<glyph glyph-name="ugrave" unicode="&#xf9;" horiz-adv-x="493" d="M366 80 Q341 31 308 10 Q275 -11 227 -11 Q186 -11 154 5.5 Q122 22 104 52 Q80 91 80 171 L80 461 L125 461 L125 171 Q125 100 150 64.5 Q175 29 237 29 Q299 29 336 88 Q353 118 359.5 146 Q366 174 366 221 L366 461 L411 461 L411 0 L366 0 L366 80 Z M299 546 L265 528 L148 657 L195 687 L299 546 Z " />
<glyph glyph-name="uhorn" unicode="&#x1b0;" horiz-adv-x="493" d="M496 310 L460 322 L511 486 L563 471 L496 310 Z M366 80 Q341 31 308 10 Q275 -11 227 -11 Q186 -11 154 5.5 Q122 22 104 52 Q80 91 80 171 L80 461 L125 461 L125 171 Q125 100 150 64.5 Q175 29 237 29 Q299 29 336 88 Q353 118 359.5 146 Q366 174 366 221 L366 461 L411 461 L411 0 L366 0 L366 80 Z " />
<glyph glyph-name="uhungarumlaut" unicode="&#x171;" horiz-adv-x="493" d="M366 80 Q341 31 308 10 Q275 -11 227 -11 Q186 -11 154 5.5 Q122 22 104 52 Q80 91 80 171 L80 461 L125 461 L125 171 Q125 100 150 64.5 Q175 29 237 29 Q299 29 336 88 Q353 118 359.5 146 Q366 174 366 221 L366 461 L411 461 L411 0 L366 0 L366 80 Z M148 546 L251 687 L295 657 L178 528 L148 546 Z M280 546 L383 687 L426 657 L310 528 L280 546 Z " />
<glyph glyph-name="umacron" unicode="&#x16b;" horiz-adv-x="493" d="M366 80 Q341 31 308 10 Q275 -11 227 -11 Q186 -11 154 5.5 Q122 22 104 52 Q80 91 80 171 L80 461 L125 461 L125 171 Q125 100 150 64.5 Q175 29 237 29 Q299 29 336 88 Q353 118 359.5 146 Q366 174 366 221 L366 461 L411 461 L411 0 L366 0 L366 80 Z M387 572 L105 572 L105 615 L387 615 L387 572 Z " />
<glyph glyph-name="uni01C6" unicode="&#x1c6;" horiz-adv-x="1093" d="M502 0 L457 0 L457 82 Q426 36 380 12 Q334 -12 277 -12 Q212 -12 160.5 19.5 Q109 51 80 106.5 Q51 162 51 233 Q51 302 79.5 356 Q108 410 159.5 440.5 Q211 471 276 471 Q334 471 377.5 449.5 Q421 428 457 381 L457 824 L502 824 L502 0 Z M868 586 L968 685 L1006 657 L868 528 L730 657 L767 685 L868 586 Z M1071 0 L602 0 L979 419 L662 419 L662 461 L1074 461 L699 42 L1071 42 L1071 0 Z M278 429 Q228 429 186.5 403.5 Q145 378 121 333.5 Q97 289 97 235 Q97 176 120.5 129 Q144 82 185.5 55.5 Q227 29 278 29 Q330 29 371.5 55 Q413 81 436.5 128 Q460 175 460 235 Q460 284 446 319.5 Q432 355 402 381 Q376 404 343 416.5 Q310 429 278 429 Z " />
<glyph glyph-name="uni01C9" unicode="&#x1c9;" horiz-adv-x="414" d="M80 0 L80 824 L125 824 L125 0 L80 0 Z M310 573 Q293 573 281 585 Q269 597 269 615 Q269 632 281 643.5 Q293 655 310 655 Q327 655 339 643 Q351 631 351 615 Q351 597 339 585 Q327 573 310 573 Z M214 -276 Q191 -276 171 -269 L171 -227 Q191 -233 207 -233 Q250 -233 268.5 -204.5 Q287 -176 287 -110 L287 461 L332 461 L332 -119 Q332 -160 325.5 -188 Q319 -216 304 -237 Q292 -255 268 -265.5 Q244 -276 214 -276 Z " />
<glyph glyph-name="uni01CC" unicode="&#x1cc;" horiz-adv-x="703" d="M125 389 Q153 432 186.5 451.5 Q220 471 266 471 Q307 471 341.5 453.5 Q376 436 393 407 Q405 387 410.5 359.5 Q416 332 416 290 L416 0 L371 0 L371 290 Q371 326 367 347.5 Q363 369 354 384 Q342 405 317 417 Q292 429 260 429 Q185 429 150 366 Q136 342 130.5 314.5 Q125 287 125 240 L125 0 L80 0 L80 461 L125 461 L125 389 Z M599 573 Q582 573 570 585 Q558 597 558 615 Q558 632 570 643.5 Q582 655 599 655 Q616 655 628 643 Q640 631 640 615 Q640 597 628 585 Q616 573 599 573 Z M503 -276 Q480 -276 460 -269 L460 -227 Q480 -233 496 -233 Q539 -233 557.5 -204.5 Q576 -176 576 -110 L576 461 L621 461 L621 -119 Q621 -160 614.5 -188 Q608 -216 593 -237 Q581 -255 557 -265.5 Q533 -276 503 -276 Z " />
<glyph glyph-name="uni01CE" unicode="&#x1ce;" horiz-adv-x="582" d="M292 586 L392 685 L428 657 L292 528 L154 657 L191 685 L292 586 Z M502 0 L457 0 L457 82 Q426 36 380 12 Q334 -12 277 -12 Q212 -12 160.5 19.5 Q109 51 80 106.5 Q51 162 51 233 Q51 302 79.5 356 Q108 410 159.5 440.5 Q211 471 276 471 Q334 471 377.5 449.5 Q421 428 457 381 L457 461 L502 461 L502 0 Z M278 429 Q228 429 186.5 403.5 Q145 378 121 333.5 Q97 289 97 235 Q97 176 120.5 129 Q144 82 185.5 55.5 Q227 29 278 29 Q330 29 371.5 55 Q413 81 436.5 128 Q460 175 460 235 Q460 284 446 319.5 Q432 355 402 381 Q376 404 343 416.5 Q310 429 278 429 Z " />
<glyph glyph-name="uni01D0" unicode="&#x1d0;" horiz-adv-x="207" d="M104 586 L205 685 L241 657 L104 528 L-34 657 L3 685 L104 586 Z M81 0 L81 461 L127 461 L127 0 L81 0 Z " />
<glyph glyph-name="uni01D2" unicode="&#x1d2;" horiz-adv-x="584" d="M293 586 L393 685 L429 657 L293 528 L155 657 L192 685 L293 586 Z M293 471 Q359 471 414 439 Q469 407 501 351.5 Q533 296 533 229 Q533 162 501 107 Q469 52 413 20 Q357 -12 290 -12 Q224 -12 169 20.5 Q114 53 82.5 109.5 Q51 166 51 234 Q51 298 83.5 352.5 Q116 407 172 439 Q228 471 293 471 Z M290 429 Q238 429 193.5 402.5 Q149 376 123 331 Q97 286 97 233 Q97 177 122.5 130 Q148 83 192 56 Q236 29 289 29 Q344 29 389.5 55.5 Q435 82 461 127.5 Q487 173 487 229 Q487 285 461 330.5 Q435 376 390 402.5 Q345 429 290 429 Z " />
<glyph glyph-name="uni01D4" unicode="&#x1d4;" horiz-adv-x="493" d="M366 80 Q341 31 308 10 Q275 -11 227 -11 Q186 -11 154 5.5 Q122 22 104 52 Q80 91 80 171 L80 461 L125 461 L125 171 Q125 100 150 64.5 Q175 29 237 29 Q299 29 336 88 Q353 118 359.5 146 Q366 174 366 221 L366 461 L411 461 L411 0 L366 0 L366 80 Z M247 586 L347 685 L383 657 L247 528 L109 657 L146 685 L247 586 Z " />
<glyph glyph-name="uni01DD" unicode="&#x1dd;" horiz-adv-x="547" d="M447 234 Q446 269 440 292 Q434 315 421 338 Q399 379 357 404 Q315 429 268 429 Q236 429 205.5 417.5 Q175 406 151 385 Q138 375 128 361.5 Q118 348 104 323 L66 346 Q137 471 270 471 Q335 471 386.5 440 Q438 409 467 354.5 Q496 300 496 231 Q496 162 466.5 106.5 Q437 51 386 19.5 Q335 -12 271 -12 Q207 -12 157.5 18.5 Q108 49 80 105 Q52 161 51 234 L447 234 Z M103 191 Q117 118 163 73.5 Q209 29 272 29 Q337 29 385.5 75 Q434 121 444 191 L103 191 Z " />
<glyph glyph-name="uni01F5" unicode="&#x1f5;" horiz-adv-x="589" d="M232 546 L336 687 L383 657 L266 528 L232 546 Z M508 9 Q508 -61 497.5 -103 Q487 -145 459 -181 Q428 -221 380.5 -242.5 Q333 -264 277 -264 Q213 -264 160.5 -237.5 Q108 -211 80 -164 Q67 -143 60.5 -121.5 Q54 -100 51 -67 L97 -67 Q101 -97 106.5 -114 Q112 -131 124 -149 Q148 -184 188.5 -203.5 Q229 -223 278 -223 Q367 -223 415 -163 Q463 -103 463 9 L463 79 Q424 33 379.5 11 Q335 -11 280 -11 Q218 -11 166.5 21 Q115 53 85 108.5 Q55 164 55 231 Q55 298 85.5 353 Q116 408 169 439.5 Q222 471 287 471 Q342 471 382.5 450.5 Q423 430 463 381 L463 461 L508 461 L508 9 Z M283 429 Q233 429 191.5 402.5 Q150 376 126 331 Q102 286 102 232 Q102 174 125 128.5 Q148 83 188.5 57 Q229 31 280 31 Q321 31 359 48.5 Q397 66 424 97 Q467 150 467 233 Q467 281 453.5 315 Q440 349 410 376 Q383 401 349.5 415 Q316 429 283 429 Z " />
<glyph glyph-name="uni0201" unicode="&#x201;" horiz-adv-x="582" d="M255 546 L225 528 L110 657 L153 687 L255 546 Z M388 546 L356 528 L241 657 L284 687 L388 546 Z M502 0 L457 0 L457 82 Q426 36 380 12 Q334 -12 277 -12 Q212 -12 160.5 19.5 Q109 51 80 106.5 Q51 162 51 233 Q51 302 79.5 356 Q108 410 159.5 440.5 Q211 471 276 471 Q334 471 377.5 449.5 Q421 428 457 381 L457 461 L502 461 L502 0 Z M278 429 Q228 429 186.5 403.5 Q145 378 121 333.5 Q97 289 97 235 Q97 176 120.5 129 Q144 82 185.5 55.5 Q227 29 278 29 Q330 29 371.5 55 Q413 81 436.5 128 Q460 175 460 235 Q460 284 446 319.5 Q432 355 402 381 Q376 404 343 416.5 Q310 429 278 429 Z " />
<glyph glyph-name="uni021B" unicode="&#x21b;" horiz-adv-x="253" d="M181 -10 Q129 -10 106 15 Q94 28 89.5 48.5 Q85 69 85 102 L85 419 L34 419 L34 461 L85 461 L85 626 L130 626 L130 461 L234 461 L234 419 L130 419 L130 94 Q130 60 142 46 Q154 32 189 32 Q217 32 242 44 L242 1 Q215 -10 181 -10 Z M108 -221 L72 -210 L123 -53 L174 -68 L108 -221 Z " />
<glyph glyph-name="uni0227" unicode="&#x227;" horiz-adv-x="582" d="M290 643 Q309 643 321.5 630.5 Q334 618 334 600 Q334 582 321.5 569.5 Q309 557 292 557 Q273 557 260 569.5 Q247 582 247 600 Q247 618 260 630.5 Q273 643 290 643 Z M502 0 L457 0 L457 82 Q426 36 380 12 Q334 -12 277 -12 Q212 -12 160.5 19.5 Q109 51 80 106.5 Q51 162 51 233 Q51 302 79.5 356 Q108 410 159.5 440.5 Q211 471 276 471 Q334 471 377.5 449.5 Q421 428 457 381 L457 461 L502 461 L502 0 Z M278 429 Q228 429 186.5 403.5 Q145 378 121 333.5 Q97 289 97 235 Q97 176 120.5 129 Q144 82 185.5 55.5 Q227 29 278 29 Q330 29 371.5 55 Q413 81 436.5 128 Q460 175 460 235 Q460 284 446 319.5 Q432 355 402 381 Q376 404 343 416.5 Q310 429 278 429 Z " />
<glyph glyph-name="uni1EA1" unicode="&#x1ea1;" horiz-adv-x="582" d="M502 0 L457 0 L457 82 Q426 36 380 12 Q334 -12 277 -12 Q212 -12 160.5 19.5 Q109 51 80 106.5 Q51 162 51 233 Q51 302 79.5 356 Q108 410 159.5 440.5 Q211 471 276 471 Q334 471 377.5 449.5 Q421 428 457 381 L457 461 L502 461 L502 0 Z M278 429 Q228 429 186.5 403.5 Q145 378 121 333.5 Q97 289 97 235 Q97 176 120.5 129 Q144 82 185.5 55.5 Q227 29 278 29 Q330 29 371.5 55 Q413 81 436.5 128 Q460 175 460 235 Q460 284 446 319.5 Q432 355 402 381 Q376 404 343 416.5 Q310 429 278 429 Z M278 -85 Q295 -85 307 -96.5 Q319 -108 319 -125 Q319 -143 307 -155 Q295 -167 278 -167 Q260 -167 248 -155 Q236 -143 236 -125 Q236 -109 248.5 -97 Q261 -85 278 -85 Z " />
<glyph glyph-name="uni1EA3" unicode="&#x1ea3;" horiz-adv-x="582" d="M502 0 L457 0 L457 82 Q426 36 380 12 Q334 -12 277 -12 Q212 -12 160.5 19.5 Q109 51 80 106.5 Q51 162 51 233 Q51 302 79.5 356 Q108 410 159.5 440.5 Q211 471 276 471 Q334 471 377.5 449.5 Q421 428 457 381 L457 461 L502 461 L502 0 Z M278 429 Q228 429 186.5 403.5 Q145 378 121 333.5 Q97 289 97 235 Q97 176 120.5 129 Q144 82 185.5 55.5 Q227 29 278 29 Q330 29 371.5 55 Q413 81 436.5 128 Q460 175 460 235 Q460 284 446 319.5 Q432 355 402 381 Q376 404 343 416.5 Q310 429 278 429 Z M256 618 Q262 619 288 624 Q325 629 339 639 Q353 649 353 670 Q353 694 336.5 707.5 Q320 721 290 721 Q275 721 267.5 719.5 Q260 718 249 711 Q241 706 230 702 L219 731 Q269 750 313 750 Q359 750 388 727 Q417 704 417 667 Q417 635 394.5 617 Q372 599 331 599 L294 600 L294 556 L256 556 L256 618 Z " />
<glyph glyph-name="uni1EA5" unicode="&#x1ea5;" horiz-adv-x="582" d="M514 696 L406 577 L428 556 L392 528 L292 626 L191 528 L154 556 L292 685 L376 605 L466 727 L514 696 Z M502 0 L457 0 L457 82 Q426 36 380 12 Q334 -12 277 -12 Q212 -12 160.5 19.5 Q109 51 80 106.5 Q51 162 51 233 Q51 302 79.5 356 Q108 410 159.5 440.5 Q211 471 276 471 Q334 471 377.5 449.5 Q421 428 457 381 L457 461 L502 461 L502 0 Z M278 429 Q228 429 186.5 403.5 Q145 378 121 333.5 Q97 289 97 235 Q97 176 120.5 129 Q144 82 185.5 55.5 Q227 29 278 29 Q330 29 371.5 55 Q413 81 436.5 128 Q460 175 460 235 Q460 284 446 319.5 Q432 355 402 381 Q376 404 343 416.5 Q310 429 278 429 Z " />
<glyph glyph-name="uni1EA7" unicode="&#x1ea7;" horiz-adv-x="582" d="M504 620 L472 595 L337 721 L383 754 L504 620 Z M428 556 L392 528 L292 626 L191 528 L154 556 L292 685 L428 556 Z M502 0 L457 0 L457 82 Q426 36 380 12 Q334 -12 277 -12 Q212 -12 160.5 19.5 Q109 51 80 106.5 Q51 162 51 233 Q51 302 79.5 356 Q108 410 159.5 440.5 Q211 471 276 471 Q334 471 377.5 449.5 Q421 428 457 381 L457 461 L502 461 L502 0 Z M278 429 Q228 429 186.5 403.5 Q145 378 121 333.5 Q97 289 97 235 Q97 176 120.5 129 Q144 82 185.5 55.5 Q227 29 278 29 Q330 29 371.5 55 Q413 81 436.5 128 Q460 175 460 235 Q460 284 446 319.5 Q432 355 402 381 Q376 404 343 416.5 Q310 429 278 429 Z " />
<glyph glyph-name="uni1EA9" unicode="&#x1ea9;" horiz-adv-x="582" d="M382 643 Q408 646 414 649 Q451 653 465 663.5 Q479 674 479 695 Q479 719 462 732.5 Q445 746 416 746 Q401 746 393.5 744.5 Q386 743 375 736 Q360 729 356 727 L345 756 Q397 775 438 775 Q484 775 513 752 Q542 729 542 692 Q542 660 520 642 Q498 624 458 624 Q437 624 419 625 L419 581 L402 581 L428 556 L392 528 L290 626 L190 528 L154 556 L290 685 L382 600 L382 643 Z M502 0 L457 0 L457 82 Q426 36 380 12 Q334 -12 277 -12 Q212 -12 160.5 19.5 Q109 51 80 106.5 Q51 162 51 233 Q51 302 79.5 356 Q108 410 159.5 440.5 Q211 471 276 471 Q334 471 377.5 449.5 Q421 428 457 381 L457 461 L502 461 L502 0 Z M278 429 Q228 429 186.5 403.5 Q145 378 121 333.5 Q97 289 97 235 Q97 176 120.5 129 Q144 82 185.5 55.5 Q227 29 278 29 Q330 29 371.5 55 Q413 81 436.5 128 Q460 175 460 235 Q460 284 446 319.5 Q432 355 402 381 Q376 404 343 416.5 Q310 429 278 429 Z " />
<glyph glyph-name="uni1EAB" unicode="&#x1eab;" horiz-adv-x="582" d="M149 724 Q178 789 227 789 Q245 789 260 784 Q275 779 325 756 Q344 748 357 748 Q372 748 383 758 Q394 768 405 791 L433 768 Q422 737 402 720.5 Q382 704 354 704 Q343 704 330.5 708 Q318 712 293 722 Q261 736 246 741 Q231 746 221 746 Q194 746 179 702 L149 724 Z M428 556 L392 528 L292 626 L191 528 L154 556 L292 685 L428 556 Z M502 0 L457 0 L457 82 Q426 36 380 12 Q334 -12 277 -12 Q212 -12 160.5 19.5 Q109 51 80 106.5 Q51 162 51 233 Q51 302 79.5 356 Q108 410 159.5 440.5 Q211 471 276 471 Q334 471 377.5 449.5 Q421 428 457 381 L457 461 L502 461 L502 0 Z M278 429 Q228 429 186.5 403.5 Q145 378 121 333.5 Q97 289 97 235 Q97 176 120.5 129 Q144 82 185.5 55.5 Q227 29 278 29 Q330 29 371.5 55 Q413 81 436.5 128 Q460 175 460 235 Q460 284 446 319.5 Q432 355 402 381 Q376 404 343 416.5 Q310 429 278 429 Z " />
<glyph glyph-name="uni1EAD" unicode="&#x1ead;" horiz-adv-x="582" d="M428 556 L392 528 L292 626 L191 528 L154 556 L292 685 L428 556 Z M502 0 L457 0 L457 82 Q426 36 380 12 Q334 -12 277 -12 Q212 -12 160.5 19.5 Q109 51 80 106.5 Q51 162 51 233 Q51 302 79.5 356 Q108 410 159.5 440.5 Q211 471 276 471 Q334 471 377.5 449.5 Q421 428 457 381 L457 461 L502 461 L502 0 Z M278 429 Q228 429 186.5 403.5 Q145 378 121 333.5 Q97 289 97 235 Q97 176 120.5 129 Q144 82 185.5 55.5 Q227 29 278 29 Q330 29 371.5 55 Q413 81 436.5 128 Q460 175 460 235 Q460 284 446 319.5 Q432 355 402 381 Q376 404 343 416.5 Q310 429 278 429 Z M278 -85 Q295 -85 307 -96.5 Q319 -108 319 -125 Q319 -143 307 -155 Q295 -167 278 -167 Q260 -167 248 -155 Q236 -143 236 -125 Q236 -109 248.5 -97 Q261 -85 278 -85 Z " />
<glyph glyph-name="uni1EAF" unicode="&#x1eaf;" horiz-adv-x="582" d="M260 620 L364 762 L411 731 L294 601 L260 620 Z M201 670 Q211 621 233.5 598 Q256 575 292 575 Q327 575 349 598 Q371 621 382 670 L425 670 Q418 606 382 568.5 Q346 531 292 531 Q237 531 201 568.5 Q165 606 157 670 L201 670 Z M502 0 L457 0 L457 82 Q426 36 380 12 Q334 -12 277 -12 Q212 -12 160.5 19.5 Q109 51 80 106.5 Q51 162 51 233 Q51 302 79.5 356 Q108 410 159.5 440.5 Q211 471 276 471 Q334 471 377.5 449.5 Q421 428 457 381 L457 461 L502 461 L502 0 Z M278 429 Q228 429 186.5 403.5 Q145 378 121 333.5 Q97 289 97 235 Q97 176 120.5 129 Q144 82 185.5 55.5 Q227 29 278 29 Q330 29 371.5 55 Q413 81 436.5 128 Q460 175 460 235 Q460 284 446 319.5 Q432 355 402 381 Q376 404 343 416.5 Q310 429 278 429 Z " />
<glyph glyph-name="uni1EB1" unicode="&#x1eb1;" horiz-adv-x="582" d="M322 633 L289 615 L172 745 L219 774 L322 633 Z M201 670 Q211 621 233.5 598 Q256 575 292 575 Q327 575 349 598 Q371 621 382 670 L425 670 Q418 606 382 568.5 Q346 531 292 531 Q237 531 201 568.5 Q165 606 157 670 L201 670 Z M502 0 L457 0 L457 82 Q426 36 380 12 Q334 -12 277 -12 Q212 -12 160.5 19.5 Q109 51 80 106.5 Q51 162 51 233 Q51 302 79.5 356 Q108 410 159.5 440.5 Q211 471 276 471 Q334 471 377.5 449.5 Q421 428 457 381 L457 461 L502 461 L502 0 Z M278 429 Q228 429 186.5 403.5 Q145 378 121 333.5 Q97 289 97 235 Q97 176 120.5 129 Q144 82 185.5 55.5 Q227 29 278 29 Q330 29 371.5 55 Q413 81 436.5 128 Q460 175 460 235 Q460 284 446 319.5 Q432 355 402 381 Q376 404 343 416.5 Q310 429 278 429 Z " />
<glyph glyph-name="uni1EB3" unicode="&#x1eb3;" horiz-adv-x="582" d="M263 695 Q289 698 295 701 Q332 705 346 715 Q360 725 360 747 Q360 771 343.5 784.5 Q327 798 297 798 Q282 798 274.5 796 Q267 794 257 788 Q248 783 237 779 L226 808 Q276 827 320 827 Q366 827 395 804 Q424 781 424 744 Q424 712 401.5 694 Q379 676 338 676 Q318 676 301 677 L301 633 L263 633 L263 695 Z M201 670 Q211 621 233.5 598 Q256 575 292 575 Q327 575 349 598 Q371 621 382 670 L425 670 Q418 606 382 568.5 Q346 531 292 531 Q237 531 201 568.5 Q165 606 157 670 L201 670 Z M502 0 L457 0 L457 82 Q426 36 380 12 Q334 -12 277 -12 Q212 -12 160.5 19.5 Q109 51 80 106.5 Q51 162 51 233 Q51 302 79.5 356 Q108 410 159.5 440.5 Q211 471 276 471 Q334 471 377.5 449.5 Q421 428 457 381 L457 461 L502 461 L502 0 Z M278 429 Q228 429 186.5 403.5 Q145 378 121 333.5 Q97 289 97 235 Q97 176 120.5 129 Q144 82 185.5 55.5 Q227 29 278 29 Q330 29 371.5 55 Q413 81 436.5 128 Q460 175 460 235 Q460 284 446 319.5 Q432 355 402 381 Q376 404 343 416.5 Q310 429 278 429 Z " />
<glyph glyph-name="uni1EB5" unicode="&#x1eb5;" horiz-adv-x="582" d="M149 723 Q178 788 227 788 Q245 788 260 783 Q275 778 325 755 Q344 747 357 747 Q371 747 382.5 757 Q394 767 405 790 L433 767 Q423 736 402.5 719.5 Q382 703 354 703 Q342 703 329 707 Q316 711 293 721 Q261 735 246 740 Q231 745 221 745 Q207 745 197 735 Q187 725 179 702 L149 723 Z M201 670 Q211 621 233.5 598 Q256 575 292 575 Q327 575 349 598 Q371 621 382 670 L425 670 Q418 606 382 568.5 Q346 531 292 531 Q237 531 201 568.5 Q165 606 157 670 L201 670 Z M502 0 L457 0 L457 82 Q426 36 380 12 Q334 -12 277 -12 Q212 -12 160.5 19.5 Q109 51 80 106.5 Q51 162 51 233 Q51 302 79.5 356 Q108 410 159.5 440.5 Q211 471 276 471 Q334 471 377.5 449.5 Q421 428 457 381 L457 461 L502 461 L502 0 Z M278 429 Q228 429 186.5 403.5 Q145 378 121 333.5 Q97 289 97 235 Q97 176 120.5 129 Q144 82 185.5 55.5 Q227 29 278 29 Q330 29 371.5 55 Q413 81 436.5 128 Q460 175 460 235 Q460 284 446 319.5 Q432 355 402 381 Q376 404 343 416.5 Q310 429 278 429 Z " />
<glyph glyph-name="uni1EB7" unicode="&#x1eb7;" horiz-adv-x="582" d="M201 670 Q211 621 233.5 598 Q256 575 292 575 Q327 575 349 598 Q371 621 382 670 L425 670 Q418 606 382 568.5 Q346 531 292 531 Q237 531 201 568.5 Q165 606 157 670 L201 670 Z M502 0 L457 0 L457 82 Q426 36 380 12 Q334 -12 277 -12 Q212 -12 160.5 19.5 Q109 51 80 106.5 Q51 162 51 233 Q51 302 79.5 356 Q108 410 159.5 440.5 Q211 471 276 471 Q334 471 377.5 449.5 Q421 428 457 381 L457 461 L502 461 L502 0 Z M278 429 Q228 429 186.5 403.5 Q145 378 121 333.5 Q97 289 97 235 Q97 176 120.5 129 Q144 82 185.5 55.5 Q227 29 278 29 Q330 29 371.5 55 Q413 81 436.5 128 Q460 175 460 235 Q460 284 446 319.5 Q432 355 402 381 Q376 404 343 416.5 Q310 429 278 429 Z M278 -85 Q295 -85 307 -96.5 Q319 -108 319 -125 Q319 -143 307 -155 Q295 -167 278 -167 Q260 -167 248 -155 Q236 -143 236 -125 Q236 -109 248.5 -97 Q261 -85 278 -85 Z " />
<glyph glyph-name="uni1EB9" unicode="&#x1eb9;" horiz-adv-x="547" d="M101 225 Q102 189 107 166 Q112 143 125 121 Q148 80 190.5 54.5 Q233 29 280 29 Q311 29 342.5 41 Q374 53 397 73 Q420 96 443 136 L481 113 Q413 -12 277 -12 Q212 -12 160.5 19 Q109 50 80 104.5 Q51 159 51 228 Q51 297 80.5 352.5 Q110 408 161 439.5 Q212 471 276 471 Q340 471 389.5 440.5 Q439 410 467 354 Q495 298 496 225 L101 225 Z M444 268 Q431 341 384.5 385 Q338 429 275 429 Q211 429 163 384 Q115 339 104 268 L444 268 Z M261 -85 Q278 -85 290 -96.5 Q302 -108 302 -125 Q302 -143 290 -155 Q278 -167 261 -167 Q243 -167 231 -155 Q219 -143 219 -125 Q219 -109 231.5 -97 Q244 -85 261 -85 Z " />
<glyph glyph-name="uni1EBB" unicode="&#x1ebb;" horiz-adv-x="547" d="M101 225 Q102 189 107 166 Q112 143 125 121 Q148 80 190.5 54.5 Q233 29 280 29 Q311 29 342.5 41 Q374 53 397 73 Q420 96 443 136 L481 113 Q413 -12 277 -12 Q212 -12 160.5 19 Q109 50 80 104.5 Q51 159 51 228 Q51 297 80.5 352.5 Q110 408 161 439.5 Q212 471 276 471 Q340 471 389.5 440.5 Q439 410 467 354 Q495 298 496 225 L101 225 Z M444 268 Q431 341 384.5 385 Q338 429 275 429 Q211 429 163 384 Q115 339 104 268 L444 268 Z M240 618 Q246 619 272 624 Q309 629 323 639 Q337 649 337 670 Q337 694 320.5 707.5 Q304 721 274 721 Q259 721 251.5 719.5 Q244 718 233 711 Q225 706 214 702 L203 731 Q253 750 297 750 Q343 750 372 727 Q401 704 401 667 Q401 635 378.5 617 Q356 599 315 599 L278 600 L278 556 L240 556 L240 618 Z " />
<glyph glyph-name="uni1EBD" unicode="&#x1ebd;" horiz-adv-x="547" d="M132 575 Q161 641 210 641 Q228 641 242 636 Q256 631 307 608 Q325 599 340 599 Q354 599 365 609 Q376 619 386 642 L416 620 Q405 588 384.5 571.5 Q364 555 337 555 Q325 555 311.5 559 Q298 563 275 573 Q243 588 228 593 Q213 598 203 598 Q189 598 179.5 587.5 Q170 577 162 554 L132 575 Z M101 225 Q102 189 107 166 Q112 143 125 121 Q148 80 190.5 54.5 Q233 29 280 29 Q311 29 342.5 41 Q374 53 397 73 Q420 96 443 136 L481 113 Q413 -12 277 -12 Q212 -12 160.5 19 Q109 50 80 104.5 Q51 159 51 228 Q51 297 80.5 352.5 Q110 408 161 439.5 Q212 471 276 471 Q340 471 389.5 440.5 Q439 410 467 354 Q495 298 496 225 L101 225 Z M444 268 Q431 341 384.5 385 Q338 429 275 429 Q211 429 163 384 Q115 339 104 268 L444 268 Z " />
<glyph glyph-name="uni1EBF" unicode="&#x1ebf;" horiz-adv-x="547" d="M493 711 L382 589 L416 556 L380 528 L279 626 L179 528 L141 556 L279 685 L354 616 L445 741 L493 711 Z M101 225 Q102 189 107 166 Q112 143 125 121 Q148 80 190.5 54.5 Q233 29 280 29 Q311 29 342.5 41 Q374 53 397 73 Q420 96 443 136 L481 113 Q413 -12 277 -12 Q212 -12 160.5 19 Q109 50 80 104.5 Q51 159 51 228 Q51 297 80.5 352.5 Q110 408 161 439.5 Q212 471 276 471 Q340 471 389.5 440.5 Q439 410 467 354 Q495 298 496 225 L101 225 Z M444 268 Q431 341 384.5 385 Q338 429 275 429 Q211 429 163 384 Q115 339 104 268 L444 268 Z " />
<glyph glyph-name="uni1EC1" unicode="&#x1ec1;" horiz-adv-x="547" d="M492 620 L460 595 L325 721 L371 754 L492 620 Z M416 556 L380 528 L280 626 L179 528 L142 556 L280 685 L416 556 Z M101 225 Q102 189 107 166 Q112 143 125 121 Q148 80 190.5 54.5 Q233 29 280 29 Q311 29 342.5 41 Q374 53 397 73 Q420 96 443 136 L481 113 Q413 -12 277 -12 Q212 -12 160.5 19 Q109 50 80 104.5 Q51 159 51 228 Q51 297 80.5 352.5 Q110 408 161 439.5 Q212 471 276 471 Q340 471 389.5 440.5 Q439 410 467 354 Q495 298 496 225 L101 225 Z M444 268 Q431 341 384.5 385 Q338 429 275 429 Q211 429 163 384 Q115 339 104 268 L444 268 Z " />
<glyph glyph-name="uni1EC3" unicode="&#x1ec3;" horiz-adv-x="547" d="M407 643 Q444 648 458 658 Q472 668 472 689 Q472 713 455.5 726.5 Q439 740 409 740 Q394 740 386.5 738.5 Q379 737 368 730 Q360 725 349 721 L338 750 Q366 761 387.5 765.5 Q409 770 432 770 Q478 770 507 746.5 Q536 723 536 686 Q536 654 513.5 636 Q491 618 451 618 L412 619 L412 575 L395 575 L416 556 L380 528 L279 626 L179 528 L141 556 L279 685 L375 596 L375 637 L407 643 Z M101 225 Q102 189 107 166 Q112 143 125 121 Q148 80 190.5 54.5 Q233 29 280 29 Q311 29 342.5 41 Q374 53 397 73 Q420 96 443 136 L481 113 Q413 -12 277 -12 Q212 -12 160.5 19 Q109 50 80 104.5 Q51 159 51 228 Q51 297 80.5 352.5 Q110 408 161 439.5 Q212 471 276 471 Q340 471 389.5 440.5 Q439 410 467 354 Q495 298 496 225 L101 225 Z M444 268 Q431 341 384.5 385 Q338 429 275 429 Q211 429 163 384 Q115 339 104 268 L444 268 Z " />
<glyph glyph-name="uni1EC5" unicode="&#x1ec5;" horiz-adv-x="547" d="M145 705 Q174 770 223 770 Q240 770 254 765 Q268 760 320 737 Q338 729 353 729 Q367 729 377.5 738.5 Q388 748 399 772 L428 749 Q418 718 397.5 701.5 Q377 685 349 685 Q337 685 324 689 Q311 693 288 703 Q255 717 240.5 722 Q226 727 216 727 Q202 727 191.5 716.5 Q181 706 174 684 L145 705 Z M416 556 L380 528 L279 626 L179 528 L141 556 L279 685 L416 556 Z M101 225 Q102 189 107 166 Q112 143 125 121 Q148 80 190.5 54.5 Q233 29 280 29 Q311 29 342.5 41 Q374 53 397 73 Q420 96 443 136 L481 113 Q413 -12 277 -12 Q212 -12 160.5 19 Q109 50 80 104.5 Q51 159 51 228 Q51 297 80.5 352.5 Q110 408 161 439.5 Q212 471 276 471 Q340 471 389.5 440.5 Q439 410 467 354 Q495 298 496 225 L101 225 Z M444 268 Q431 341 384.5 385 Q338 429 275 429 Q211 429 163 384 Q115 339 104 268 L444 268 Z " />
<glyph glyph-name="uni1EC7" unicode="&#x1ec7;" horiz-adv-x="547" d="M416 556 L380 528 L279 626 L179 528 L141 556 L279 685 L416 556 Z M101 225 Q102 189 107 166 Q112 143 125 121 Q148 80 190.5 54.5 Q233 29 280 29 Q311 29 342.5 41 Q374 53 397 73 Q420 96 443 136 L481 113 Q413 -12 277 -12 Q212 -12 160.5 19 Q109 50 80 104.5 Q51 159 51 228 Q51 297 80.5 352.5 Q110 408 161 439.5 Q212 471 276 471 Q340 471 389.5 440.5 Q439 410 467 354 Q495 298 496 225 L101 225 Z M444 268 Q431 341 384.5 385 Q338 429 275 429 Q211 429 163 384 Q115 339 104 268 L444 268 Z M261 -85 Q278 -85 290 -96.5 Q302 -108 302 -125 Q302 -143 290 -155 Q278 -167 261 -167 Q243 -167 231 -155 Q219 -143 219 -125 Q219 -109 231.5 -97 Q244 -85 261 -85 Z " />
<glyph glyph-name="uni1EC9" unicode="&#x1ec9;" horiz-adv-x="207" d="M85 603 L116 609 Q154 614 168 624 Q182 634 182 655 Q182 679 165 692.5 Q148 706 119 706 Q104 706 96.5 704.5 Q89 703 78 696 Q70 691 59 687 L47 716 Q100 736 141 736 Q187 736 216 712.5 Q245 689 245 652 Q245 620 222.5 602 Q200 584 159 584 Q140 584 122 585 L122 541 L85 541 L85 603 Z M81 0 L81 461 L127 461 L127 0 L81 0 Z " />
<glyph glyph-name="uni1ECB" unicode="&#x1ecb;" horiz-adv-x="207" d="M103 655 Q120 655 132 643 Q144 631 144 615 Q144 597 132 585 Q120 573 103 573 Q86 573 74 585 Q62 597 62 615 Q62 632 74 643.5 Q86 655 103 655 Z M80 0 L80 461 L125 461 L125 0 L80 0 Z M104 -85 Q121 -85 133 -96.5 Q145 -108 145 -125 Q145 -143 133 -155 Q121 -167 104 -167 Q86 -167 74 -155 Q62 -143 62 -125 Q62 -109 74.5 -97 Q87 -85 104 -85 Z " />
<glyph glyph-name="uni1ECD" unicode="&#x1ecd;" horiz-adv-x="584" d="M293 471 Q359 471 414 439 Q469 407 501 351.5 Q533 296 533 229 Q533 162 501 107 Q469 52 413 20 Q357 -12 290 -12 Q224 -12 169 20.5 Q114 53 82.5 109.5 Q51 166 51 234 Q51 298 83.5 352.5 Q116 407 172 439 Q228 471 293 471 Z M289 429 Q236 429 192 402.5 Q148 376 122.5 329.5 Q97 283 97 226 Q97 173 123 127.5 Q149 82 193.5 55.5 Q238 29 290 29 Q345 29 390 55.5 Q435 82 461 127.5 Q487 173 487 229 Q487 285 461 330.5 Q435 376 389.5 402.5 Q344 429 289 429 Z M279 -85 Q296 -85 308 -96.5 Q320 -108 320 -125 Q320 -143 308 -155 Q296 -167 279 -167 Q261 -167 249 -155 Q237 -143 237 -125 Q237 -109 249.5 -97 Q262 -85 279 -85 Z " />
<glyph glyph-name="uni1ECF" unicode="&#x1ecf;" horiz-adv-x="584" d="M293 471 Q359 471 414 439 Q469 407 501 351.5 Q533 296 533 229 Q533 162 501 107 Q469 52 413 20 Q357 -12 290 -12 Q224 -12 169 20.5 Q114 53 82.5 109.5 Q51 166 51 234 Q51 298 83.5 352.5 Q116 407 172 439 Q228 471 293 471 Z M290 429 Q238 429 193.5 402.5 Q149 376 123 331 Q97 286 97 233 Q97 177 122.5 130 Q148 83 192 56 Q236 29 289 29 Q344 29 389.5 55.5 Q435 82 461 127.5 Q487 173 487 229 Q487 285 461 330.5 Q435 376 390 402.5 Q345 429 290 429 Z M262 618 Q268 619 294 624 Q331 629 345 639 Q359 649 359 670 Q359 694 342.5 707.5 Q326 721 296 721 Q281 721 273.5 719.5 Q266 718 255 711 Q247 706 236 702 L225 731 Q275 750 319 750 Q365 750 394 727 Q423 704 423 667 Q423 635 400.5 617 Q378 599 337 599 L300 600 L300 556 L262 556 L262 618 Z " />
<glyph glyph-name="uni1ED1" unicode="&#x1ed1;" horiz-adv-x="584" d="M514 698 L406 579 L429 556 L393 528 L293 626 L192 528 L155 556 L293 685 L376 606 L467 729 L514 698 Z M290 471 Q358 471 413.5 439 Q469 407 501 352 Q533 297 533 229 Q533 163 501 107.5 Q469 52 414 20 Q359 -12 293 -12 Q228 -12 172 20 Q116 52 83.5 107 Q51 162 51 226 Q51 293 82.5 349.5 Q114 406 169 438.5 Q224 471 290 471 Z M290 429 Q238 429 193.5 402.5 Q149 376 123 331 Q97 286 97 233 Q97 177 122.5 130 Q148 83 192 56 Q236 29 289 29 Q344 29 389.5 55.5 Q435 82 461 127.5 Q487 173 487 229 Q487 285 461 330.5 Q435 376 390 402.5 Q345 429 290 429 Z " />
<glyph glyph-name="uni1ED3" unicode="&#x1ed3;" horiz-adv-x="584" d="M505 620 L473 595 L338 721 L384 754 L505 620 Z M429 556 L393 528 L293 626 L192 528 L155 556 L293 685 L429 556 Z M290 471 Q358 471 413.5 439 Q469 407 501 352 Q533 297 533 229 Q533 163 501 107.5 Q469 52 414 20 Q359 -12 293 -12 Q228 -12 172 20 Q116 52 83.5 107 Q51 162 51 226 Q51 293 82.5 349.5 Q114 406 169 438.5 Q224 471 290 471 Z M290 429 Q238 429 193.5 402.5 Q149 376 123 331 Q97 286 97 233 Q97 177 122.5 130 Q148 83 192 56 Q236 29 289 29 Q344 29 389.5 55.5 Q435 82 461 127.5 Q487 173 487 229 Q487 285 461 330.5 Q435 376 390 402.5 Q345 429 290 429 Z " />
<glyph glyph-name="uni1ED5" unicode="&#x1ed5;" horiz-adv-x="584" d="M384 637 Q409 642 416 642 Q453 647 467 657 Q481 667 481 689 Q481 713 464.5 726.5 Q448 740 418 740 Q403 740 395.5 738.5 Q388 737 377 730 Q369 725 358 721 L347 749 Q376 760 397 765 Q418 770 441 770 Q487 770 516 746.5 Q545 723 545 686 Q545 654 522.5 636 Q500 618 460 618 L421 619 L421 575 L409 575 L429 556 L393 528 L293 626 L192 528 L155 556 L293 685 L384 599 L384 637 Z M290 471 Q358 471 413.5 439 Q469 407 501 352 Q533 297 533 229 Q533 163 501 107.5 Q469 52 414 20 Q359 -12 293 -12 Q228 -12 172 20 Q116 52 83.5 107 Q51 162 51 226 Q51 293 82.5 349.5 Q114 406 169 438.5 Q224 471 290 471 Z M290 429 Q238 429 193.5 402.5 Q149 376 123 331 Q97 286 97 233 Q97 177 122.5 130 Q148 83 192 56 Q236 29 289 29 Q344 29 389.5 55.5 Q435 82 461 127.5 Q487 173 487 229 Q487 285 461 330.5 Q435 376 390 402.5 Q345 429 290 429 Z " />
<glyph glyph-name="uni1ED7" unicode="&#x1ed7;" horiz-adv-x="584" d="M150 722 Q178 786 228 786 Q246 786 262 781 Q278 776 327 754 Q345 746 358 746 Q372 746 383.5 756 Q395 766 406 789 L434 766 Q424 735 403.5 718.5 Q383 702 355 702 Q343 702 330 706 Q317 710 294 720 Q262 734 247.5 739 Q233 744 223 744 Q208 744 198 734 Q188 724 180 701 L150 722 Z M429 556 L393 528 L293 626 L192 528 L155 556 L293 685 L429 556 Z M293 471 Q359 471 414 439 Q469 407 501 351.5 Q533 296 533 229 Q533 162 501 107 Q469 52 413 20 Q357 -12 290 -12 Q224 -12 169 20.5 Q114 53 82.5 109.5 Q51 166 51 234 Q51 298 83.5 352.5 Q116 407 172 439 Q228 471 293 471 Z M290 429 Q238 429 193.5 402.5 Q149 376 123 331 Q97 286 97 233 Q97 177 122.5 130 Q148 83 192 56 Q236 29 289 29 Q344 29 389.5 55.5 Q435 82 461 127.5 Q487 173 487 229 Q487 285 461 330.5 Q435 376 390 402.5 Q345 429 290 429 Z " />
<glyph glyph-name="uni1ED9" unicode="&#x1ed9;" horiz-adv-x="584" d="M429 556 L393 528 L293 626 L192 528 L155 556 L293 685 L429 556 Z M293 471 Q359 471 414 439 Q469 407 501 351.5 Q533 296 533 229 Q533 162 501 107 Q469 52 413 20 Q357 -12 290 -12 Q224 -12 169 20.5 Q114 53 82.5 109.5 Q51 166 51 234 Q51 298 83.5 352.5 Q116 407 172 439 Q228 471 293 471 Z M290 429 Q238 429 193.5 402.5 Q149 376 123 331 Q97 286 97 233 Q97 177 122.5 130 Q148 83 192 56 Q236 29 289 29 Q344 29 389.5 55.5 Q435 82 461 127.5 Q487 173 487 229 Q487 285 461 330.5 Q435 376 390 402.5 Q345 429 290 429 Z M279 -85 Q296 -85 308 -96.5 Q320 -108 320 -125 Q320 -143 308 -155 Q296 -167 279 -167 Q261 -167 249 -155 Q237 -143 237 -125 Q237 -109 249.5 -97 Q262 -85 279 -85 Z " />
<glyph glyph-name="uni1EDB" unicode="&#x1edb;" horiz-adv-x="584" d="M261 546 L365 687 L412 657 L295 528 L261 546 Z M576 470 L516 323 Q533 281 533 231 Q533 164 501 108 Q469 52 414.5 20 Q360 -12 293 -12 Q227 -12 171.5 20 Q116 52 83.5 107.5 Q51 163 51 229 Q51 295 83.5 350.5 Q116 406 171.5 438.5 Q227 471 293 471 Q352 471 403.5 444.5 Q455 418 489 371 L524 485 L576 470 Z M290 429 Q238 429 193.5 402.5 Q149 376 123 331 Q97 286 97 233 Q97 177 122.5 130 Q148 83 192 56 Q236 29 289 29 Q344 29 389.5 55.5 Q435 82 461 127.5 Q487 173 487 229 Q487 285 461 330.5 Q435 376 390 402.5 Q345 429 290 429 Z " />
<glyph glyph-name="uni1EDD" unicode="&#x1edd;" horiz-adv-x="584" d="M323 546 L290 528 L173 657 L220 687 L323 546 Z M576 470 L516 323 Q533 281 533 231 Q533 164 501 108 Q469 52 414.5 20 Q360 -12 293 -12 Q227 -12 171.5 20 Q116 52 83.5 107.5 Q51 163 51 229 Q51 295 83.5 350.5 Q116 406 171.5 438.5 Q227 471 293 471 Q352 471 403.5 444.5 Q455 418 489 371 L524 485 L576 470 Z M290 429 Q238 429 193.5 402.5 Q149 376 123 331 Q97 286 97 233 Q97 177 122.5 130 Q148 83 192 56 Q236 29 289 29 Q344 29 389.5 55.5 Q435 82 461 127.5 Q487 173 487 229 Q487 285 461 330.5 Q435 376 390 402.5 Q345 429 290 429 Z " />
<glyph glyph-name="uni1EDF" unicode="&#x1edf;" horiz-adv-x="584" d="M576 470 L516 323 Q533 281 533 231 Q533 164 501 108 Q469 52 414.5 20 Q360 -12 293 -12 Q227 -12 171.5 20 Q116 52 83.5 107.5 Q51 163 51 229 Q51 295 83.5 350.5 Q116 406 171.5 438.5 Q227 471 293 471 Q352 471 403.5 444.5 Q455 418 489 371 L524 485 L576 470 Z M290 429 Q238 429 193.5 402.5 Q149 376 123 331 Q97 286 97 233 Q97 177 122.5 130 Q148 83 192 56 Q236 29 289 29 Q344 29 389.5 55.5 Q435 82 461 127.5 Q487 173 487 229 Q487 285 461 330.5 Q435 376 390 402.5 Q345 429 290 429 Z M264 618 Q270 619 296 624 Q333 629 347 639 Q361 649 361 670 Q361 694 344.5 707.5 Q328 721 298 721 Q283 721 275.5 719.5 Q268 718 257 711 Q249 706 238 702 L227 731 Q277 750 321 750 Q367 750 396 727 Q425 704 425 667 Q425 635 402.5 617 Q380 599 339 599 L302 600 L302 556 L264 556 L264 618 Z " />
<glyph glyph-name="uni1EE1" unicode="&#x1ee1;" horiz-adv-x="584" d="M150 575 Q179 641 228 641 Q246 641 261 636 Q276 631 327 608 Q344 599 358 599 Q372 599 383.5 609 Q395 619 406 642 L434 620 Q424 588 403.5 571.5 Q383 555 355 555 Q343 555 330 559 Q317 563 294 573 Q262 588 247.5 593 Q233 598 223 598 Q208 598 198 587.5 Q188 577 180 554 L150 575 Z M576 470 L516 323 Q533 281 533 231 Q533 164 501 108 Q469 52 414.5 20 Q360 -12 293 -12 Q227 -12 171.5 20 Q116 52 83.5 107.5 Q51 163 51 229 Q51 295 83.5 350.5 Q116 406 171.5 438.5 Q227 471 293 471 Q352 471 403.5 444.5 Q455 418 489 371 L524 485 L576 470 Z M290 429 Q238 429 193.5 402.5 Q149 376 123 331 Q97 286 97 233 Q97 177 122.5 130 Q148 83 192 56 Q236 29 289 29 Q344 29 389.5 55.5 Q435 82 461 127.5 Q487 173 487 229 Q487 285 461 330.5 Q435 376 390 402.5 Q345 429 290 429 Z " />
<glyph glyph-name="uni1EE3" unicode="&#x1ee3;" horiz-adv-x="584" d="M576 470 L516 323 Q533 281 533 231 Q533 164 501 108 Q469 52 414.5 20 Q360 -12 293 -12 Q227 -12 171.5 20 Q116 52 83.5 107.5 Q51 163 51 229 Q51 295 83.5 350.5 Q116 406 171.5 438.5 Q227 471 293 471 Q352 471 403.5 444.5 Q455 418 489 371 L524 485 L576 470 Z M290 429 Q238 429 193.5 402.5 Q149 376 123 331 Q97 286 97 233 Q97 177 122.5 130 Q148 83 192 56 Q236 29 289 29 Q344 29 389.5 55.5 Q435 82 461 127.5 Q487 173 487 229 Q487 285 461 330.5 Q435 376 390 402.5 Q345 429 290 429 Z M279 -85 Q296 -85 308 -96.5 Q320 -108 320 -125 Q320 -143 308 -155 Q296 -167 279 -167 Q261 -167 249 -155 Q237 -143 237 -125 Q237 -109 249.5 -97 Q262 -85 279 -85 Z " />
<glyph glyph-name="uni1EE5" unicode="&#x1ee5;" horiz-adv-x="493" d="M366 80 Q341 31 308 10 Q275 -11 227 -11 Q186 -11 154 5.5 Q122 22 104 52 Q80 91 80 171 L80 461 L125 461 L125 171 Q125 100 150 64.5 Q175 29 237 29 Q299 29 336 88 Q353 118 359.5 146 Q366 174 366 221 L366 461 L411 461 L411 0 L366 0 L366 80 Z M255 -85 Q272 -85 284 -96.5 Q296 -108 296 -125 Q296 -143 284 -155 Q272 -167 255 -167 Q238 -167 225.5 -155 Q213 -143 213 -125 Q213 -109 225.5 -97 Q238 -85 255 -85 Z " />
<glyph glyph-name="uni1EE7" unicode="&#x1ee7;" horiz-adv-x="493" d="M366 80 Q341 31 308 10 Q275 -11 227 -11 Q186 -11 154 5.5 Q122 22 104 52 Q80 91 80 171 L80 461 L125 461 L125 171 Q125 100 150 64.5 Q175 29 237 29 Q299 29 336 88 Q353 118 359.5 146 Q366 174 366 221 L366 461 L411 461 L411 0 L366 0 L366 80 Z M211 618 Q217 619 243 624 Q280 629 294 639 Q308 649 308 670 Q308 694 291.5 707.5 Q275 721 245 721 Q230 721 222.5 719.5 Q215 718 204 711 Q196 706 185 702 L174 731 Q224 750 268 750 Q314 750 343 727 Q372 704 372 667 Q372 635 349.5 617 Q327 599 286 599 L249 600 L249 556 L211 556 L211 618 Z " />
<glyph glyph-name="uni1EE9" unicode="&#x1ee9;" horiz-adv-x="493" d="M496 310 L460 322 L511 486 L563 471 L496 310 Z M366 80 Q341 31 308 10 Q275 -11 227 -11 Q186 -11 154 5.5 Q122 22 104 52 Q80 91 80 171 L80 461 L125 461 L125 171 Q125 100 150 64.5 Q175 29 237 29 Q299 29 336 88 Q353 118 359.5 146 Q366 174 366 221 L366 461 L411 461 L411 0 L366 0 L366 80 Z M216 546 L319 687 L367 657 L249 528 L216 546 Z " />
<glyph glyph-name="uni1EEB" unicode="&#x1eeb;" horiz-adv-x="493" d="M496 310 L460 322 L511 486 L563 471 L496 310 Z M366 80 Q341 31 308 10 Q275 -11 227 -11 Q186 -11 154 5.5 Q122 22 104 52 Q80 91 80 171 L80 461 L125 461 L125 171 Q125 100 150 64.5 Q175 29 237 29 Q299 29 336 88 Q353 118 359.5 146 Q366 174 366 221 L366 461 L411 461 L411 0 L366 0 L366 80 Z M278 546 L244 528 L127 657 L174 687 L278 546 Z " />
<glyph glyph-name="uni1EED" unicode="&#x1eed;" horiz-adv-x="493" d="M496 310 L460 322 L511 486 L563 471 L496 310 Z M366 80 Q341 31 308 10 Q275 -11 227 -11 Q186 -11 154 5.5 Q122 22 104 52 Q80 91 80 171 L80 461 L125 461 L125 171 Q125 100 150 64.5 Q175 29 237 29 Q299 29 336 88 Q353 118 359.5 146 Q366 174 366 221 L366 461 L411 461 L411 0 L366 0 L366 80 Z M229 618 Q235 619 261 624 Q298 629 312 639 Q326 649 326 670 Q326 694 309.5 707.5 Q293 721 263 721 Q248 721 240.5 719.5 Q233 718 222 711 Q214 706 203 702 L192 731 Q242 750 286 750 Q332 750 361 727 Q390 704 390 667 Q390 635 367.5 617 Q345 599 304 599 L267 600 L267 556 L229 556 L229 618 Z " />
<glyph glyph-name="uni1EEF" unicode="&#x1eef;" horiz-adv-x="493" d="M496 310 L460 322 L511 486 L563 471 L496 310 Z M366 80 Q341 31 308 10 Q275 -11 227 -11 Q186 -11 154 5.5 Q122 22 104 52 Q80 91 80 171 L80 461 L125 461 L125 171 Q125 100 150 64.5 Q175 29 237 29 Q299 29 336 88 Q353 118 359.5 146 Q366 174 366 221 L366 461 L411 461 L411 0 L366 0 L366 80 Z M104 575 Q133 641 182 641 Q200 641 215 636 Q230 631 280 608 Q298 599 312 599 Q326 599 337.5 609 Q349 619 359 642 L388 620 Q378 588 357.5 571.5 Q337 555 309 555 Q297 555 284 559 Q271 563 248 573 Q216 587 201 592.5 Q186 598 176 598 Q162 598 152 587.5 Q142 577 133 554 L104 575 Z " />
<glyph glyph-name="uni1EF1" unicode="&#x1ef1;" horiz-adv-x="493" d="M496 310 L460 322 L511 486 L563 471 L496 310 Z M366 80 Q341 31 308 10 Q275 -11 227 -11 Q186 -11 154 5.5 Q122 22 104 52 Q80 91 80 171 L80 461 L125 461 L125 171 Q125 100 150 64.5 Q175 29 237 29 Q299 29 336 88 Q353 118 359.5 146 Q366 174 366 221 L366 461 L411 461 L411 0 L366 0 L366 80 Z M262 -85 Q279 -85 291 -96.5 Q303 -108 303 -125 Q303 -143 291 -155 Q279 -167 262 -167 Q245 -167 232.5 -155 Q220 -143 220 -125 Q220 -109 232.5 -97 Q245 -85 262 -85 Z " />
<glyph glyph-name="uni1EF5" unicode="&#x1ef5;" horiz-adv-x="484" d="M62 461 L251 52 L423 461 L475 461 L165 -270 L114 -270 L227 -8 L9 461 L62 461 Z M312 -162 Q329 -162 341 -174 Q353 -186 353 -202 Q353 -220 341 -232 Q329 -244 312 -244 Q294 -244 282 -232 Q270 -220 270 -202 Q270 -186 282.5 -174 Q295 -162 312 -162 Z " />
<glyph glyph-name="uni1EF7" unicode="&#x1ef7;" horiz-adv-x="484" d="M62 461 L251 52 L423 461 L475 461 L165 -270 L114 -270 L227 -8 L9 461 L62 461 Z M226 618 Q232 619 258 624 Q295 629 309 639 Q323 649 323 670 Q323 694 306.5 707.5 Q290 721 260 721 Q245 721 237.5 719.5 Q230 718 219 711 Q211 706 200 702 L189 731 Q239 750 283 750 Q329 750 358 727 Q387 704 387 667 Q387 635 364.5 617 Q342 599 301 599 L264 600 L264 556 L226 556 L226 618 Z " />
<glyph glyph-name="uni1EF9" unicode="&#x1ef9;" horiz-adv-x="484" d="M99 575 Q129 641 179 641 Q195 641 210 636 Q225 631 276 608 Q292 599 308 599 Q323 599 333.5 608.5 Q344 618 355 642 L384 620 Q374 588 353 571.5 Q332 555 305 555 Q292 555 279.5 558.5 Q267 562 243 573 Q211 588 196.5 593 Q182 598 172 598 Q145 598 130 554 L99 575 Z M62 461 L251 52 L423 461 L475 461 L165 -270 L114 -270 L227 -8 L9 461 L62 461 Z " />
<glyph glyph-name="uogonek" unicode="&#x173;" horiz-adv-x="493" d="M370 -197 Q330 -197 305 -173.5 Q280 -150 280 -112 Q280 -76 300.5 -49.5 Q321 -23 366 0 L366 80 Q341 31 308 10 Q275 -11 227 -11 Q186 -11 154 5.5 Q122 22 104 52 Q80 91 80 171 L80 461 L125 461 L125 171 Q125 100 150 64.5 Q175 29 237 29 Q299 29 336 88 Q353 118 359.5 146 Q366 174 366 221 L366 461 L411 461 L411 0 Q331 -49 331 -103 Q331 -128 344.5 -142 Q358 -156 381 -156 Q394 -156 407.5 -152 Q421 -148 442 -137 L432 -182 Q399 -197 370 -197 Z " />
<glyph glyph-name="uring" unicode="&#x16f;" horiz-adv-x="493" d="M366 80 Q341 31 308 10 Q275 -11 227 -11 Q186 -11 154 5.5 Q122 22 104 52 Q80 91 80 171 L80 461 L125 461 L125 171 Q125 100 150 64.5 Q175 29 237 29 Q299 29 336 88 Q353 118 359.5 146 Q366 174 366 221 L366 461 L411 461 L411 0 L366 0 L366 80 Z M245 701 Q282 701 307 676 Q332 651 332 615 Q332 578 307 553 Q282 528 247 528 Q210 528 184.5 553 Q159 578 159 615 Q159 650 184.5 675.5 Q210 701 245 701 Z M245 660 Q227 660 213 646.5 Q199 633 199 615 Q199 595 212.5 581 Q226 567 247 567 Q266 567 279.5 581 Q293 595 293 614 Q293 633 279 646.5 Q265 660 245 660 Z " />
<glyph glyph-name="utilde" unicode="&#x169;" horiz-adv-x="493" d="M366 80 Q341 31 308 10 Q275 -11 227 -11 Q186 -11 154 5.5 Q122 22 104 52 Q80 91 80 171 L80 461 L125 461 L125 171 Q125 100 150 64.5 Q175 29 237 29 Q299 29 336 88 Q353 118 359.5 146 Q366 174 366 221 L366 461 L411 461 L411 0 L366 0 L366 80 Z M104 575 Q133 641 182 641 Q200 641 215 636 Q230 631 280 608 Q298 599 312 599 Q326 599 337.5 609 Q349 619 359 642 L388 620 Q378 588 357.5 571.5 Q337 555 309 555 Q297 555 284 559 Q271 563 248 573 Q216 587 201 592.5 Q186 598 176 598 Q162 598 152 587.5 Q142 577 133 554 L104 575 Z " />
<glyph glyph-name="v" unicode="v" horiz-adv-x="441" d="M381 461 L432 461 L221 -28 L9 461 L62 461 L221 88 L381 461 Z " />
<glyph glyph-name="w" unicode="w" horiz-adv-x="759" d="M377 489 L537 90 L697 461 L750 461 L537 -28 L377 372 L218 -28 L9 461 L61 461 L217 90 L377 489 Z " />
<glyph glyph-name="wacute" unicode="&#x1e83;" horiz-adv-x="759" d="M304 546 L408 687 L455 657 L338 528 L304 546 Z M377 489 L537 90 L697 461 L750 461 L537 -28 L377 372 L218 -28 L9 461 L61 461 L217 90 L377 489 Z " />
<glyph glyph-name="wcircumflex" unicode="&#x175;" horiz-adv-x="759" d="M518 556 L480 528 L380 626 L279 528 L242 556 L380 685 L518 556 Z M377 489 L537 90 L697 461 L750 461 L537 -28 L377 372 L218 -28 L9 461 L61 461 L217 90 L377 489 Z " />
<glyph glyph-name="wdieresis" unicode="&#x1e85;" horiz-adv-x="759" d="M287 640 Q304 640 316 628 Q328 616 328 599 Q328 581 316 569 Q304 557 287 557 Q269 557 257 569 Q245 581 245 599 Q245 616 257.5 628 Q270 640 287 640 Z M475 640 Q491 640 503 628 Q515 616 515 599 Q515 581 503.5 569 Q492 557 475 557 Q457 557 445 569 Q433 581 433 599 Q433 616 445.5 628 Q458 640 475 640 Z M377 489 L537 90 L697 461 L750 461 L537 -28 L377 372 L218 -28 L9 461 L61 461 L217 90 L377 489 Z " />
<glyph glyph-name="wgrave" unicode="&#x1e81;" horiz-adv-x="759" d="M455 546 L421 528 L304 657 L351 687 L455 546 Z M377 489 L537 90 L697 461 L750 461 L537 -28 L377 372 L218 -28 L9 461 L61 461 L217 90 L377 489 Z " />
<glyph glyph-name="x" unicode="x" horiz-adv-x="453" d="M85 461 L227 277 L367 461 L426 461 L259 242 L444 0 L385 0 L227 207 L69 0 L9 0 L197 242 L26 461 L85 461 Z " />
<glyph glyph-name="y" unicode="y" horiz-adv-x="484" d="M62 461 L251 52 L423 461 L475 461 L165 -270 L114 -270 L227 -8 L9 461 L62 461 Z " />
<glyph glyph-name="yacute" unicode="&#xfd;" horiz-adv-x="484" d="M200 546 L304 687 L351 657 L234 528 L200 546 Z M62 461 L251 52 L423 461 L475 461 L165 -270 L114 -270 L227 -8 L9 461 L62 461 Z " />
<glyph glyph-name="ycircumflex" unicode="&#x177;" horiz-adv-x="484" d="M380 556 L342 528 L242 626 L141 528 L104 556 L242 685 L380 556 Z M62 461 L251 52 L423 461 L475 461 L165 -270 L114 -270 L227 -8 L9 461 L62 461 Z " />
<glyph glyph-name="ydieresis" unicode="&#xff;" horiz-adv-x="484" d="M149 640 Q166 640 178 628 Q190 616 190 599 Q190 581 178 569 Q166 557 149 557 Q131 557 119 569 Q107 581 107 599 Q107 615 119.5 627.5 Q132 640 149 640 Z M337 640 Q353 640 365 628 Q377 616 377 599 Q377 581 365.5 569 Q354 557 337 557 Q319 557 307 569 Q295 581 295 599 Q295 616 307.5 628 Q320 640 337 640 Z M62 461 L251 52 L423 461 L475 461 L165 -270 L114 -270 L227 -8 L9 461 L62 461 Z " />
<glyph glyph-name="ygrave" unicode="&#x1ef3;" horiz-adv-x="484" d="M318 546 L284 528 L166 657 L214 687 L318 546 Z M62 461 L251 52 L423 461 L475 461 L165 -270 L114 -270 L227 -8 L9 461 L62 461 Z " />
<glyph glyph-name="z" unicode="z" horiz-adv-x="512" d="M489 0 L20 0 L397 419 L80 419 L80 461 L492 461 L118 42 L489 42 L489 0 Z " />
<glyph glyph-name="zacute" unicode="&#x17a;" horiz-adv-x="512" d="M241 546 L344 687 L391 657 L273 528 L241 546 Z M489 0 L20 0 L397 419 L80 419 L80 461 L492 461 L118 42 L489 42 L489 0 Z " />
<glyph glyph-name="zcaron" unicode="&#x17e;" horiz-adv-x="512" d="M286 586 L386 685 L424 657 L286 528 L148 657 L185 685 L286 586 Z M489 0 L20 0 L397 419 L80 419 L80 461 L492 461 L118 42 L489 42 L489 0 Z " />
<glyph glyph-name="zdotaccent" unicode="&#x17c;" horiz-adv-x="512" d="M285 643 Q304 643 316.5 630.5 Q329 618 329 600 Q329 582 316.5 569.5 Q304 557 286 557 Q267 557 254.5 569.5 Q242 582 242 600 Q242 618 254.5 630.5 Q267 643 285 643 Z M489 0 L20 0 L397 419 L80 419 L80 461 L492 461 L118 42 L489 42 L489 0 Z " />
<glyph glyph-name="ff" unicode="&#xfb00;" horiz-adv-x="480" d="M80 0 L80 419 L29 419 L29 461 L80 461 L80 680 Q80 755 103 789 Q137 837 201 837 Q222 837 242 831 L242 789 Q221 794 206 794 Q163 794 144 765.5 Q125 737 125 671 L125 461 L234 461 L234 419 L125 419 L125 0 L80 0 Z M321 0 L321 419 L270 419 L270 461 L321 461 L321 680 Q321 755 344 789 Q360 812 385.5 824.5 Q411 837 442 837 Q463 837 483 831 L483 789 Q462 794 446 794 Q403 794 384.5 765.5 Q366 737 366 671 L366 461 L483 461 L483 419 L366 419 L366 0 L321 0 Z " />
<glyph glyph-name="ffi" unicode="&#xfb03;" horiz-adv-x="687" d="M80 0 L80 419 L29 419 L29 461 L80 461 L80 680 Q80 755 103 789 Q137 837 201 837 Q222 837 242 831 L242 789 Q221 794 206 794 Q163 794 144 765.5 Q125 737 125 671 L125 461 L234 461 L234 419 L125 419 L125 0 L80 0 Z M321 0 L321 419 L270 419 L270 461 L321 461 L321 680 Q321 755 344 789 Q360 812 385.5 824.5 Q411 837 442 837 Q463 837 483 831 L483 789 Q462 794 446 794 Q403 794 384.5 765.5 Q366 737 366 671 L366 461 L483 461 L483 419 L366 419 L366 0 L321 0 Z M583 655 Q600 655 612 643.5 Q624 632 624 615 Q624 597 612 585 Q600 573 583 573 Q566 573 554 585 Q542 597 542 615 Q542 632 554 643.5 Q566 655 583 655 Z M560 0 L560 461 L606 461 L606 0 L560 0 Z " />
<glyph glyph-name="ffl" unicode="&#xfb04;" horiz-adv-x="687" d="M80 0 L80 419 L29 419 L29 461 L80 461 L80 680 Q80 755 103 789 Q137 837 201 837 Q222 837 242 831 L242 789 Q221 794 206 794 Q163 794 144 765.5 Q125 737 125 671 L125 461 L234 461 L234 419 L125 419 L125 0 L80 0 Z M321 0 L321 419 L270 419 L270 461 L321 461 L321 680 Q321 755 344 789 Q360 812 385.5 824.5 Q411 837 442 837 Q463 837 483 831 L483 789 Q459 794 446 794 Q403 794 384.5 765.5 Q366 737 366 671 L366 461 L483 461 L483 419 L366 419 L366 0 L321 0 Z M560 0 L560 824 L606 824 L606 0 L560 0 Z " />
<glyph glyph-name="fi" unicode="&#xfb01;" horiz-adv-x="446" d="M80 0 L80 419 L29 419 L29 461 L80 461 L80 680 Q80 755 103 789 Q119 812 144.5 824.5 Q170 837 201 837 Q222 837 242 831 L242 789 Q221 794 206 794 Q163 794 144 765.5 Q125 737 125 671 L125 461 L242 461 L242 419 L125 419 L125 0 L80 0 Z M344 655 Q361 655 372.5 643.5 Q384 632 384 615 Q384 597 372.5 585 Q361 573 344 573 Q327 573 315 585 Q303 597 303 615 Q303 632 315 643.5 Q327 655 344 655 Z M321 0 L321 461 L366 461 L366 0 L321 0 Z " />
<glyph glyph-name="fl" unicode="&#xfb02;" horiz-adv-x="446" d="M80 0 L80 419 L29 419 L29 461 L80 461 L80 680 Q80 755 103 789 Q119 812 144.5 824.5 Q170 837 201 837 Q222 837 242 831 L242 789 Q221 794 206 794 Q163 794 144 765.5 Q125 737 125 671 L125 461 L242 461 L242 419 L125 419 L125 0 L80 0 Z M321 0 L321 824 L366 824 L366 0 L321 0 Z " />
<glyph glyph-name="ordfeminine" unicode="&#xaa;" horiz-adv-x="381" d="M328 444 L298 444 L298 499 Q256 437 181 437 Q139 437 105 458 Q71 479 52 515.5 Q33 552 33 597 Q33 666 74 710 Q115 754 180 754 Q218 754 247 740 Q276 726 298 695 L298 747 L328 747 L328 444 Z M182 727 Q131 727 97 690.5 Q63 654 63 600 Q63 541 96.5 502.5 Q130 464 182 464 Q234 464 267.5 502 Q301 540 301 599 Q301 632 292 655 Q283 678 263 695 Q246 710 224.5 718.5 Q203 727 182 727 Z " />
<glyph glyph-name="ordmasculine" unicode="&#xba;" horiz-adv-x="383" d="M191 754 Q235 754 271 733 Q307 712 328 676 Q349 640 349 596 Q349 552 328 515.5 Q307 479 270.5 458 Q234 437 190 437 Q147 437 111 458.5 Q75 480 54 517 Q33 554 33 598 Q33 640 54.5 676 Q76 712 112 733 Q148 754 191 754 Z M190 727 Q156 727 126.5 709.5 Q97 692 80 662.5 Q63 633 63 598 Q63 561 80 530.5 Q97 500 126 482 Q155 464 189 464 Q244 464 281.5 502 Q319 540 319 596 Q319 651 281.5 689 Q244 727 190 727 Z " />
<glyph glyph-name="uni0410" unicode="&#x410;" horiz-adv-x="660" d="M69 0 L15 0 L331 776 L645 0 L590 0 L490 247 L169 247 L69 0 Z M188 293 L472 293 L331 650 L188 293 Z " />
<glyph glyph-name="uni0411" unicode="&#x411;" horiz-adv-x="581" d="M472 754 L472 709 L150 709 L150 440 L278 440 Q345 440 388 429 Q431 418 460 393 Q494 365 512.5 320.5 Q531 276 531 220 Q531 159 509 111.5 Q487 64 447 36 Q419 17 378.5 8.5 Q338 0 278 0 L102 0 L102 754 L472 754 Z M266 45 Q339 45 377.5 56 Q416 67 440 94 Q459 115 470 149 Q481 183 481 220 Q481 261 467 297.5 Q453 334 429 356 Q407 377 369.5 385.5 Q332 394 266 394 L150 394 L150 45 L266 45 Z " />
<glyph glyph-name="uni0412" unicode="&#x412;" horiz-adv-x="602" d="M264 754 Q319 754 356 740.5 Q393 727 421 696 Q472 640 472 556 Q472 502 452 466.5 Q432 431 384 400 Q417 392 436 383 Q455 374 472 359 Q505 333 523 293.5 Q541 254 541 209 Q541 162 521.5 120.5 Q502 79 466 50 Q434 24 395.5 12 Q357 0 306 0 L102 0 L102 754 L264 754 Z M246 412 Q298 412 323 418.5 Q348 425 372 444 Q398 464 409.5 491 Q421 518 421 557 Q421 596 408 627 Q395 658 372 677 Q348 694 319.5 701.5 Q291 709 246 709 L150 709 L150 412 L246 412 Z M277 45 Q344 45 377 54 Q410 63 440 90 Q465 113 478.5 144 Q492 175 492 209 Q492 255 469.5 292 Q447 329 409 346 Q358 367 268 367 L150 367 L150 45 L277 45 Z " />
<glyph glyph-name="uni0413" unicode="&#x413;" horiz-adv-x="515" d="M488 754 L488 709 L150 709 L150 0 L102 0 L102 754 L488 754 Z " />
<glyph glyph-name="uni0403" unicode="&#x403;" horiz-adv-x="515" d="M226 835 L364 957 L416 922 L266 806 L226 835 Z M488 754 L488 709 L150 709 L150 0 L102 0 L102 754 L488 754 Z " />
<glyph glyph-name="uni0490" unicode="&#x490;" horiz-adv-x="515" d="M440 754 L440 824 L488 824 L488 709 L150 709 L150 0 L102 0 L102 754 L440 754 Z " />
<glyph glyph-name="uni0414" unicode="&#x414;" horiz-adv-x="671" d="M3 45 Q26 43 52 58 Q78 73 99.5 101.5 Q121 130 131 163 Q148 212 164.5 385 Q181 558 185 754 L560 754 L560 45 L623 45 L623 -145 L574 -145 L574 0 L21 0 L21 -145 L-27 -145 L-27 45 L3 45 Z M512 709 L237 709 Q225 444 211 316 Q197 188 171.5 130.5 Q146 73 96 45 L512 45 L512 709 Z " />
<glyph glyph-name="uni0415" unicode="&#x415;" horiz-adv-x="523" d="M462 754 L462 709 L150 709 L150 435 L455 435 L455 390 L150 390 L150 45 L462 45 L462 0 L102 0 L102 754 L462 754 Z " />
<glyph glyph-name="uni0400" unicode="&#x400;" horiz-adv-x="523" d="M358 835 L319 806 L169 922 L221 957 L358 835 Z M150 435 L455 435 L455 390 L150 390 L150 45 L462 45 L462 0 L102 0 L102 754 L462 754 L462 709 L150 709 L150 435 Z " />
<glyph glyph-name="uni0401" unicode="&#x401;" horiz-adv-x="523" d="M181 921 Q199 921 211.5 908.5 Q224 896 224 878 Q224 859 211.5 846.5 Q199 834 181 834 Q162 834 149.5 846.5 Q137 859 137 878 Q137 896 149.5 908.5 Q162 921 181 921 Z M391 921 Q409 921 421.5 908.5 Q434 896 434 878 Q434 859 421.5 846.5 Q409 834 391 834 Q372 834 359.5 846.5 Q347 859 347 878 Q347 896 359.5 908.5 Q372 921 391 921 Z M462 754 L462 709 L150 709 L150 435 L455 435 L455 390 L150 390 L150 45 L462 45 L462 0 L102 0 L102 754 L462 754 Z " />
<glyph glyph-name="uni0416" unicode="&#x416;" horiz-adv-x="939" d="M407 368 L87 0 L15 0 L357 385 L37 754 L105 754 L395 414 L445 414 L445 754 L494 754 L494 414 L542 414 L833 754 L901 754 L581 385 L923 0 L851 0 L531 368 L494 368 L494 0 L445 0 L445 368 L407 368 Z " />
<glyph glyph-name="uni0417" unicode="&#x417;" horiz-adv-x="610" d="M244 423 Q356 423 408 447 Q487 485 487 572 Q487 642 427 681 Q367 720 259 720 Q204 720 160.5 710.5 Q117 701 71 679 L71 733 Q118 750 163.5 758 Q209 766 262 766 Q390 766 463.5 714.5 Q537 663 537 573 Q537 534 521 499.5 Q505 465 476 441 Q457 425 438.5 416.5 Q420 408 385 399 Q551 353 551 205 Q551 99 477 44 Q403 -11 263 -11 Q152 -11 54 26 L54 84 Q109 58 160 46.5 Q211 35 268 35 Q382 35 441.5 77.5 Q501 120 501 201 Q501 287 435.5 332 Q370 377 243 377 L177 377 L177 423 L244 423 Z " />
<glyph glyph-name="uni0418" unicode="&#x418;" horiz-adv-x="758" d="M150 113 L657 762 L657 0 L608 0 L608 629 L102 -19 L102 754 L150 754 L150 113 Z " />
<glyph glyph-name="uni0419" unicode="&#x419;" horiz-adv-x="758" d="M286 944 Q298 900 320 880 Q342 860 379 860 Q416 860 438.5 880.5 Q461 901 471 944 L519 944 Q512 882 474 846 Q436 810 379 810 Q321 810 283.5 846 Q246 882 238 944 L286 944 Z M150 113 L657 762 L657 0 L608 0 L608 629 L102 -19 L102 754 L150 754 L150 113 Z " />
<glyph glyph-name="uni040D" unicode="&#x40d;" horiz-adv-x="758" d="M473 835 L434 806 L285 922 L337 957 L473 835 Z M150 113 L657 762 L657 0 L608 0 L608 629 L102 -19 L102 754 L150 754 L150 113 Z " />
<glyph glyph-name="uni041A" unicode="&#x41a;" horiz-adv-x="609" d="M150 754 L150 393 L504 754 L571 754 L207 386 L594 0 L522 0 L150 377 L150 0 L102 0 L102 754 L150 754 Z " />
<glyph glyph-name="uni040C" unicode="&#x40c;" horiz-adv-x="609" d="M273 835 L411 957 L463 922 L313 806 L273 835 Z M150 754 L150 393 L504 754 L571 754 L207 386 L594 0 L522 0 L150 377 L150 0 L102 0 L102 754 L150 754 Z " />
<glyph glyph-name="uni041B" unicode="&#x41b;" horiz-adv-x="652" d="M550 0 L502 0 L502 709 L241 709 L240 685 Q231 508 222 398 Q213 288 201 220 Q182 104 139.5 51 Q97 -2 24 -2 Q8 -2 -7 0 L-7 47 Q16 43 24 43 Q102 43 136 168 Q154 239 169 401.5 Q184 564 189 754 L550 754 L550 0 Z " />
<glyph glyph-name="uni041C" unicode="&#x41c;" horiz-adv-x="944" d="M469 82 L798 780 L884 0 L834 0 L766 606 L469 -27 L174 606 L109 0 L59 0 L144 780 L469 82 Z " />
<glyph glyph-name="uni041D" unicode="&#x41d;" horiz-adv-x="758" d="M150 754 L150 434 L608 434 L608 754 L657 754 L657 0 L608 0 L608 389 L150 389 L150 0 L102 0 L102 754 L150 754 Z " />
<glyph glyph-name="uni041E" unicode="&#x41e;" horiz-adv-x="902" d="M450 764 Q555 764 645 711.5 Q735 659 788 569.5 Q841 480 841 376 Q841 271 787.5 182 Q734 93 643.5 40.5 Q553 -12 447 -12 Q343 -12 254 41.5 Q165 95 112.5 185.5 Q60 276 60 382 Q60 482 114 570 Q168 658 257.5 711 Q347 764 450 764 Z M450 718 Q360 718 282 672 Q204 626 157.5 548 Q111 470 111 381 Q111 226 220 125 Q268 82 327.5 58 Q387 34 447 34 Q540 34 619 80 Q698 126 744 205 Q790 284 790 376 Q790 468 744 546.5 Q698 625 619.5 671.5 Q541 718 450 718 Z " />
<glyph glyph-name="uni041F" unicode="&#x41f;" horiz-adv-x="744" d="M642 754 L642 0 L593 0 L593 709 L150 709 L150 0 L102 0 L102 754 L642 754 Z " />
<glyph glyph-name="uni0420" unicode="&#x420;" horiz-adv-x="503" d="M102 0 L102 754 L246 754 Q304 754 343.5 740.5 Q383 727 411 696 Q437 669 451.5 632.5 Q466 596 466 556 Q466 464 407.5 411 Q349 358 247 358 L150 358 L150 0 L102 0 Z M249 403 Q324 403 369.5 444.5 Q415 486 415 556 Q415 589 404 618.5 Q393 648 374 667 Q352 689 320.5 699 Q289 709 242 709 L150 709 L150 403 L249 403 Z " />
<glyph glyph-name="uni0421" unicode="&#x421;" horiz-adv-x="765" d="M704 599 Q650 660 585 689 Q520 718 440 718 Q346 718 271 672 Q196 626 153.5 545 Q111 464 111 363 Q111 284 137 220.5 Q163 157 215 112 Q257 73 315 52.5 Q373 32 436 32 Q488 32 542 47.5 Q596 63 638 90 Q655 101 668.5 112.5 Q682 124 704 147 L704 81 Q639 29 578 7.5 Q517 -14 437 -14 Q326 -14 240.5 33.5 Q155 81 107.5 167 Q60 253 60 364 Q60 479 109 570 Q158 661 245.5 712.5 Q333 764 443 764 Q521 764 582 741.5 Q643 719 704 667 L704 599 Z " />
<glyph glyph-name="uni0422" unicode="&#x422;" horiz-adv-x="469" d="M15 709 L15 754 L453 754 L453 709 L257 709 L257 0 L208 0 L208 709 L15 709 Z " />
<glyph glyph-name="uni0423" unicode="&#x423;" horiz-adv-x="565" d="M15 754 L72 754 L287 375 L507 754 L565 754 L121 0 L68 0 L261 322 L15 754 Z " />
<glyph glyph-name="uni040E" unicode="&#x40e;" horiz-adv-x="565" d="M200 944 Q211 900 233.5 880 Q256 860 293 860 Q329 860 351.5 880.5 Q374 901 385 944 L433 944 Q425 882 388 846 Q351 810 293 810 Q235 810 197.5 846 Q160 882 153 944 L200 944 Z M15 754 L72 754 L287 375 L507 754 L565 754 L121 0 L68 0 L261 322 L15 754 Z " />
<glyph glyph-name="uni0424" unicode="&#x424;" horiz-adv-x="958" d="M453 53 Q317 57 226 106 Q146 150 103 220 Q60 290 60 376 Q60 468 110.5 542 Q161 616 252 657 Q329 693 453 698 L453 814 L502 814 L502 698 Q643 694 731 645 Q811 601 854 531 Q897 461 897 376 Q897 284 847 209.5 Q797 135 706 94 Q624 57 502 53 L502 -60 L453 -60 L453 53 Z M453 653 Q391 650 346.5 640.5 Q302 631 264 614 Q189 576 148 514.5 Q107 453 107 376 Q107 292 154.5 227 Q202 162 288 128 Q349 104 453 98 L453 653 Z M502 98 Q568 102 612 111 Q656 120 693 138 Q768 176 809 237 Q850 298 850 376 Q850 459 802.5 524.5 Q755 590 670 624 Q606 649 502 653 L502 98 Z " />
<glyph glyph-name="uni0425" unicode="&#x425;" horiz-adv-x="522" d="M89 754 L260 436 L429 754 L486 754 L288 385 L496 0 L441 0 L260 334 L81 0 L26 0 L232 385 L34 754 L89 754 Z " />
<glyph glyph-name="uni0427" unicode="&#x427;" horiz-adv-x="653" d="M503 292 Q433 278 395 273 Q357 268 319 268 Q243 268 187 286 Q131 304 99 339 Q73 369 61.5 412.5 Q50 456 50 524 L50 754 L98 754 L98 546 Q98 469 108.5 429 Q119 389 145 363 Q168 340 216.5 327 Q265 314 328 314 Q369 314 405 320 Q441 326 503 342 L503 754 L551 754 L551 0 L503 0 L503 292 Z " />
<glyph glyph-name="uni0426" unicode="&#x426;" horiz-adv-x="740" d="M150 754 L150 45 L581 45 L581 754 L629 754 L629 45 L692 45 L692 -145 L643 -145 L643 0 L102 0 L102 754 L150 754 Z " />
<glyph glyph-name="uni0428" unicode="&#x428;" horiz-adv-x="997" d="M150 754 L150 45 L473 45 L473 754 L522 754 L522 45 L846 45 L846 754 L895 754 L895 0 L102 0 L102 754 L150 754 Z " />
<glyph glyph-name="uni0429" unicode="&#x429;" horiz-adv-x="1006" d="M150 754 L150 45 L473 45 L473 754 L522 754 L522 45 L846 45 L846 754 L895 754 L895 45 L957 45 L957 -145 L909 -145 L909 0 L102 0 L102 754 L150 754 Z " />
<glyph glyph-name="uni040F" unicode="&#x40f;" horiz-adv-x="740" d="M150 754 L150 45 L581 45 L581 754 L629 754 L629 0 L390 0 L390 -145 L341 -145 L341 0 L102 0 L102 754 L150 754 Z " />
<glyph glyph-name="uni042C" unicode="&#x42c;" horiz-adv-x="581" d="M150 754 L150 440 L278 440 Q344 440 387 429 Q430 418 459 393 Q493 365 511.5 320.5 Q530 276 530 220 Q530 160 508 112 Q486 64 446 36 Q418 17 377.5 8.5 Q337 0 278 0 L102 0 L102 754 L150 754 Z M266 45 Q338 45 376.5 56 Q415 67 438 94 Q457 116 468.5 150 Q480 184 480 220 Q480 260 466 297 Q452 334 428 356 Q406 377 369 385.5 Q332 394 266 394 L150 394 L150 45 L266 45 Z " />
<glyph glyph-name="uni042A" unicode="&#x42a;" horiz-adv-x="715" d="M0 709 L0 754 L285 754 L285 440 L412 440 Q479 440 522 429 Q565 418 593 393 Q628 365 646 320.5 Q664 276 664 220 Q664 159 642.5 111.5 Q621 64 581 36 Q553 17 512.5 8.5 Q472 0 412 0 L236 0 L236 709 L0 709 Z M400 45 Q472 45 510.5 56 Q549 67 573 94 Q592 116 603.5 150 Q615 184 615 220 Q615 260 600.5 297 Q586 334 563 356 Q541 377 503.5 385.5 Q466 394 400 394 L285 394 L285 45 L400 45 Z " />
<glyph glyph-name="uni042B" unicode="&#x42b;" horiz-adv-x="790" d="M150 754 L150 440 L278 440 Q344 440 387 429 Q430 418 459 393 Q493 365 511.5 320.5 Q530 276 530 220 Q530 160 508 112 Q486 64 446 36 Q418 17 377.5 8.5 Q337 0 278 0 L102 0 L102 754 L150 754 Z M688 754 L688 0 L640 0 L640 754 L688 754 Z M266 45 Q338 45 376.5 56 Q415 67 438 94 Q457 116 468.5 150 Q480 184 480 220 Q480 260 466 297 Q452 334 428 356 Q406 377 369 385.5 Q332 394 266 394 L150 394 L150 45 L266 45 Z " />
<glyph glyph-name="uni0409" unicode="&#x409;" horiz-adv-x="981" d="M241 709 L240 685 Q231 508 222 398 Q213 288 201 220 Q182 104 139.5 51 Q97 -2 24 -2 Q8 -2 -7 0 L-7 47 Q16 43 24 43 Q102 43 136 168 Q154 239 169 402 Q184 565 189 754 L550 754 L550 440 L678 440 Q744 440 787 429 Q830 418 859 393 Q893 365 911.5 320.5 Q930 276 930 220 Q930 160 908 112 Q886 64 846 36 Q818 17 777.5 8.5 Q737 0 678 0 L502 0 L502 709 L241 709 Z M666 45 Q738 45 776.5 56 Q815 67 838 94 Q857 116 868.5 150 Q880 184 880 220 Q880 260 866 297 Q852 334 828 356 Q806 377 769 385.5 Q732 394 666 394 L550 394 L550 45 L666 45 Z " />
</font>
</svg>
