<?xml version="1.0" encoding="UTF-8"?>
<svg xmlns="http://www.w3.org/2000/svg" xmlns:xlink="http://www.w3.org/1999/xlink" version="1.2" >
<font id="ShellHeavy">
<font-face  font-family="ShellHeavy" units-per-em="1000" ascent="1050" descent="-300" font-style="normal" font-weight="400" font-stretch="normal" cap-height="754" x-height="489" underline-position="-52" underline-thickness="132" />
<missing-glyph  horiz-adv-x="283" d="" />
<glyph glyph-name="space" unicode="&#x20;" horiz-adv-x="283" d="" />
<glyph glyph-name="A" unicode="A" horiz-adv-x="757" d="M157 0 L1 0 L328 770 L438 770 L755 0 L598 0 L533 159 L225 159 L157 0 Z M272 278 L487 278 L382 549 L272 278 Z " />
<glyph glyph-name="Aacute" unicode="&#xc1;" horiz-adv-x="757" d="M299 878 L454 1028 L548 951 L359 823 L299 878 Z M157 0 L1 0 L328 770 L438 770 L755 0 L598 0 L533 159 L225 159 L157 0 Z M272 278 L487 278 L382 549 L272 278 Z " />
<glyph glyph-name="Abreve" unicode="&#x102;" horiz-adv-x="757" d="M287 985 Q301 947 322 930.5 Q343 914 379 914 Q414 914 435 930.5 Q456 947 469 985 L564 985 Q554 912 504.5 869.5 Q455 827 379 827 Q302 827 252 869.5 Q202 912 192 985 L287 985 Z M157 0 L1 0 L328 770 L438 770 L755 0 L598 0 L533 159 L225 159 L157 0 Z M272 278 L487 278 L382 549 L272 278 Z " />
<glyph glyph-name="Acircumflex" unicode="&#xc2;" horiz-adv-x="757" d="M586 890 L515 823 L392 924 L269 823 L201 890 L392 1046 L586 890 Z M157 0 L1 0 L328 770 L438 770 L755 0 L598 0 L533 159 L225 159 L157 0 Z M272 278 L487 278 L382 549 L272 278 Z " />
<glyph glyph-name="Adieresis" unicode="&#xc4;" horiz-adv-x="757" d="M259 998 Q293 998 316.5 974.5 Q340 951 340 918 Q340 884 316.5 860 Q293 836 259 836 Q225 836 201 860 Q177 884 177 918 Q177 951 201.5 974.5 Q226 998 259 998 Z M497 998 Q531 998 555 974.5 Q579 951 579 918 Q579 884 555 860 Q531 836 497 836 Q463 836 439.5 860 Q416 884 416 918 Q416 951 440 974.5 Q464 998 497 998 Z M157 0 L1 0 L328 770 L438 770 L755 0 L598 0 L533 159 L225 159 L157 0 Z M272 278 L487 278 L382 549 L272 278 Z " />
<glyph glyph-name="Agrave" unicode="&#xc0;" horiz-adv-x="757" d="M466 878 L405 823 L216 951 L310 1028 L466 878 Z M157 0 L1 0 L328 770 L438 770 L755 0 L598 0 L533 159 L225 159 L157 0 Z M272 278 L487 278 L382 549 L272 278 Z " />
<glyph glyph-name="Amacron" unicode="&#x100;" horiz-adv-x="757" d="M566 851 L190 851 L190 941 L566 941 L566 851 Z M157 0 L1 0 L328 770 L438 770 L755 0 L598 0 L533 159 L225 159 L157 0 Z M272 278 L487 278 L382 549 L272 278 Z " />
<glyph glyph-name="Aogonek" unicode="&#x104;" horiz-adv-x="757" d="M157 0 L1 0 L328 770 L438 770 L755 0 Q687 -51 687 -93 Q687 -112 700 -125 Q713 -138 733 -138 Q762 -138 797 -116 L777 -205 Q744 -223 699 -223 Q650 -223 617.5 -196 Q585 -169 585 -128 Q585 -64 676 0 L598 0 L533 159 L225 159 L157 0 Z M272 278 L487 278 L382 549 L272 278 Z " />
<glyph glyph-name="Aring" unicode="&#xc5;" horiz-adv-x="757" d="M377 1041 Q422 1041 453.5 1010 Q485 979 485 935 Q485 890 454 858.5 Q423 827 379 827 Q334 827 302.5 858.5 Q271 890 271 936 Q271 979 302.5 1010 Q334 1041 377 1041 Z M379 976 Q361 976 348.5 964 Q336 952 336 935 Q336 917 348.5 904.5 Q361 892 379 892 Q396 892 408 904.5 Q420 917 420 935 Q420 952 408 964 Q396 976 379 976 Z M157 0 L1 0 L328 770 L438 770 L755 0 L598 0 L533 159 L225 159 L157 0 Z M272 278 L487 278 L382 549 L272 278 Z " />
<glyph glyph-name="Aringacute" unicode="&#x1fa;" horiz-adv-x="757" d="M190 1011 L346 1162 L440 1085 L251 956 L190 1011 Z M376 1001 Q421 1001 452.5 970 Q484 939 484 895 Q484 850 452.5 819 Q421 788 377 788 Q333 788 301.5 819.5 Q270 851 270 896 Q270 939 301.5 970 Q333 1001 376 1001 Z M377 937 Q360 937 347 924.5 Q334 912 334 895 Q334 877 347 864.5 Q360 852 377 852 Q394 852 406.5 864.5 Q419 877 419 895 Q419 913 406.5 925 Q394 937 377 937 Z M157 0 L1 0 L328 770 L438 770 L755 0 L598 0 L533 159 L225 159 L157 0 Z M272 278 L487 278 L382 549 L272 278 Z " />
<glyph glyph-name="Atilde" unicode="&#xc3;" horiz-adv-x="757" d="M184 838 Q195 905 227.5 943 Q260 981 306 981 Q339 981 397 958 Q428 947 442 942.5 Q456 938 468 938 Q484 938 493.5 946.5 Q503 955 516 980 L594 980 Q581 912 546 874 Q511 836 461 836 Q446 836 430.5 840.5 Q415 845 382 858 Q350 870 334.5 874.5 Q319 879 307 879 Q291 879 280.5 869.5 Q270 860 262 838 L184 838 Z M157 0 L1 0 L328 770 L438 770 L755 0 L598 0 L533 159 L225 159 L157 0 Z M272 278 L487 278 L382 549 L272 278 Z " />
<glyph glyph-name="AE" unicode="&#xc6;" horiz-adv-x="1040" d="M164 0 L8 0 L332 754 L730 754 L780 626 L503 626 L571 458 L844 458 L895 330 L621 330 L705 128 L983 128 L1032 0 L601 0 L537 159 L229 159 L164 0 Z M278 278 L492 278 L388 534 L278 278 Z " />
<glyph glyph-name="AEacute" unicode="&#x1fc;" horiz-adv-x="1040" d="M416 878 L571 1028 L664 951 L476 823 L416 878 Z M164 0 L8 0 L332 754 L730 754 L780 626 L503 626 L571 458 L844 458 L895 330 L621 330 L705 128 L983 128 L1032 0 L601 0 L537 159 L229 159 L164 0 Z M278 278 L492 278 L388 534 L278 278 Z " />
<glyph glyph-name="B" unicode="B" horiz-adv-x="644" d="M273 754 Q400 754 458 709 Q489 684 507 642.5 Q525 601 525 555 Q525 525 517.5 496.5 Q510 468 497 447 Q488 435 476.5 425 Q465 415 443 402 Q482 394 503 384 Q524 374 541 355 Q567 329 581.5 291.5 Q596 254 596 212 Q596 167 578.5 126.5 Q561 86 529 58 Q496 28 450 14 Q404 0 341 0 L87 0 L87 754 L273 754 Z M276 440 Q390 440 390 538 Q390 586 361.5 610.5 Q333 635 278 635 L234 635 L234 440 L276 440 Z M297 119 Q372 119 408 144.5 Q444 170 444 223 Q444 250 432.5 271.5 Q421 293 400 306 Q380 319 357 323.5 Q334 328 289 328 L234 328 L234 119 L297 119 Z " />
<glyph glyph-name="C" unicode="C" horiz-adv-x="680" d="M631 551 Q585 596 541.5 616 Q498 636 446 636 Q378 636 321.5 601.5 Q265 567 232.5 507 Q200 447 200 374 Q200 302 232.5 243.5 Q265 185 322 151.5 Q379 118 450 118 Q504 118 545 136.5 Q586 155 631 200 L631 27 Q581 3 537.5 -7 Q494 -17 446 -17 Q337 -17 246 35 Q155 87 102 176.5 Q49 266 49 373 Q49 481 102.5 572.5 Q156 664 247 717.5 Q338 771 446 771 Q496 771 538.5 760 Q581 749 631 724 L631 551 Z " />
<glyph glyph-name="Cacute" unicode="&#x106;" horiz-adv-x="680" d="M351 878 L506 1028 L600 951 L411 823 L351 878 Z M631 551 Q585 596 541.5 616 Q498 636 446 636 Q378 636 321.5 601.5 Q265 567 232.5 507 Q200 447 200 374 Q200 302 232.5 243.5 Q265 185 322 151.5 Q379 118 450 118 Q504 118 545 136.5 Q586 155 631 200 L631 27 Q581 3 537.5 -7 Q494 -17 446 -17 Q337 -17 246 35 Q155 87 102 176.5 Q49 266 49 373 Q49 481 102.5 572.5 Q156 664 247 717.5 Q338 771 446 771 Q496 771 538.5 760 Q581 749 631 724 L631 551 Z " />
<glyph glyph-name="Ccaron" unicode="&#x10c;" horiz-adv-x="680" d="M429 946 L553 1046 L623 980 L428 823 L237 980 L306 1046 L429 946 Z M631 551 Q585 596 541.5 616 Q498 636 446 636 Q378 636 321.5 601.5 Q265 567 232.5 507 Q200 447 200 374 Q200 302 232.5 243.5 Q265 185 322 151.5 Q379 118 450 118 Q504 118 545 136.5 Q586 155 631 200 L631 27 Q581 3 537.5 -7 Q494 -17 446 -17 Q337 -17 246 35 Q155 87 102 176.5 Q49 266 49 373 Q49 481 102.5 572.5 Q156 664 247 717.5 Q338 771 446 771 Q496 771 538.5 760 Q581 749 631 724 L631 551 Z " />
<glyph glyph-name="Ccedilla" unicode="&#xc7;" horiz-adv-x="680" d="M631 551 Q590 593 545 613.5 Q500 634 446 634 Q378 634 321.5 599.5 Q265 565 232.5 505.5 Q200 446 200 374 Q200 303 232.5 244 Q265 185 321 151.5 Q377 118 445 118 Q548 118 631 200 L631 27 Q571 2 530.5 -7.5 Q490 -17 444 -17 Q336 -17 245.5 35 Q155 87 102 176.5 Q49 266 49 372 Q49 481 102 571.5 Q155 662 246.5 715 Q338 768 447 768 Q497 768 540 758 Q583 748 631 724 L631 551 Z M296 -205 L409 -47 L504 -105 L367 -250 L296 -205 Z " />
<glyph glyph-name="Ccircumflex" unicode="&#x108;" horiz-adv-x="680" d="M619 890 L549 823 L425 924 L302 823 L234 890 L425 1046 L619 890 Z M631 551 Q585 596 541.5 616 Q498 636 446 636 Q378 636 321.5 601.5 Q265 567 232.5 507 Q200 447 200 374 Q200 302 232.5 243.5 Q265 185 322 151.5 Q379 118 450 118 Q504 118 545 136.5 Q586 155 631 200 L631 27 Q581 3 537.5 -7 Q494 -17 446 -17 Q337 -17 246 35 Q155 87 102 176.5 Q49 266 49 373 Q49 481 102.5 572.5 Q156 664 247 717.5 Q338 771 446 771 Q496 771 538.5 760 Q581 749 631 724 L631 551 Z " />
<glyph glyph-name="Cdotaccent" unicode="&#x10a;" horiz-adv-x="680" d="M431 998 Q466 998 490.5 973 Q515 948 515 913 Q515 878 490 853 Q465 828 431 828 Q395 828 370 853.5 Q345 879 345 914 Q345 948 370 973 Q395 998 431 998 Z M631 551 Q585 596 541.5 616 Q498 636 446 636 Q378 636 321.5 601.5 Q265 567 232.5 507 Q200 447 200 374 Q200 302 232.5 243.5 Q265 185 322 151.5 Q379 118 450 118 Q504 118 545 136.5 Q586 155 631 200 L631 27 Q581 3 537.5 -7 Q494 -17 446 -17 Q337 -17 246 35 Q155 87 102 176.5 Q49 266 49 373 Q49 481 102.5 572.5 Q156 664 247 717.5 Q338 771 446 771 Q496 771 538.5 760 Q581 749 631 724 L631 551 Z " />
<glyph glyph-name="D" unicode="D" horiz-adv-x="756" d="M303 754 Q467 754 573 667 Q636 615 671.5 538.5 Q707 462 707 377 Q707 293 671 216.5 Q635 140 571 87 Q516 41 452 20.5 Q388 0 302 0 L87 0 L87 754 L303 754 Z M273 128 Q344 128 392 142 Q440 156 475 188 Q513 222 534.5 272.5 Q556 323 556 377 Q556 431 534.5 481 Q513 531 475 565 Q438 598 391.5 612 Q345 626 273 626 L234 626 L234 128 L273 128 Z " />
<glyph glyph-name="Eth" unicode="&#xd0;" horiz-adv-x="756" d="M303 754 Q467 754 573 667 Q636 616 671.5 539 Q707 462 707 377 Q707 292 671.5 216 Q636 140 571 87 Q516 41 452 20.5 Q388 0 302 0 L87 0 L87 320 L24 320 L24 433 L87 433 L87 754 L303 754 Z M394 320 L234 320 L234 128 L273 128 Q344 128 392 142 Q440 156 475 188 Q513 222 534.5 272 Q556 322 556 376 Q556 431 534.5 481 Q513 531 475 565 Q437 598 391 612 Q345 626 273 626 L234 626 L234 433 L394 433 L394 320 Z " />
<glyph glyph-name="Dcaron" unicode="&#x10e;" horiz-adv-x="756" d="M336 946 L460 1046 L530 980 L336 823 L145 980 L212 1046 L336 946 Z M303 754 Q467 754 573 667 Q636 615 671.5 538.5 Q707 462 707 377 Q707 293 671 216.5 Q635 140 571 87 Q516 41 452 20.5 Q388 0 302 0 L87 0 L87 754 L303 754 Z M273 128 Q344 128 392 142 Q440 156 475 188 Q513 222 534.5 272.5 Q556 323 556 377 Q556 431 534.5 481 Q513 531 475 565 Q438 598 391.5 612 Q345 626 273 626 L234 626 L234 128 L273 128 Z " />
<glyph glyph-name="Dcroat" unicode="&#x110;" horiz-adv-x="756" d="M303 754 Q467 754 573 667 Q636 616 671.5 539 Q707 462 707 377 Q707 292 671.5 216 Q636 140 571 87 Q516 41 452 20.5 Q388 0 302 0 L87 0 L87 320 L24 320 L24 433 L87 433 L87 754 L303 754 Z M394 320 L234 320 L234 128 L273 128 Q344 128 392 142 Q440 156 475 188 Q513 222 534.5 272 Q556 322 556 376 Q556 431 534.5 481 Q513 531 475 565 Q437 598 391 612 Q345 626 273 626 L234 626 L234 433 L394 433 L394 320 Z " />
<glyph glyph-name="E" unicode="E" horiz-adv-x="559" d="M234 459 L494 459 L494 331 L234 331 L234 128 L504 128 L504 0 L87 0 L87 754 L504 754 L504 626 L234 626 L234 459 Z " />
<glyph glyph-name="Eacute" unicode="&#xc9;" horiz-adv-x="559" d="M224 878 L379 1028 L472 951 L284 823 L224 878 Z M234 459 L494 459 L494 331 L234 331 L234 128 L504 128 L504 0 L87 0 L87 754 L504 754 L504 626 L234 626 L234 459 Z " />
<glyph glyph-name="Ebreve" unicode="&#x114;" horiz-adv-x="559" d="M212 985 Q225 948 246.5 931 Q268 914 303 914 Q338 914 359 930.5 Q380 947 394 985 L489 985 Q480 912 430 869.5 Q380 827 303 827 Q227 827 177 869.5 Q127 912 118 985 L212 985 Z M234 459 L494 459 L494 331 L234 331 L234 128 L504 128 L504 0 L87 0 L87 754 L504 754 L504 626 L234 626 L234 459 Z " />
<glyph glyph-name="Ecaron" unicode="&#x11a;" horiz-adv-x="559" d="M302 946 L426 1046 L496 980 L302 823 L111 980 L179 1046 L302 946 Z M234 459 L494 459 L494 331 L234 331 L234 128 L504 128 L504 0 L87 0 L87 754 L504 754 L504 626 L234 626 L234 459 Z " />
<glyph glyph-name="Ecircumflex" unicode="&#xca;" horiz-adv-x="559" d="M496 890 L426 823 L302 924 L179 823 L111 890 L302 1046 L496 890 Z M234 459 L494 459 L494 331 L234 331 L234 128 L504 128 L504 0 L87 0 L87 754 L504 754 L504 626 L234 626 L234 459 Z " />
<glyph glyph-name="Edieresis" unicode="&#xcb;" horiz-adv-x="559" d="M176 998 Q210 998 234 974.5 Q258 951 258 918 Q258 884 234 860 Q210 836 176 836 Q142 836 118.5 860 Q95 884 95 918 Q95 951 119 974.5 Q143 998 176 998 Z M415 998 Q449 998 472.5 974.5 Q496 951 496 918 Q496 884 472.5 860 Q449 836 415 836 Q381 836 357 860 Q333 884 333 918 Q333 951 357.5 974.5 Q382 998 415 998 Z M234 459 L494 459 L494 331 L234 331 L234 128 L504 128 L504 0 L87 0 L87 754 L504 754 L504 626 L234 626 L234 459 Z " />
<glyph glyph-name="Edotaccent" unicode="&#x116;" horiz-adv-x="559" d="M304 998 Q339 998 364 973 Q389 948 389 913 Q389 879 364 853.5 Q339 828 304 828 Q269 828 243.5 853.5 Q218 879 218 914 Q218 948 243.5 973 Q269 998 304 998 Z M234 459 L494 459 L494 331 L234 331 L234 128 L504 128 L504 0 L87 0 L87 754 L504 754 L504 626 L234 626 L234 459 Z " />
<glyph glyph-name="Egrave" unicode="&#xc8;" horiz-adv-x="559" d="M389 878 L329 823 L140 951 L234 1028 L389 878 Z M234 459 L494 459 L494 331 L234 331 L234 128 L504 128 L504 0 L87 0 L87 754 L504 754 L504 626 L234 626 L234 459 Z " />
<glyph glyph-name="Emacron" unicode="&#x112;" horiz-adv-x="559" d="M484 851 L107 851 L107 941 L484 941 L484 851 Z M234 459 L494 459 L494 331 L234 331 L234 128 L504 128 L504 0 L87 0 L87 754 L504 754 L504 626 L234 626 L234 459 Z " />
<glyph glyph-name="Eogonek" unicode="&#x118;" horiz-adv-x="559" d="M234 459 L494 459 L494 331 L234 331 L234 128 L504 128 L504 0 Q469 -28 452.5 -50 Q436 -72 436 -93 Q436 -112 449.5 -125 Q463 -138 483 -138 Q511 -138 546 -116 L527 -205 Q493 -223 449 -223 Q399 -223 366.5 -196 Q334 -169 334 -128 Q334 -64 425 0 L87 0 L87 754 L504 754 L504 626 L234 626 L234 459 Z " />
<glyph glyph-name="F" unicode="F" horiz-adv-x="528" d="M234 459 L470 459 L470 331 L234 331 L234 0 L87 0 L87 754 L486 754 L486 626 L234 626 L234 459 Z " />
<glyph glyph-name="G" unicode="G" horiz-adv-x="861" d="M811 403 Q810 320 802 271 Q794 222 772 180 Q726 85 641 34 Q556 -17 444 -17 Q331 -17 241 33.5 Q151 84 100 173 Q49 262 49 373 Q49 487 100.5 577.5 Q152 668 243.5 719.5 Q335 771 449 771 Q554 771 636.5 726 Q719 681 772 593 L643 524 Q576 636 447 636 Q377 636 320.5 602 Q264 568 232 507.5 Q200 447 200 373 Q200 300 232 241.5 Q264 183 320 149.5 Q376 116 446 116 Q527 116 581.5 160 Q636 204 644 276 L467 276 L467 403 L811 403 Z " />
<glyph glyph-name="Gbreve" unicode="&#x11e;" horiz-adv-x="861" d="M355 985 Q368 947 389 930.5 Q410 914 445 914 Q481 914 502 930.5 Q523 947 537 985 L631 985 Q622 912 572 869.5 Q522 827 445 827 Q369 827 318.5 870 Q268 913 260 985 L355 985 Z M811 403 Q810 320 802 271 Q794 222 772 180 Q726 85 641 34 Q556 -17 444 -17 Q331 -17 241 33.5 Q151 84 100 173 Q49 262 49 373 Q49 487 100.5 577.5 Q152 668 243.5 719.5 Q335 771 449 771 Q554 771 636.5 726 Q719 681 772 593 L643 524 Q576 636 447 636 Q377 636 320.5 602 Q264 568 232 507.5 Q200 447 200 373 Q200 300 232 241.5 Q264 183 320 149.5 Q376 116 446 116 Q527 116 581.5 160 Q636 204 644 276 L467 276 L467 403 L811 403 Z " />
<glyph glyph-name="Gcaron" unicode="&#x1e6;" horiz-adv-x="861" d="M444 946 L567 1046 L638 980 L444 823 L253 980 L321 1046 L444 946 Z M811 403 Q810 320 802 271 Q794 222 772 180 Q726 85 641 34 Q556 -17 444 -17 Q331 -17 241 33.5 Q151 84 100 173 Q49 262 49 373 Q49 487 100.5 577.5 Q152 668 243.5 719.5 Q335 771 449 771 Q554 771 636.5 726 Q719 681 772 593 L643 524 Q576 636 447 636 Q377 636 320.5 602 Q264 568 232 507.5 Q200 447 200 373 Q200 300 232 241.5 Q264 183 320 149.5 Q376 116 446 116 Q527 116 581.5 160 Q636 204 644 276 L467 276 L467 403 L811 403 Z " />
<glyph glyph-name="Gcircumflex" unicode="&#x11c;" horiz-adv-x="861" d="M638 890 L567 823 L444 924 L321 823 L253 890 L444 1046 L638 890 Z M811 403 Q810 320 802 271 Q794 222 772 180 Q726 85 641 34 Q556 -17 444 -17 Q331 -17 241 33.5 Q151 84 100 173 Q49 262 49 373 Q49 487 100.5 577.5 Q152 668 243.5 719.5 Q335 771 449 771 Q554 771 636.5 726 Q719 681 772 593 L643 524 Q576 636 447 636 Q377 636 320.5 602 Q264 568 232 507.5 Q200 447 200 373 Q200 300 232 241.5 Q264 183 320 149.5 Q376 116 446 116 Q527 116 581.5 160 Q636 204 644 276 L467 276 L467 403 L811 403 Z " />
<glyph glyph-name="uni0122" unicode="&#x122;" horiz-adv-x="861" d="M811 403 Q810 320 802 271 Q794 222 772 180 Q726 85 641 34 Q556 -17 444 -17 Q331 -17 241 33.5 Q151 84 100 173 Q49 262 49 373 Q49 487 100.5 577.5 Q152 668 243.5 719.5 Q335 771 449 771 Q554 771 636.5 726 Q719 681 772 593 L643 524 Q576 636 447 636 Q377 636 320.5 602 Q264 568 232 507.5 Q200 447 200 373 Q200 300 232 241.5 Q264 183 320 149.5 Q376 116 446 116 Q527 116 581.5 160 Q636 204 644 276 L467 276 L467 403 L811 403 Z M382 -272 L306 -264 L388 -60 L510 -70 L382 -272 Z " />
<glyph glyph-name="Gdotaccent" unicode="&#x120;" horiz-adv-x="861" d="M442 998 Q477 998 502 973 Q527 948 527 913 Q527 879 502 853.5 Q477 828 442 828 Q406 828 381 853.5 Q356 879 356 914 Q356 948 381 973 Q406 998 442 998 Z M811 403 Q810 320 802 271 Q794 222 772 180 Q726 85 641 34 Q556 -17 444 -17 Q331 -17 241 33.5 Q151 84 100 173 Q49 262 49 373 Q49 487 100.5 577.5 Q152 668 243.5 719.5 Q335 771 449 771 Q554 771 636.5 726 Q719 681 772 593 L643 524 Q576 636 447 636 Q377 636 320.5 602 Q264 568 232 507.5 Q200 447 200 373 Q200 300 232 241.5 Q264 183 320 149.5 Q376 116 446 116 Q527 116 581.5 160 Q636 204 644 276 L467 276 L467 403 L811 403 Z " />
<glyph glyph-name="H" unicode="H" horiz-adv-x="785" d="M553 754 L699 754 L699 0 L553 0 L553 334 L234 334 L234 0 L87 0 L87 754 L234 754 L234 462 L553 462 L553 754 Z " />
<glyph glyph-name="Hbar" unicode="&#x126;" horiz-adv-x="785" d="M699 647 L763 647 L763 534 L699 534 L699 0 L553 0 L553 334 L234 334 L234 0 L87 0 L87 534 L24 534 L24 647 L87 647 L87 754 L234 754 L234 647 L553 647 L553 754 L699 754 L699 647 Z M234 462 L553 462 L553 534 L234 534 L234 462 Z " />
<glyph glyph-name="Hcircumflex" unicode="&#x124;" horiz-adv-x="785" d="M586 890 L515 823 L392 924 L269 823 L201 890 L392 1046 L586 890 Z M553 754 L699 754 L699 0 L553 0 L553 334 L234 334 L234 0 L87 0 L87 754 L234 754 L234 462 L553 462 L553 754 Z " />
<glyph glyph-name="I" unicode="I" horiz-adv-x="320" d="M87 0 L87 754 L234 754 L234 0 L87 0 Z " />
<glyph glyph-name="IJ" unicode="&#x132;" horiz-adv-x="760" d="M87 0 L87 754 L234 754 L234 0 L87 0 Z M675 245 Q675 168 659 117.5 Q643 67 608 34 Q581 9 544 -4.5 Q507 -18 467 -18 Q367 -18 290 53 L379 160 Q408 118 452 118 Q475 118 492.5 129.5 Q510 141 518 163 Q524 180 526 202 Q528 224 528 269 L528 754 L675 754 L675 245 Z " />
<glyph glyph-name="Iacute" unicode="&#xcd;" horiz-adv-x="320" d="M81 878 L236 1028 L330 951 L141 823 L81 878 Z M87 0 L87 754 L234 754 L234 0 L87 0 Z " />
<glyph glyph-name="Ibreve" unicode="&#x12c;" horiz-adv-x="320" d="M69 985 Q82 947 103 930.5 Q124 914 159 914 Q195 914 216 930.5 Q237 947 251 985 L346 985 Q336 912 286 869.5 Q236 827 159 827 Q83 827 33 869.5 Q-17 912 -26 985 L69 985 Z M86 0 L86 754 L233 754 L233 0 L86 0 Z " />
<glyph glyph-name="Icircumflex" unicode="&#xce;" horiz-adv-x="320" d="M338 890 L268 823 L159 924 L51 823 L-17 890 L159 1046 L338 890 Z M87 0 L87 754 L234 754 L234 0 L87 0 Z " />
<glyph glyph-name="Idieresis" unicode="&#xcf;" horiz-adv-x="320" d="M60 998 Q94 998 117.5 974.5 Q141 951 141 918 Q141 884 117.5 860 Q94 836 60 836 Q26 836 2.5 860 Q-21 884 -21 918 Q-21 951 3 974.5 Q27 998 60 998 Z M260 998 Q294 998 317.5 974.5 Q341 951 341 918 Q341 884 317.5 860 Q294 836 260 836 Q226 836 202.5 860 Q179 884 179 918 Q179 951 203 974.5 Q227 998 260 998 Z M87 0 L87 754 L234 754 L234 0 L87 0 Z " />
<glyph glyph-name="Idot" unicode="&#x130;" horiz-adv-x="320" d="M160 998 Q195 998 220 973 Q245 948 245 913 Q245 878 220 853 Q195 828 160 828 Q125 828 100 853.5 Q75 879 75 914 Q75 948 100 973 Q125 998 160 998 Z M87 0 L87 754 L234 754 L234 0 L87 0 Z " />
<glyph glyph-name="Igrave" unicode="&#xcc;" horiz-adv-x="320" d="M238 878 L179 823 L-10 951 L84 1028 L238 878 Z M86 0 L86 754 L233 754 L233 0 L86 0 Z " />
<glyph glyph-name="Imacron" unicode="&#x12a;" horiz-adv-x="320" d="M305 851 L15 851 L15 941 L305 941 L305 851 Z M87 0 L87 754 L234 754 L234 0 L87 0 Z " />
<glyph glyph-name="Iogonek" unicode="&#x12e;" horiz-adv-x="320" d="M234 0 Q166 -51 166 -93 Q166 -112 179 -125 Q192 -138 212 -138 Q239 -138 276 -116 L257 -205 Q223 -223 179 -223 Q129 -223 96.5 -196 Q64 -169 64 -128 Q64 -65 155 0 L87 0 L87 754 L234 754 L234 0 Z " />
<glyph glyph-name="Itilde" unicode="&#x128;" horiz-adv-x="320" d="M-45 838 Q-36 904 -3.5 942.5 Q29 981 76 981 Q110 981 166 958 Q197 947 211 942.5 Q225 938 237 938 Q254 938 264 946.5 Q274 955 287 980 L365 980 Q352 912 317 874 Q282 836 232 836 Q216 836 200.5 840.5 Q185 845 153 858 Q121 870 105.5 874.5 Q90 879 78 879 Q61 879 50.5 869.5 Q40 860 32 838 L-45 838 Z M86 0 L86 754 L233 754 L233 0 L86 0 Z " />
<glyph glyph-name="J" unicode="J" horiz-adv-x="441" d="M354 245 Q354 168 338 117.5 Q322 67 287 34 Q260 9 223 -4.5 Q186 -18 146 -18 Q46 -18 -31 53 L58 160 Q87 118 131 118 Q154 118 171.5 129.5 Q189 141 197 163 Q203 179 205 200.5 Q207 222 207 269 L207 754 L354 754 L354 245 Z " />
<glyph glyph-name="Jcircumflex" unicode="&#x134;" horiz-adv-x="441" d="M472 890 L401 823 L278 924 L155 823 L86 890 L278 1046 L472 890 Z M354 245 Q354 168 338 117.5 Q322 67 287 34 Q260 9 223 -4.5 Q186 -18 146 -18 Q46 -18 -31 53 L58 160 Q87 118 131 118 Q154 118 171.5 129.5 Q189 141 197 163 Q203 179 205 200.5 Q207 222 207 269 L207 754 L354 754 L354 245 Z " />
<glyph glyph-name="K" unicode="K" horiz-adv-x="720" d="M696 754 L377 406 L713 0 L520 0 L252 339 L234 321 L234 0 L87 0 L87 754 L234 754 L234 435 L511 754 L696 754 Z " />
<glyph glyph-name="uni0136" unicode="&#x136;" horiz-adv-x="720" d="M696 754 L377 406 L713 0 L520 0 L252 339 L234 321 L234 0 L87 0 L87 754 L234 754 L234 435 L511 754 L696 754 Z M322 -272 L245 -264 L327 -60 L449 -70 L322 -272 Z " />
<glyph glyph-name="L" unicode="L" horiz-adv-x="480" d="M466 128 L466 0 L87 0 L87 754 L234 754 L234 128 L466 128 Z " />
<glyph glyph-name="Lacute" unicode="&#x139;" horiz-adv-x="480" d="M86 878 L241 1028 L334 951 L146 823 L86 878 Z M466 128 L466 0 L87 0 L87 754 L234 754 L234 128 L466 128 Z " />
<glyph glyph-name="Lcaron" unicode="&#x13d;" horiz-adv-x="480" d="M348 545 L271 553 L353 757 L475 747 L348 545 Z M466 128 L466 0 L87 0 L87 754 L234 754 L234 128 L466 128 Z " />
<glyph glyph-name="uni013B" unicode="&#x13b;" horiz-adv-x="480" d="M466 128 L466 0 L87 0 L87 754 L234 754 L234 128 L466 128 Z M228 -272 L153 -264 L234 -60 L356 -70 L228 -272 Z " />
<glyph glyph-name="Ldot" unicode="&#x13f;" horiz-adv-x="480" d="M466 128 L466 0 L87 0 L87 754 L234 754 L234 128 L466 128 Z M400 426 Q443 426 473.5 396 Q504 366 504 323 Q504 280 474 249.5 Q444 219 401 219 Q358 219 327.5 250 Q297 281 297 324 Q297 366 327.5 396 Q358 426 400 426 Z " />
<glyph glyph-name="Lslash" unicode="&#x141;" horiz-adv-x="480" d="M371 602 L371 472 L232 380 L232 128 L466 128 L466 0 L85 0 L85 301 L5 245 L5 375 L85 429 L85 754 L232 754 L232 508 L371 602 Z " />
<glyph glyph-name="M" unicode="M" horiz-adv-x="961" d="M278 767 L484 275 L697 767 L799 767 L924 0 L776 0 L709 464 L502 -10 L461 -10 L261 464 L185 0 L37 0 L177 767 L278 767 Z " />
<glyph glyph-name="N" unicode="N" horiz-adv-x="880" d="M189 771 L647 246 L647 754 L794 754 L794 -15 L693 -15 L234 510 L234 0 L87 0 L87 771 L189 771 Z " />
<glyph glyph-name="Nacute" unicode="&#x143;" horiz-adv-x="880" d="M354 878 L510 1028 L603 951 L415 823 L354 878 Z M189 771 L647 246 L647 754 L794 754 L794 -15 L693 -15 L234 510 L234 0 L87 0 L87 771 L189 771 Z " />
<glyph glyph-name="Ncaron" unicode="&#x147;" horiz-adv-x="880" d="M440 946 L563 1046 L634 980 L440 823 L249 980 L316 1046 L440 946 Z M189 771 L647 246 L647 754 L794 754 L794 -15 L693 -15 L234 510 L234 0 L87 0 L87 771 L189 771 Z " />
<glyph glyph-name="uni0145" unicode="&#x145;" horiz-adv-x="880" d="M189 771 L647 246 L647 754 L794 754 L794 -15 L693 -15 L234 510 L234 0 L87 0 L87 771 L189 771 Z M400 -272 L324 -264 L406 -60 L528 -70 L400 -272 Z " />
<glyph glyph-name="Eng" unicode="&#x14a;" horiz-adv-x="785" d="M234 660 Q278 719 327 745 Q376 771 445 771 Q506 771 558 748 Q610 725 645 683 Q675 645 687 599.5 Q699 554 699 478 L699 163 Q699 82 686.5 33.5 Q674 -15 642 -55 Q605 -102 556.5 -126.5 Q508 -151 451 -151 Q422 -151 399.5 -145.5 Q377 -140 344 -125 L344 9 Q381 -7 403 -13 Q425 -19 447 -19 Q476 -19 501 -4.5 Q526 10 537 34 Q545 54 549 80.5 Q553 107 553 149 L553 455 Q553 503 548 530 Q543 557 531 577 Q514 605 479.5 620.5 Q445 636 401 636 Q355 636 319 618.5 Q283 601 263 568 Q247 542 240.5 510.5 Q234 479 234 428 L234 0 L87 0 L87 754 L234 754 L234 660 Z " />
<glyph glyph-name="Ntilde" unicode="&#xd1;" horiz-adv-x="880" d="M247 838 Q257 905 289 943 Q321 981 368 981 Q401 981 459 958 Q490 947 504 942.5 Q518 938 530 938 Q546 938 556.5 946.5 Q567 955 579 980 L657 980 Q644 912 609 874 Q574 836 523 836 Q508 836 492.5 840.5 Q477 845 445 858 Q413 870 397.5 874.5 Q382 879 370 879 Q354 879 343.5 869.5 Q333 860 324 838 L247 838 Z M189 771 L647 246 L647 754 L794 754 L794 -15 L693 -15 L234 510 L234 0 L87 0 L87 771 L189 771 Z " />
<glyph glyph-name="O" unicode="O" horiz-adv-x="903" d="M453 771 Q564 771 656 718.5 Q748 666 801 575.5 Q854 485 854 376 Q854 267 800.5 177 Q747 87 653.5 35 Q560 -17 447 -17 Q336 -17 245 35.5 Q154 88 101.5 179.5 Q49 271 49 382 Q49 488 103 577 Q157 666 250 718.5 Q343 771 453 771 Z M451 636 Q384 636 326 601.5 Q268 567 234 508 Q200 449 200 380 Q200 308 233.5 248 Q267 188 325 153 Q383 118 452 118 Q520 118 577.5 153 Q635 188 669 247.5 Q703 307 703 377 Q703 448 669.5 507.5 Q636 567 578 601.5 Q520 636 451 636 Z " />
<glyph glyph-name="Oacute" unicode="&#xd3;" horiz-adv-x="903" d="M372 878 L528 1028 L621 951 L433 823 L372 878 Z M453 771 Q564 771 656 718.5 Q748 666 801 575.5 Q854 485 854 376 Q854 267 800.5 177 Q747 87 653.5 35 Q560 -17 447 -17 Q336 -17 245 35.5 Q154 88 101.5 179.5 Q49 271 49 382 Q49 488 103 577 Q157 666 250 718.5 Q343 771 453 771 Z M451 636 Q384 636 326 601.5 Q268 567 234 508 Q200 449 200 380 Q200 308 233.5 248 Q267 188 325 153 Q383 118 452 118 Q520 118 577.5 153 Q635 188 669 247.5 Q703 307 703 377 Q703 448 669.5 507.5 Q636 567 578 601.5 Q520 636 451 636 Z " />
<glyph glyph-name="Obreve" unicode="&#x14e;" horiz-adv-x="903" d="M360 985 Q373 948 394.5 931 Q416 914 451 914 Q486 914 507 930.5 Q528 947 542 985 L637 985 Q628 912 578 869.5 Q528 827 451 827 Q375 827 325 869.5 Q275 912 266 985 L360 985 Z M453 771 Q564 771 656 718.5 Q748 666 801 575.5 Q854 485 854 376 Q854 267 800.5 177 Q747 87 653.5 35 Q560 -17 447 -17 Q336 -17 245 35.5 Q154 88 101.5 179.5 Q49 271 49 382 Q49 488 103 577 Q157 666 250 718.5 Q343 771 453 771 Z M451 636 Q384 636 326 601.5 Q268 567 234 508 Q200 449 200 380 Q200 308 233.5 248 Q267 188 325 153 Q383 118 452 118 Q520 118 577.5 153 Q635 188 669 247.5 Q703 307 703 377 Q703 448 669.5 507.5 Q636 567 578 601.5 Q520 636 451 636 Z " />
<glyph glyph-name="Ocircumflex" unicode="&#xd4;" horiz-adv-x="903" d="M644 890 L574 823 L450 924 L327 823 L259 890 L450 1046 L644 890 Z M453 771 Q564 771 656 718.5 Q748 666 801 575.5 Q854 485 854 376 Q854 267 800.5 177 Q747 87 653.5 35 Q560 -17 447 -17 Q336 -17 245 35.5 Q154 88 101.5 179.5 Q49 271 49 382 Q49 488 103 577 Q157 666 250 718.5 Q343 771 453 771 Z M451 636 Q384 636 326 601.5 Q268 567 234 508 Q200 449 200 380 Q200 308 233.5 248 Q267 188 325 153 Q383 118 452 118 Q520 118 577.5 153 Q635 188 669 247.5 Q703 307 703 377 Q703 448 669.5 507.5 Q636 567 578 601.5 Q520 636 451 636 Z " />
<glyph glyph-name="Odieresis" unicode="&#xd6;" horiz-adv-x="903" d="M332 998 Q366 998 390 974.5 Q414 951 414 918 Q414 884 390 860 Q366 836 332 836 Q298 836 274.5 860 Q251 884 251 918 Q251 951 275 974.5 Q299 998 332 998 Z M571 998 Q605 998 628.5 974.5 Q652 951 652 918 Q652 884 628.5 860 Q605 836 571 836 Q537 836 513 860 Q489 884 489 918 Q489 951 513.5 974.5 Q538 998 571 998 Z M453 771 Q564 771 656 718.5 Q748 666 801 575.5 Q854 485 854 376 Q854 267 800.5 177 Q747 87 653.5 35 Q560 -17 447 -17 Q336 -17 245 35.5 Q154 88 101.5 179.5 Q49 271 49 382 Q49 488 103 577 Q157 666 250 718.5 Q343 771 453 771 Z M451 636 Q384 636 326 601.5 Q268 567 234 508 Q200 449 200 380 Q200 308 233.5 248 Q267 188 325 153 Q383 118 452 118 Q520 118 577.5 153 Q635 188 669 247.5 Q703 307 703 377 Q703 448 669.5 507.5 Q636 567 578 601.5 Q520 636 451 636 Z " />
<glyph glyph-name="Ograve" unicode="&#xd2;" horiz-adv-x="903" d="M530 878 L470 823 L281 951 L375 1028 L530 878 Z M453 771 Q564 771 656 718.5 Q748 666 801 575.5 Q854 485 854 376 Q854 267 800.5 177 Q747 87 653.5 35 Q560 -17 447 -17 Q336 -17 245 35.5 Q154 88 101.5 179.5 Q49 271 49 382 Q49 488 103 577 Q157 666 250 718.5 Q343 771 453 771 Z M451 636 Q384 636 326 601.5 Q268 567 234 508 Q200 449 200 380 Q200 308 233.5 248 Q267 188 325 153 Q383 118 452 118 Q520 118 577.5 153 Q635 188 669 247.5 Q703 307 703 377 Q703 448 669.5 507.5 Q636 567 578 601.5 Q520 636 451 636 Z " />
<glyph glyph-name="Ohorn" unicode="&#x1a0;" horiz-adv-x="903" d="M899 793 L781 605 Q854 502 854 376 Q854 268 800.5 178 Q747 88 654.5 35.5 Q562 -17 451 -17 Q339 -17 247 35 Q155 87 102 177 Q49 267 49 375 Q49 484 102.5 575 Q156 666 248.5 718.5 Q341 771 452 771 Q530 771 600.5 744.5 Q671 718 724 669 L777 803 L899 793 Z M451 636 Q384 636 326 601.5 Q268 567 234 508 Q200 449 200 380 Q200 308 233.5 248 Q267 188 325 153 Q383 118 452 118 Q520 118 577.5 153 Q635 188 669 247.5 Q703 307 703 377 Q703 448 669.5 507.5 Q636 567 578 601.5 Q520 636 451 636 Z " />
<glyph glyph-name="Ohungarumlaut" unicode="&#x150;" horiz-adv-x="903" d="M289 876 L432 1027 L515 951 L338 823 L289 876 Z M507 876 L650 1027 L733 951 L556 823 L507 876 Z M453 771 Q564 771 656 718.5 Q748 666 801 575.5 Q854 485 854 376 Q854 267 800.5 177 Q747 87 653.5 35 Q560 -17 447 -17 Q336 -17 245 35.5 Q154 88 101.5 179.5 Q49 271 49 382 Q49 488 103 577 Q157 666 250 718.5 Q343 771 453 771 Z M451 636 Q384 636 326 601.5 Q268 567 234 508 Q200 449 200 380 Q200 308 233.5 248 Q267 188 325 153 Q383 118 452 118 Q520 118 577.5 153 Q635 188 669 247.5 Q703 307 703 377 Q703 448 669.5 507.5 Q636 567 578 601.5 Q520 636 451 636 Z " />
<glyph glyph-name="Omacron" unicode="&#x14c;" horiz-adv-x="903" d="M640 851 L263 851 L263 941 L640 941 L640 851 Z M453 771 Q564 771 656 718.5 Q748 666 801 575.5 Q854 485 854 376 Q854 267 800.5 177 Q747 87 653.5 35 Q560 -17 447 -17 Q336 -17 245 35.5 Q154 88 101.5 179.5 Q49 271 49 382 Q49 488 103 577 Q157 666 250 718.5 Q343 771 453 771 Z M451 636 Q384 636 326 601.5 Q268 567 234 508 Q200 449 200 380 Q200 308 233.5 248 Q267 188 325 153 Q383 118 452 118 Q520 118 577.5 153 Q635 188 669 247.5 Q703 307 703 377 Q703 448 669.5 507.5 Q636 567 578 601.5 Q520 636 451 636 Z " />
<glyph glyph-name="Oslash" unicode="&#xd8;" horiz-adv-x="910" d="M750 649 Q788 602 800 582 Q827 537 842.5 483 Q858 429 858 376 Q858 271 804.5 180.5 Q751 90 661 36.5 Q571 -17 466 -17 Q398 -17 338.5 -2.5 Q279 12 241 37 L157 -61 L79 10 L155 107 Q120 151 111 166 Q83 211 67.5 265.5 Q52 320 52 376 Q52 485 105.5 575.5 Q159 666 252 718.5 Q345 771 457 771 Q514 771 564 757.5 Q614 744 663 716 L749 819 L833 749 L750 649 Z M572 608 Q539 623 512.5 629.5 Q486 636 455 636 Q387 636 329 601.5 Q271 567 237 507.5 Q203 448 203 379 Q203 336 216.5 294.5 Q230 253 253 223 L572 608 Z M331 149 Q366 131 393 124.5 Q420 118 453 118 Q522 118 580 152.5 Q638 187 672 246.5 Q706 306 706 376 Q706 465 655 532 L331 149 Z " />
<glyph glyph-name="Oslashacute" unicode="&#x1fe;" horiz-adv-x="910" d="M370 878 L525 1028 L619 951 L431 823 L370 878 Z M750 649 Q788 602 800 582 Q827 537 842.5 483 Q858 429 858 376 Q858 271 804.5 180.5 Q751 90 661 36.5 Q571 -17 466 -17 Q398 -17 338.5 -2.5 Q279 12 241 37 L157 -61 L79 10 L155 107 Q120 151 111 166 Q83 211 67.5 265.5 Q52 320 52 376 Q52 485 105.5 575.5 Q159 666 252 718.5 Q345 771 457 771 Q514 771 564 757.5 Q614 744 663 716 L749 819 L833 749 L750 649 Z M572 608 Q539 623 512.5 629.5 Q486 636 455 636 Q387 636 329 601.5 Q271 567 237 507.5 Q203 448 203 379 Q203 336 216.5 294.5 Q230 253 253 223 L572 608 Z M331 149 Q366 131 393 124.5 Q420 118 453 118 Q522 118 580 152.5 Q638 187 672 246.5 Q706 306 706 376 Q706 465 655 532 L331 149 Z " />
<glyph glyph-name="Otilde" unicode="&#xd5;" horiz-adv-x="903" d="M258 838 Q267 905 299.5 943 Q332 981 379 981 Q411 981 469 958 Q500 947 514 942.5 Q528 938 540 938 Q557 938 567 946.5 Q577 955 590 980 L668 980 Q654 912 619 874 Q584 836 534 836 Q519 836 503 840.5 Q487 845 455 858 Q424 870 408.5 874.5 Q393 879 381 879 Q364 879 353.5 869.5 Q343 860 334 838 L258 838 Z M453 771 Q564 771 656 718.5 Q748 666 801 575.5 Q854 485 854 376 Q854 267 800.5 177 Q747 87 653.5 35 Q560 -17 447 -17 Q336 -17 245 35.5 Q154 88 101.5 179.5 Q49 271 49 382 Q49 488 103 577 Q157 666 250 718.5 Q343 771 453 771 Z M451 636 Q384 636 326 601.5 Q268 567 234 508 Q200 449 200 380 Q200 308 233.5 248 Q267 188 325 153 Q383 118 452 118 Q520 118 577.5 153 Q635 188 669 247.5 Q703 307 703 377 Q703 448 669.5 507.5 Q636 567 578 601.5 Q520 636 451 636 Z " />
<glyph glyph-name="OE" unicode="&#x152;" horiz-adv-x="1172" d="M852 458 L1105 458 L1105 330 L852 330 L852 128 L1116 128 L1116 0 L707 0 L707 102 Q652 40 589 11.5 Q526 -17 445 -17 Q336 -17 245.5 35.5 Q155 88 102 178 Q49 268 49 375 Q49 483 102 574 Q155 665 245 718 Q335 771 442 771 Q491 771 541.5 757.5 Q592 744 631 720 Q651 706 667.5 691.5 Q684 677 707 652 L707 754 L1116 754 L1116 626 L852 626 L852 458 Z M441 636 Q376 636 320.5 601.5 Q265 567 232.5 508 Q200 449 200 380 Q200 307 232 247 Q264 187 319 152.5 Q374 118 442 118 Q511 118 568.5 152 Q626 186 659.5 245.5 Q693 305 693 376 Q693 446 659 506 Q625 566 567 601 Q509 636 441 636 Z " />
<glyph glyph-name="P" unicode="P" horiz-adv-x="605" d="M87 0 L87 754 L307 754 Q381 754 426 741 Q471 728 506 696 Q543 663 563 615.5 Q583 568 583 514 Q583 466 567 422 Q551 378 522 346 Q490 312 442.5 295.5 Q395 279 329 279 L234 279 L234 0 L87 0 Z M294 407 Q432 407 432 515 Q432 542 421.5 565 Q411 588 393 602 Q377 615 351.5 620.5 Q326 626 285 626 L234 626 L234 407 L294 407 Z " />
<glyph glyph-name="Thorn" unicode="&#xde;" horiz-adv-x="607" d="M87 0 L87 754 L234 754 L234 647 L299 647 Q357 647 396.5 640 Q436 633 468 617 Q523 589 553.5 533.5 Q584 478 584 409 Q584 345 557.5 290.5 Q531 236 484 206 Q426 168 328 168 L234 168 L234 0 L87 0 Z M289 305 Q329 305 350.5 310.5 Q372 316 388 330 Q404 343 412 364 Q420 385 420 409 Q420 461 387.5 486.5 Q355 512 288 512 L234 512 L234 305 L289 305 Z " />
<glyph glyph-name="Q" unicode="Q" horiz-adv-x="899" d="M664 40 Q615 10 566 -3.5 Q517 -17 457 -17 Q343 -17 249.5 35 Q156 87 102.5 177 Q49 267 49 376 Q49 485 102.5 575.5 Q156 666 249 718.5 Q342 771 454 771 Q567 771 659.5 719 Q752 667 805.5 576 Q859 485 859 375 Q859 298 834 234.5 Q809 171 753 106 L875 -15 L727 -29 L664 40 Z M649 218 Q679 252 693 289.5 Q707 327 707 376 Q707 448 673.5 507.5 Q640 567 581.5 601.5 Q523 636 453 636 Q382 636 324.5 601.5 Q267 567 233.5 507 Q200 447 200 374 Q200 302 232.5 243.5 Q265 185 322.5 151.5 Q380 118 450 118 Q485 118 509 124.5 Q533 131 558 148 L412 290 L565 303 L649 218 Z " />
<glyph glyph-name="R" unicode="R" horiz-adv-x="650" d="M457 0 L253 303 L234 303 L234 0 L87 0 L87 754 L305 754 Q433 754 497 701 Q532 672 552 626.5 Q572 581 572 531 Q572 480 554 436 Q536 392 504 365 Q482 346 458.5 335.5 Q435 325 400 318 L637 0 L457 0 Z M277 407 Q347 407 383.5 436.5 Q420 466 420 522 Q420 635 279 635 L234 635 L234 407 L277 407 Z " />
<glyph glyph-name="Racute" unicode="&#x154;" horiz-adv-x="650" d="M220 878 L375 1028 L469 951 L280 823 L220 878 Z M457 0 L253 303 L234 303 L234 0 L87 0 L87 754 L305 754 Q433 754 497 701 Q532 672 552 626.5 Q572 581 572 531 Q572 480 554 436 Q536 392 504 365 Q482 346 458.5 335.5 Q435 325 400 318 L637 0 L457 0 Z M277 407 Q347 407 383.5 436.5 Q420 466 420 522 Q420 635 279 635 L234 635 L234 407 L277 407 Z " />
<glyph glyph-name="Rcaron" unicode="&#x158;" horiz-adv-x="650" d="M298 946 L421 1046 L492 980 L297 823 L106 980 L175 1046 L298 946 Z M457 0 L253 303 L234 303 L234 0 L87 0 L87 754 L305 754 Q433 754 497 701 Q532 672 552 626.5 Q572 581 572 531 Q572 480 554 436 Q536 392 504 365 Q482 346 458.5 335.5 Q435 325 400 318 L637 0 L457 0 Z M277 407 Q347 407 383.5 436.5 Q420 466 420 522 Q420 635 279 635 L234 635 L234 407 L277 407 Z " />
<glyph glyph-name="uni0156" unicode="&#x156;" horiz-adv-x="650" d="M457 0 L253 303 L234 303 L234 0 L87 0 L87 754 L305 754 Q433 754 497 701 Q532 672 552 626.5 Q572 581 572 531 Q572 480 554 436 Q536 392 504 365 Q482 346 458.5 335.5 Q435 325 400 318 L637 0 L457 0 Z M277 407 Q347 407 383.5 436.5 Q420 466 420 522 Q420 635 279 635 L234 635 L234 407 L277 407 Z M284 -272 L208 -264 L289 -60 L411 -70 L284 -272 Z " />
<glyph glyph-name="S" unicode="S" horiz-adv-x="601" d="M455 582 Q426 615 397.5 629 Q369 643 333 643 Q288 643 257.5 618.5 Q227 594 227 559 Q227 529 251 509 Q275 489 341 464 Q405 441 436 425.5 Q467 410 492 389 Q558 332 558 231 Q558 157 525 100.5 Q492 44 432.5 13 Q373 -18 296 -18 Q214 -18 151 16.5 Q88 51 37 125 L132 217 Q158 169 199 142.5 Q240 116 290 116 Q341 116 374 146 Q407 176 407 223 Q407 269 366 298 Q344 313 261 344 Q159 381 117.5 426.5 Q76 472 76 547 Q76 609 106.5 659 Q137 709 190.5 737.5 Q244 766 311 766 Q437 766 532 683 L455 582 Z " />
<glyph glyph-name="Sacute" unicode="&#x15a;" horiz-adv-x="601" d="M233 878 L389 1028 L483 951 L294 823 L233 878 Z M455 582 Q426 615 397.5 629 Q369 643 333 643 Q288 643 257.5 618.5 Q227 594 227 559 Q227 529 251 509 Q275 489 341 464 Q405 441 436 425.5 Q467 410 492 389 Q558 332 558 231 Q558 157 525 100.5 Q492 44 432.5 13 Q373 -18 296 -18 Q214 -18 151 16.5 Q88 51 37 125 L132 217 Q158 169 199 142.5 Q240 116 290 116 Q341 116 374 146 Q407 176 407 223 Q407 269 366 298 Q344 313 261 344 Q159 381 117.5 426.5 Q76 472 76 547 Q76 609 106.5 659 Q137 709 190.5 737.5 Q244 766 311 766 Q437 766 532 683 L455 582 Z " />
<glyph glyph-name="Scaron" unicode="&#x160;" horiz-adv-x="601" d="M315 946 L438 1046 L508 980 L314 823 L123 980 L192 1046 L315 946 Z M455 582 Q426 615 397.5 629 Q369 643 333 643 Q288 643 257.5 618.5 Q227 594 227 559 Q227 529 251 509 Q275 489 341 464 Q405 441 436 425.5 Q467 410 492 389 Q558 332 558 231 Q558 157 525 100.5 Q492 44 432.5 13 Q373 -18 296 -18 Q214 -18 151 16.5 Q88 51 37 125 L132 217 Q158 169 199 142.5 Q240 116 290 116 Q341 116 374 146 Q407 176 407 223 Q407 269 366 298 Q344 313 261 344 Q159 381 117.5 426.5 Q76 472 76 547 Q76 609 106.5 659 Q137 709 190.5 737.5 Q244 766 311 766 Q437 766 532 683 L455 582 Z " />
<glyph glyph-name="Scedilla" unicode="&#x15e;" horiz-adv-x="601" d="M455 582 Q426 615 397.5 629 Q369 643 333 643 Q288 643 257.5 618.5 Q227 594 227 559 Q227 529 251 509 Q275 489 341 464 Q405 441 436 425.5 Q467 410 492 389 Q558 332 558 231 Q558 157 525 100.5 Q492 44 432.5 13 Q373 -18 296 -18 Q214 -18 151 16.5 Q88 51 37 125 L132 217 Q158 169 199 142.5 Q240 116 290 116 Q341 116 374 146 Q407 176 407 223 Q407 269 366 298 Q344 313 261 344 Q159 381 117.5 426.5 Q76 472 76 547 Q76 609 106.5 659 Q137 709 190.5 737.5 Q244 766 311 766 Q437 766 532 683 L455 582 Z M159 -205 L272 -47 L368 -105 L231 -250 L159 -205 Z " />
<glyph glyph-name="Scircumflex" unicode="&#x15c;" horiz-adv-x="601" d="M508 890 L438 823 L315 924 L192 823 L123 890 L314 1046 L508 890 Z M455 582 Q426 615 397.5 629 Q369 643 333 643 Q288 643 257.5 618.5 Q227 594 227 559 Q227 529 251 509 Q275 489 341 464 Q405 441 436 425.5 Q467 410 492 389 Q558 332 558 231 Q558 157 525 100.5 Q492 44 432.5 13 Q373 -18 296 -18 Q214 -18 151 16.5 Q88 51 37 125 L132 217 Q158 169 199 142.5 Q240 116 290 116 Q341 116 374 146 Q407 176 407 223 Q407 269 366 298 Q344 313 261 344 Q159 381 117.5 426.5 Q76 472 76 547 Q76 609 106.5 659 Q137 709 190.5 737.5 Q244 766 311 766 Q437 766 532 683 L455 582 Z " />
<glyph glyph-name="uni0218" unicode="&#x218;" horiz-adv-x="601" d="M455 582 Q426 615 397.5 629 Q369 643 333 643 Q288 643 257.5 618.5 Q227 594 227 559 Q227 529 251 509 Q275 489 341 464 Q405 441 436 425.5 Q467 410 492 389 Q558 332 558 231 Q558 157 525 100.5 Q492 44 432.5 13 Q373 -18 296 -18 Q214 -18 151 16.5 Q88 51 37 125 L132 217 Q158 169 199 142.5 Q240 116 290 116 Q341 116 374 146 Q407 176 407 223 Q407 269 366 298 Q344 313 261 344 Q159 381 117.5 426.5 Q76 472 76 547 Q76 609 106.5 659 Q137 709 190.5 737.5 Q244 766 311 766 Q437 766 532 683 L455 582 Z M242 -272 L166 -264 L247 -60 L370 -70 L242 -272 Z " />
<glyph glyph-name="uni1E9E" unicode="&#x1e9e;" horiz-adv-x="716" d="M506 432 Q590 391 633 340 Q676 289 676 219 Q676 114 609.5 52.5 Q543 -9 426 -9 Q361 -9 292 10 L292 155 Q322 138 356.5 128.5 Q391 119 421 119 Q465 119 494.5 144.5 Q524 170 524 218 Q524 270 481.5 305.5 Q439 341 331 375 L455 633 Q414 642 366 642 Q306 642 275.5 623 Q245 604 234 564 Q223 524 223 451 L223 0 L76 0 L76 495 Q76 640 146 705.5 Q216 771 354 771 Q433 771 506.5 752 Q580 733 638 695 L506 432 Z " />
<glyph glyph-name="uni018F" unicode="&#x18f;" horiz-adv-x="902" d="M703 410 Q693 477 658 528.5 Q623 580 569.5 608.5 Q516 637 452 637 Q378 637 320.5 600.5 Q263 564 226 493 L96 565 Q143 659 240 715.5 Q337 772 452 772 Q562 772 654 719 Q746 666 799.5 575 Q853 484 853 375 Q853 266 799.5 175.5 Q746 85 654 32.5 Q562 -20 451 -20 Q341 -20 248.5 31.5 Q156 83 102.5 172 Q49 261 49 367 Q49 389 51 410 L703 410 Z M212 296 Q223 263 234.5 241.5 Q246 220 263 200 Q296 160 347 137 Q398 114 451 114 Q504 114 556 137.5 Q608 161 640 199 Q671 237 688 296 L212 296 Z " />
<glyph glyph-name="T" unicode="T" horiz-adv-x="501" d="M176 626 L8 626 L8 754 L493 754 L493 626 L323 626 L323 0 L176 0 L176 626 Z " />
<glyph glyph-name="Tbar" unicode="&#x166;" horiz-adv-x="501" d="M323 419 L323 0 L176 0 L176 419 L32 419 L32 532 L176 532 L176 626 L8 626 L8 754 L493 754 L493 626 L323 626 L323 532 L469 532 L469 419 L323 419 Z " />
<glyph glyph-name="Tcaron" unicode="&#x164;" horiz-adv-x="501" d="M249 946 L373 1046 L443 980 L249 823 L58 980 L125 1046 L249 946 Z M176 626 L8 626 L8 754 L493 754 L493 626 L323 626 L323 0 L176 0 L176 626 Z " />
<glyph glyph-name="uni0162" unicode="&#x162;" horiz-adv-x="501" d="M176 626 L8 626 L8 754 L493 754 L493 626 L323 626 L323 0 L176 0 L176 626 Z M194 -272 L119 -264 L200 -60 L322 -70 L194 -272 Z " />
<glyph glyph-name="U" unicode="U" horiz-adv-x="779" d="M234 322 Q234 264 238.5 238 Q243 212 258 188 Q277 156 312 137 Q347 118 390 118 Q432 118 467.5 137 Q503 156 522 188 Q536 212 541 238.5 Q546 265 546 322 L546 754 L693 754 L693 293 Q693 227 679.5 178 Q666 129 637 92 Q598 41 532.5 12 Q467 -17 390 -17 Q313 -17 247 12 Q181 41 142 92 Q114 129 100.5 178 Q87 227 87 293 L87 754 L234 754 L234 322 Z " />
<glyph glyph-name="Uacute" unicode="&#xda;" horiz-adv-x="779" d="M311 878 L466 1028 L559 951 L371 823 L311 878 Z M234 322 Q234 264 238.5 238 Q243 212 258 188 Q277 156 312 137 Q347 118 390 118 Q432 118 467.5 137 Q503 156 522 188 Q536 212 541 238.5 Q546 265 546 322 L546 754 L693 754 L693 293 Q693 227 679.5 178 Q666 129 637 92 Q598 41 532.5 12 Q467 -17 390 -17 Q313 -17 247 12 Q181 41 142 92 Q114 129 100.5 178 Q87 227 87 293 L87 754 L234 754 L234 322 Z " />
<glyph glyph-name="Ubreve" unicode="&#x16c;" horiz-adv-x="779" d="M299 985 Q312 947 333 930.5 Q354 914 390 914 Q425 914 446 930.5 Q467 947 481 985 L575 985 Q567 912 517 869.5 Q467 827 390 827 Q313 827 263 869.5 Q213 912 205 985 L299 985 Z M234 322 Q234 264 238.5 238 Q243 212 258 188 Q277 156 312 137 Q347 118 390 118 Q432 118 467.5 137 Q503 156 522 188 Q536 212 541 238.5 Q546 265 546 322 L546 754 L693 754 L693 293 Q693 227 679.5 178 Q666 129 637 92 Q598 41 532.5 12 Q467 -17 390 -17 Q313 -17 247 12 Q181 41 142 92 Q114 129 100.5 178 Q87 227 87 293 L87 754 L234 754 L234 322 Z " />
<glyph glyph-name="Ucircumflex" unicode="&#xdb;" horiz-adv-x="779" d="M583 890 L512 823 L389 924 L266 823 L198 890 L389 1046 L583 890 Z M234 322 Q234 264 238.5 238 Q243 212 258 188 Q277 156 312 137 Q347 118 390 118 Q432 118 467.5 137 Q503 156 522 188 Q536 212 541 238.5 Q546 265 546 322 L546 754 L693 754 L693 293 Q693 227 679.5 178 Q666 129 637 92 Q598 41 532.5 12 Q467 -17 390 -17 Q313 -17 247 12 Q181 41 142 92 Q114 129 100.5 178 Q87 227 87 293 L87 754 L234 754 L234 322 Z " />
<glyph glyph-name="Udieresis" unicode="&#xdc;" horiz-adv-x="779" d="M271 998 Q305 998 329 974.5 Q353 951 353 918 Q353 884 329 860 Q305 836 271 836 Q237 836 213.5 860 Q190 884 190 918 Q190 951 214 974.5 Q238 998 271 998 Z M508 998 Q542 998 566 974.5 Q590 951 590 918 Q590 884 566.5 860 Q543 836 508 836 Q474 836 450.5 860 Q427 884 427 918 Q427 951 451 974.5 Q475 998 508 998 Z M234 322 Q234 264 238.5 238 Q243 212 258 188 Q277 156 312 137 Q347 118 390 118 Q432 118 467.5 137 Q503 156 522 188 Q536 212 541 238.5 Q546 265 546 322 L546 754 L693 754 L693 293 Q693 227 679.5 178 Q666 129 637 92 Q598 41 532.5 12 Q467 -17 390 -17 Q313 -17 247 12 Q181 41 142 92 Q114 129 100.5 178 Q87 227 87 293 L87 754 L234 754 L234 322 Z " />
<glyph glyph-name="Ugrave" unicode="&#xd9;" horiz-adv-x="779" d="M469 878 L409 823 L220 951 L314 1028 L469 878 Z M234 322 Q234 264 238.5 238 Q243 212 258 188 Q277 156 312 137 Q347 118 390 118 Q432 118 467.5 137 Q503 156 522 188 Q536 212 541 238.5 Q546 265 546 322 L546 754 L693 754 L693 293 Q693 227 679.5 178 Q666 129 637 92 Q598 41 532.5 12 Q467 -17 390 -17 Q313 -17 247 12 Q181 41 142 92 Q114 129 100.5 178 Q87 227 87 293 L87 754 L234 754 L234 322 Z " />
<glyph glyph-name="Uhorn" unicode="&#x1af;" horiz-adv-x="779" d="M803 597 L728 605 L808 809 L930 799 L803 597 Z M234 322 Q234 264 238.5 238 Q243 212 258 188 Q277 156 312 137 Q347 118 390 118 Q432 118 467.5 137 Q503 156 522 188 Q536 212 541 238.5 Q546 265 546 322 L546 754 L693 754 L693 293 Q693 227 679.5 178 Q666 129 637 92 Q598 41 532.5 12 Q467 -17 390 -17 Q313 -17 247 12 Q181 41 142 92 Q114 129 100.5 178 Q87 227 87 293 L87 754 L234 754 L234 322 Z " />
<glyph glyph-name="Uhungarumlaut" unicode="&#x170;" horiz-adv-x="779" d="M217 876 L358 1027 L443 951 L266 823 L217 876 Z M435 876 L577 1027 L661 951 L484 823 L435 876 Z M234 322 Q234 264 238.5 238 Q243 212 258 188 Q277 156 312 137 Q347 118 390 118 Q432 118 467.5 137 Q503 156 522 188 Q536 212 541 238.5 Q546 265 546 322 L546 754 L693 754 L693 293 Q693 227 679.5 178 Q666 129 637 92 Q598 41 532.5 12 Q467 -17 390 -17 Q313 -17 247 12 Q181 41 142 92 Q114 129 100.5 178 Q87 227 87 293 L87 754 L234 754 L234 322 Z " />
<glyph glyph-name="Umacron" unicode="&#x16a;" horiz-adv-x="779" d="M579 851 L201 851 L201 941 L579 941 L579 851 Z M234 322 Q234 264 238.5 238 Q243 212 258 188 Q277 156 312 137 Q347 118 390 118 Q432 118 467.5 137 Q503 156 522 188 Q536 212 541 238.5 Q546 265 546 322 L546 754 L693 754 L693 293 Q693 227 679.5 178 Q666 129 637 92 Q598 41 532.5 12 Q467 -17 390 -17 Q313 -17 247 12 Q181 41 142 92 Q114 129 100.5 178 Q87 227 87 293 L87 754 L234 754 L234 322 Z " />
<glyph glyph-name="Uogonek" unicode="&#x172;" horiz-adv-x="779" d="M234 322 Q234 264 238.5 238 Q243 212 258 188 Q277 156 312 137 Q347 118 390 118 Q432 118 467.5 137 Q503 156 522 188 Q536 212 541 238.5 Q546 265 546 322 L546 754 L693 754 L693 293 Q692 201 670 146.5 Q648 92 593 49 Q552 13 533.5 -15.5 Q515 -44 515 -70 Q515 -89 528.5 -102 Q542 -115 562 -115 Q589 -115 625 -94 L606 -182 Q572 -200 528 -200 Q479 -200 446.5 -173.5 Q414 -147 414 -107 Q414 -51 466 -10 Q428 -17 393 -17 Q314 -17 247.5 12 Q181 41 142 92 Q114 129 100.5 178 Q87 227 87 293 L87 754 L234 754 L234 322 Z " />
<glyph glyph-name="Uring" unicode="&#x16e;" horiz-adv-x="779" d="M390 1041 Q435 1041 466 1010 Q497 979 497 935 Q497 890 466 858.5 Q435 827 390 827 Q345 827 314 858.5 Q283 890 283 936 Q283 979 314.5 1010 Q346 1041 390 1041 Z M390 976 Q372 976 359.5 964 Q347 952 347 935 Q347 917 359.5 904.5 Q372 892 390 892 Q408 892 420.5 904.5 Q433 917 433 935 Q433 952 420.5 964 Q408 976 390 976 Z M234 322 Q234 264 238.5 238 Q243 212 258 188 Q277 156 312 137 Q347 118 390 118 Q432 118 467.5 137 Q503 156 522 188 Q536 212 541 238.5 Q546 265 546 322 L546 754 L693 754 L693 293 Q693 227 679.5 178 Q666 129 637 92 Q598 41 532.5 12 Q467 -17 390 -17 Q313 -17 247 12 Q181 41 142 92 Q114 129 100.5 178 Q87 227 87 293 L87 754 L234 754 L234 322 Z " />
<glyph glyph-name="Utilde" unicode="&#x168;" horiz-adv-x="779" d="M185 838 Q195 905 227 943 Q259 981 306 981 Q339 981 397 958 Q428 947 442 942.5 Q456 938 468 938 Q484 938 493.5 946.5 Q503 955 516 980 L594 980 Q581 912 546 874 Q511 836 461 836 Q446 836 430.5 840.5 Q415 845 383 858 Q350 870 334.5 874.5 Q319 879 307 879 Q291 879 280.5 869.5 Q270 860 262 838 L185 838 Z M234 322 Q234 264 238.5 238 Q243 212 258 188 Q277 156 312 137 Q347 118 390 118 Q432 118 467.5 137 Q503 156 522 188 Q536 212 541 238.5 Q546 265 546 322 L546 754 L693 754 L693 293 Q693 227 679.5 178 Q666 129 637 92 Q598 41 532.5 12 Q467 -17 390 -17 Q313 -17 247 12 Q181 41 142 92 Q114 129 100.5 178 Q87 227 87 293 L87 754 L234 754 L234 322 Z " />
<glyph glyph-name="V" unicode="V" horiz-adv-x="728" d="M566 754 L725 754 L400 -18 L321 -18 L1 754 L162 754 L363 247 L566 754 Z " />
<glyph glyph-name="W" unicode="W" horiz-adv-x="1103" d="M510 760 L590 760 L765 241 L946 754 L1101 754 L817 -15 L714 -15 L547 478 L371 -15 L268 -15 L1 754 L156 754 L325 241 L510 760 Z " />
<glyph glyph-name="Wacute" unicode="&#x1e82;" horiz-adv-x="1103" d="M426 878 L582 1028 L676 951 L487 823 L426 878 Z M510 760 L590 760 L765 241 L946 754 L1101 754 L817 -15 L714 -15 L547 478 L371 -15 L268 -15 L1 754 L156 754 L325 241 L510 760 Z " />
<glyph glyph-name="Wcircumflex" unicode="&#x174;" horiz-adv-x="1103" d="M744 890 L673 823 L549 924 L426 823 L358 890 L549 1046 L744 890 Z M510 760 L590 760 L765 241 L946 754 L1101 754 L817 -15 L714 -15 L547 478 L371 -15 L268 -15 L1 754 L156 754 L325 241 L510 760 Z " />
<glyph glyph-name="Wdieresis" unicode="&#x1e84;" horiz-adv-x="1103" d="M432 998 Q466 998 489.5 974.5 Q513 951 513 918 Q513 884 489.5 860 Q466 836 432 836 Q398 836 374 860 Q350 884 350 918 Q350 951 374.5 974.5 Q399 998 432 998 Z M670 998 Q704 998 727.5 974.5 Q751 951 751 918 Q751 884 727.5 860 Q704 836 670 836 Q636 836 612.5 860 Q589 884 589 918 Q589 951 613 974.5 Q637 998 670 998 Z M510 760 L590 760 L765 241 L946 754 L1101 754 L817 -15 L714 -15 L547 478 L371 -15 L268 -15 L1 754 L156 754 L325 241 L510 760 Z " />
<glyph glyph-name="Wgrave" unicode="&#x1e80;" horiz-adv-x="1103" d="M655 878 L596 823 L407 951 L501 1028 L655 878 Z M510 760 L590 760 L765 241 L946 754 L1101 754 L817 -15 L714 -15 L547 478 L371 -15 L268 -15 L1 754 L156 754 L325 241 L510 760 Z " />
<glyph glyph-name="X" unicode="X" horiz-adv-x="706" d="M226 754 L359 520 L498 754 L675 754 L443 399 L699 0 L527 0 L357 276 L182 0 L8 0 L275 399 L50 754 L226 754 Z " />
<glyph glyph-name="Y" unicode="Y" horiz-adv-x="659" d="M168 754 L330 492 L490 754 L666 754 L401 346 L401 0 L254 0 L254 346 L-6 754 L168 754 Z " />
<glyph glyph-name="Yacute" unicode="&#xdd;" horiz-adv-x="659" d="M251 878 L406 1028 L499 951 L311 823 L251 878 Z M168 754 L330 492 L490 754 L666 754 L401 346 L401 0 L254 0 L254 346 L-6 754 L168 754 Z " />
<glyph glyph-name="Ycircumflex" unicode="&#x176;" horiz-adv-x="659" d="M522 890 L452 823 L329 924 L206 823 L137 890 L329 1046 L522 890 Z M168 754 L330 492 L490 754 L666 754 L401 346 L401 0 L254 0 L254 346 L-6 754 L168 754 Z " />
<glyph glyph-name="Ydieresis" unicode="&#x178;" horiz-adv-x="659" d="M211 998 Q245 998 269 974.5 Q293 951 293 918 Q293 884 268.5 860 Q244 836 211 836 Q177 836 153.5 860 Q130 884 130 918 Q130 951 153.5 974.5 Q177 998 211 998 Z M449 998 Q483 998 506.5 974.5 Q530 951 530 918 Q530 884 506 860 Q482 836 449 836 Q415 836 391 860 Q367 884 367 918 Q367 951 391 974.5 Q415 998 449 998 Z M168 754 L330 492 L490 754 L666 754 L401 346 L401 0 L254 0 L254 346 L-6 754 L168 754 Z " />
<glyph glyph-name="Ygrave" unicode="&#x1ef2;" horiz-adv-x="659" d="M454 878 L393 823 L205 951 L299 1028 L454 878 Z M168 754 L330 492 L490 754 L666 754 L401 346 L401 0 L254 0 L254 346 L-6 754 L168 754 Z " />
<glyph glyph-name="Z" unicode="Z" horiz-adv-x="660" d="M615 0 L24 0 L392 626 L81 626 L81 754 L634 754 L267 128 L615 128 L615 0 Z " />
<glyph glyph-name="Zacute" unicode="&#x179;" horiz-adv-x="660" d="M272 878 L427 1028 L521 951 L332 823 L272 878 Z M615 0 L24 0 L392 626 L81 626 L81 754 L634 754 L267 128 L615 128 L615 0 Z " />
<glyph glyph-name="Zcaron" unicode="&#x17d;" horiz-adv-x="660" d="M350 946 L473 1046 L545 980 L350 823 L159 980 L227 1046 L350 946 Z M615 0 L24 0 L392 626 L81 626 L81 754 L634 754 L267 128 L615 128 L615 0 Z " />
<glyph glyph-name="Zdotaccent" unicode="&#x17b;" horiz-adv-x="660" d="M359 998 Q395 998 420 973 Q445 948 445 913 Q445 878 420 853 Q395 828 359 828 Q324 828 299.5 853.5 Q275 879 275 914 Q275 948 300 973 Q325 998 359 998 Z M615 0 L24 0 L392 626 L81 626 L81 754 L634 754 L267 128 L615 128 L615 0 Z " />
<glyph glyph-name="uni01C4" unicode="&#x1c4;" horiz-adv-x="1416" d="M1107 946 L1232 1046 L1302 980 L1107 823 L916 980 L984 1046 L1107 946 Z M303 754 Q467 754 573 667 Q636 615 671.5 538.5 Q707 462 707 377 Q707 293 671 216.5 Q635 140 571 87 Q516 41 452 20.5 Q388 0 302 0 L87 0 L87 754 L303 754 Z M1372 0 L781 0 L1149 626 L838 626 L838 754 L1392 754 L1025 128 L1372 128 L1372 0 Z M273 128 Q344 128 392 142 Q440 156 475 188 Q513 222 534.5 272.5 Q556 323 556 377 Q556 431 534.5 481 Q513 531 475 565 Q438 598 391.5 612 Q345 626 273 626 L234 626 L234 128 L273 128 Z " />
<glyph glyph-name="uni01C5" unicode="&#x1c5;" horiz-adv-x="1304" d="M1048 696 L1172 799 L1242 732 L1048 575 L857 732 L924 799 L1048 696 Z M303 754 Q467 754 573 667 Q636 615 671.5 538.5 Q707 462 707 377 Q707 293 671 216.5 Q635 140 571 87 Q516 41 452 20.5 Q388 0 302 0 L87 0 L87 754 L303 754 Z M273 128 Q344 128 392 142 Q440 156 475 188 Q513 222 534.5 272.5 Q556 323 556 377 Q556 431 534.5 481 Q513 531 475 565 Q438 598 391.5 612 Q345 626 273 626 L234 626 L234 128 L273 128 Z M1271 0 L772 0 L1050 373 L815 373 L815 492 L1289 492 L1014 119 L1271 119 L1271 0 Z " />
<glyph glyph-name="uni01C7" unicode="&#x1c7;" horiz-adv-x="921" d="M466 128 L466 0 L87 0 L87 754 L234 754 L234 128 L466 128 Z M895 245 Q895 167 879 117 Q863 67 828 34 Q801 9 764 -4.5 Q727 -18 687 -18 Q636 -18 593 -0.5 Q550 17 511 53 L599 160 Q628 118 672 118 Q696 118 713.5 129.5 Q731 141 738 163 Q744 179 746 200.5 Q748 222 748 269 L748 754 L895 754 L895 245 Z " />
<glyph glyph-name="uni01C8" unicode="&#x1c8;" horiz-adv-x="748" d="M466 128 L466 0 L87 0 L87 754 L234 754 L234 128 L466 128 Z M617 779 Q651 779 675 754.5 Q699 730 699 696 Q699 662 675 638 Q651 614 617 614 Q583 614 559 638 Q535 662 535 697 Q535 730 559 754.5 Q583 779 617 779 Z M508 -264 Q484 -264 468 -262.5 Q452 -261 439 -255 L439 -133 Q460 -145 487 -145 Q515 -145 531.5 -128.5 Q548 -112 548 -67 L548 489 L685 489 L685 -44 Q685 -117 670.5 -156 Q656 -195 627 -220 Q575 -264 508 -264 Z " />
<glyph glyph-name="uni01CA" unicode="&#x1ca;" horiz-adv-x="1321" d="M189 771 L647 246 L647 754 L794 754 L794 -15 L693 -15 L234 510 L234 0 L87 0 L87 771 L189 771 Z M1235 245 Q1235 167 1219 117 Q1203 67 1168 34 Q1141 9 1104 -4.5 Q1067 -18 1027 -18 Q976 -18 933 -0.5 Q890 17 851 53 L939 160 Q968 118 1012 118 Q1036 118 1053.5 129.5 Q1071 141 1078 163 Q1084 179 1086 200.5 Q1088 222 1088 269 L1088 754 L1235 754 L1235 245 Z " />
<glyph glyph-name="uni01CB" unicode="&#x1cb;" horiz-adv-x="1152" d="M189 771 L647 246 L647 754 L794 754 L794 -15 L693 -15 L234 510 L234 0 L87 0 L87 771 L189 771 Z M1021 779 Q1055 779 1079 754.5 Q1103 730 1103 696 Q1103 662 1079 638 Q1055 614 1021 614 Q987 614 963 638 Q939 662 939 697 Q939 730 963 754.5 Q987 779 1021 779 Z M912 -264 Q888 -264 872 -262.5 Q856 -261 843 -255 L843 -133 Q864 -145 891 -145 Q919 -145 935.5 -128.5 Q952 -112 952 -67 L952 489 L1089 489 L1089 -44 Q1089 -117 1074.5 -156 Q1060 -195 1031 -220 Q979 -264 912 -264 Z " />
<glyph glyph-name="uni01CD" unicode="&#x1cd;" horiz-adv-x="757" d="M384 946 L508 1046 L579 980 L384 823 L193 980 L261 1046 L384 946 Z M157 0 L1 0 L328 770 L438 770 L755 0 L598 0 L533 159 L225 159 L157 0 Z M272 278 L487 278 L382 549 L272 278 Z " />
<glyph glyph-name="uni01CF" unicode="&#x1cf;" horiz-adv-x="320" d="M158 946 L283 1046 L353 980 L158 823 L-33 980 L35 1046 L158 946 Z M87 0 L87 754 L234 754 L234 0 L87 0 Z " />
<glyph glyph-name="uni01D1" unicode="&#x1d1;" horiz-adv-x="903" d="M450 946 L574 1046 L644 980 L450 823 L259 980 L327 1046 L450 946 Z M453 771 Q564 771 656 718.5 Q748 666 801 575.5 Q854 485 854 376 Q854 267 800.5 177 Q747 87 653.5 35 Q560 -17 447 -17 Q336 -17 245 35.5 Q154 88 101.5 179.5 Q49 271 49 382 Q49 488 103 577 Q157 666 250 718.5 Q343 771 453 771 Z M451 636 Q384 636 326 601.5 Q268 567 234 508 Q200 449 200 380 Q200 308 233.5 248 Q267 188 325 153 Q383 118 452 118 Q520 118 577.5 153 Q635 188 669 247.5 Q703 307 703 377 Q703 448 669.5 507.5 Q636 567 578 601.5 Q520 636 451 636 Z " />
<glyph glyph-name="uni01D3" unicode="&#x1d3;" horiz-adv-x="779" d="M389 946 L512 1046 L583 980 L389 823 L198 980 L266 1046 L389 946 Z M234 322 Q234 264 238.5 238 Q243 212 258 188 Q277 156 312 137 Q347 118 390 118 Q432 118 467.5 137 Q503 156 522 188 Q536 212 541 238.5 Q546 265 546 322 L546 754 L693 754 L693 293 Q693 227 679.5 178 Q666 129 637 92 Q598 41 532.5 12 Q467 -17 390 -17 Q313 -17 247 12 Q181 41 142 92 Q114 129 100.5 178 Q87 227 87 293 L87 754 L234 754 L234 322 Z " />
<glyph glyph-name="uni01F4" unicode="&#x1f4;" horiz-adv-x="861" d="M374 878 L529 1028 L623 951 L434 823 L374 878 Z M811 403 Q810 320 802 271 Q794 222 772 180 Q726 85 641 34 Q556 -17 444 -17 Q331 -17 241 33.5 Q151 84 100 173 Q49 262 49 373 Q49 487 100.5 577.5 Q152 668 243.5 719.5 Q335 771 449 771 Q554 771 636.5 726 Q719 681 772 593 L643 524 Q576 636 447 636 Q377 636 320.5 602 Q264 568 232 507.5 Q200 447 200 373 Q200 300 232 241.5 Q264 183 320 149.5 Q376 116 446 116 Q527 116 581.5 160 Q636 204 644 276 L467 276 L467 403 L811 403 Z " />
<glyph glyph-name="uni0200" unicode="&#x200;" horiz-adv-x="757" d="M327 876 L278 823 L101 951 L184 1027 L327 876 Z M545 876 L496 823 L319 951 L402 1024 L545 876 Z M157 0 L1 0 L328 770 L438 770 L755 0 L598 0 L533 159 L225 159 L157 0 Z M272 278 L487 278 L382 549 L272 278 Z " />
<glyph glyph-name="uni021A" unicode="&#x21a;" horiz-adv-x="501" d="M176 626 L8 626 L8 754 L493 754 L493 626 L323 626 L323 0 L176 0 L176 626 Z M194 -272 L119 -264 L200 -60 L322 -70 L194 -272 Z " />
<glyph glyph-name="uni0226" unicode="&#x226;" horiz-adv-x="757" d="M379 998 Q414 998 438.5 973 Q463 948 463 913 Q463 878 438 853 Q413 828 379 828 Q343 828 318 853.5 Q293 879 293 914 Q293 948 318 973 Q343 998 379 998 Z M157 0 L1 0 L328 770 L438 770 L755 0 L598 0 L533 159 L225 159 L157 0 Z M272 278 L487 278 L382 549 L272 278 Z " />
<glyph glyph-name="uni1E1E" unicode="&#x1e1e;" horiz-adv-x="528" d="M295 998 Q330 998 355 973 Q380 948 380 913 Q380 879 355 853.5 Q330 828 295 828 Q259 828 234 853.5 Q209 879 209 914 Q209 948 234 973 Q259 998 295 998 Z M234 459 L470 459 L470 331 L234 331 L234 0 L87 0 L87 754 L486 754 L486 626 L234 626 L234 459 Z " />
<glyph glyph-name="uni1EA0" unicode="&#x1ea0;" horiz-adv-x="757" d="M157 0 L1 0 L328 770 L438 770 L755 0 L598 0 L533 159 L225 159 L157 0 Z M272 278 L487 278 L382 549 L272 278 Z M365 -85 Q402 -85 428 -110.5 Q454 -136 454 -173 Q454 -210 428.5 -236 Q403 -262 366 -262 Q329 -262 303 -236.5 Q277 -211 277 -173 Q277 -137 303 -111 Q329 -85 365 -85 Z " />
<glyph glyph-name="uni1EA2" unicode="&#x1ea2;" horiz-adv-x="757" d="M350 925 L358 928 Q385 932 392 932 Q425 937 436 944.5 Q447 952 447 968 Q447 987 433.5 997.5 Q420 1008 395 1008 Q380 1008 375 1006.5 Q370 1005 354 996 L340 990 L337 988 L330 984 L310 1035 L320 1040 Q374 1060 418 1060 Q469 1060 501 1033 Q533 1006 533 965 Q533 928 507.5 907 Q482 886 436 886 L410 886 L410 843 L350 843 L350 925 Z M157 0 L1 0 L328 770 L438 770 L755 0 L598 0 L533 159 L225 159 L157 0 Z M272 278 L487 278 L382 549 L272 278 Z " />
<glyph glyph-name="uni1EA4" unicode="&#x1ea4;" horiz-adv-x="757" d="M727 1029 L556 914 L586 890 L515 823 L392 924 L269 823 L201 890 L392 1046 L489 968 L632 1107 L727 1029 Z M157 0 L1 0 L328 770 L438 770 L755 0 L598 0 L533 159 L225 159 L157 0 Z M272 278 L487 278 L382 549 L272 278 Z " />
<glyph glyph-name="uni1EA6" unicode="&#x1ea6;" horiz-adv-x="757" d="M646 997 L586 942 L398 1071 L492 1148 L646 997 Z M571 890 L501 823 L377 924 L254 823 L185 890 L377 1046 L571 890 Z M157 0 L1 0 L328 770 L438 770 L755 0 L598 0 L533 159 L225 159 L157 0 Z M272 278 L487 278 L382 549 L272 278 Z " />
<glyph glyph-name="uni1EA8" unicode="&#x1ea8;" horiz-adv-x="757" d="M512 1006 Q546 1011 546 1011 Q579 1016 590 1023.5 Q601 1031 601 1048 Q601 1066 587.5 1076.5 Q574 1087 549 1087 Q534 1087 529 1085.5 Q524 1084 507 1075 L494 1069 L490 1067 Q487 1066 484 1063 L463 1114 L470 1118 L473 1119 Q530 1139 572 1139 Q623 1139 655 1112 Q687 1085 687 1043 Q687 1006 661.5 985 Q636 964 590 964 Q576 964 564 965 L564 922 L547 922 L585 890 L515 823 L392 924 L269 823 L201 890 L392 1046 L504 957 L504 1005 L512 1006 Z M157 0 L1 0 L328 770 L438 770 L755 0 L598 0 L533 159 L225 159 L157 0 Z M272 278 L487 278 L382 549 L272 278 Z " />
<glyph glyph-name="uni1EAA" unicode="&#x1eaa;" horiz-adv-x="757" d="M193 1055 Q203 1122 235 1160 Q267 1198 314 1198 Q348 1198 405 1175 Q436 1164 450 1159.5 Q464 1155 476 1155 Q492 1155 501.5 1163.5 Q511 1172 524 1197 L602 1197 Q589 1129 554 1091 Q519 1053 469 1053 Q454 1053 438.5 1057.5 Q423 1062 391 1075 Q358 1087 342.5 1091.5 Q327 1096 315 1096 Q299 1096 288.5 1086.5 Q278 1077 270 1055 L193 1055 Z M586 890 L515 823 L392 924 L269 823 L201 890 L392 1046 L586 890 Z M157 0 L1 0 L328 770 L438 770 L755 0 L598 0 L533 159 L225 159 L157 0 Z M272 278 L487 278 L382 549 L272 278 Z " />
<glyph glyph-name="uni1EAC" unicode="&#x1eac;" horiz-adv-x="757" d="M586 890 L515 823 L392 924 L269 823 L201 890 L392 1046 L586 890 Z M157 0 L1 0 L328 770 L438 770 L755 0 L598 0 L533 159 L225 159 L157 0 Z M272 278 L487 278 L382 549 L272 278 Z M365 -27 Q402 -27 428 -53 Q454 -79 454 -115 Q454 -153 428.5 -179 Q403 -205 366 -205 Q329 -205 303 -179 Q277 -153 277 -115 Q277 -79 303.5 -53 Q330 -27 365 -27 Z " />
<glyph glyph-name="uni1EAE" unicode="&#x1eae;" horiz-adv-x="757" d="M323 1018 L478 1170 L572 1093 L383 964 L323 1018 Z M287 985 Q301 947 322 930.5 Q343 914 379 914 Q414 914 435 930.5 Q456 947 469 985 L564 985 Q554 912 504.5 869.5 Q455 827 379 827 Q302 827 252 869.5 Q202 912 192 985 L287 985 Z M157 0 L1 0 L328 770 L438 770 L755 0 L598 0 L533 159 L225 159 L157 0 Z M272 278 L487 278 L382 549 L272 278 Z " />
<glyph glyph-name="uni1EB0" unicode="&#x1eb0;" horiz-adv-x="757" d="M435 1006 L374 951 L185 1080 L279 1157 L435 1006 Z M287 985 Q301 947 322 930.5 Q343 914 379 914 Q414 914 435 930.5 Q456 947 469 985 L564 985 Q554 912 504.5 869.5 Q455 827 379 827 Q302 827 252 869.5 Q202 912 192 985 L287 985 Z M157 0 L1 0 L328 770 L438 770 L755 0 L598 0 L533 159 L225 159 L157 0 Z M272 278 L487 278 L382 549 L272 278 Z " />
<glyph glyph-name="uni1EB2" unicode="&#x1eb2;" horiz-adv-x="757" d="M342 1052 L350 1054 Q377 1059 384 1059 Q418 1064 429 1071 Q440 1078 440 1095 Q440 1114 426 1124.5 Q412 1135 388 1135 Q372 1135 367 1133.5 Q362 1132 346 1122 L332 1116 L329 1114 L322 1111 L302 1162 L308 1165 L312 1166 Q364 1187 410 1187 Q461 1187 493 1160 Q525 1133 525 1092 Q525 1054 499.5 1033 Q474 1012 428 1012 L402 1012 L402 970 L342 970 L342 1052 Z M287 985 Q301 947 322 930.5 Q343 914 379 914 Q414 914 435 930.5 Q456 947 469 985 L564 985 Q554 912 504.5 869.5 Q455 827 379 827 Q302 827 252 869.5 Q202 912 192 985 L287 985 Z M157 0 L1 0 L328 770 L438 770 L755 0 L598 0 L533 159 L225 159 L157 0 Z M272 278 L487 278 L382 549 L272 278 Z " />
<glyph glyph-name="uni1EB4" unicode="&#x1eb4;" horiz-adv-x="757" d="M188 1018 Q197 1084 229.5 1122.5 Q262 1161 308 1161 Q341 1161 399 1138 Q430 1127 444 1122.5 Q458 1118 470 1118 Q487 1118 496.5 1126 Q506 1134 519 1159 L597 1159 Q584 1092 548.5 1054 Q513 1016 463 1016 Q448 1016 432 1020 Q416 1024 385 1037 Q354 1050 338 1054.5 Q322 1059 310 1059 Q294 1059 283.5 1050 Q273 1041 264 1018 L188 1018 Z M287 985 Q301 947 322 930.5 Q343 914 379 914 Q414 914 435 930.5 Q456 947 469 985 L564 985 Q554 912 504.5 869.5 Q455 827 379 827 Q302 827 252 869.5 Q202 912 192 985 L287 985 Z M157 0 L1 0 L328 770 L438 770 L755 0 L598 0 L533 159 L225 159 L157 0 Z M272 278 L487 278 L382 549 L272 278 Z " />
<glyph glyph-name="uni1EB6" unicode="&#x1eb6;" horiz-adv-x="757" d="M287 985 Q301 947 322 930.5 Q343 914 379 914 Q414 914 435 930.5 Q456 947 469 985 L564 985 Q554 912 504.5 869.5 Q455 827 379 827 Q302 827 252 869.5 Q202 912 192 985 L287 985 Z M157 0 L1 0 L328 770 L438 770 L755 0 L598 0 L533 159 L225 159 L157 0 Z M272 278 L487 278 L382 549 L272 278 Z M365 -21 Q402 -21 428 -47 Q454 -73 454 -110 Q454 -147 428.5 -173 Q403 -199 366 -199 Q329 -199 303 -173 Q277 -147 277 -110 Q277 -74 303.5 -47.5 Q330 -21 365 -21 Z " />
<glyph glyph-name="uni1EB8" unicode="&#x1eb8;" horiz-adv-x="559" d="M234 459 L494 459 L494 331 L234 331 L234 128 L504 128 L504 0 L87 0 L87 754 L504 754 L504 626 L234 626 L234 459 Z M298 -32 Q336 -32 362 -57.5 Q388 -83 388 -120 Q388 -157 362 -183 Q336 -209 299 -209 Q262 -209 236 -183 Q210 -157 210 -120 Q210 -84 236 -58 Q262 -32 298 -32 Z " />
<glyph glyph-name="uni1EBA" unicode="&#x1eba;" horiz-adv-x="559" d="M271 923 L279 925 Q306 930 313 930 Q346 935 357 942.5 Q368 950 368 966 Q368 985 354.5 995.5 Q341 1006 316 1006 Q301 1006 296 1004.5 Q291 1003 275 993 L261 988 L258 985 L251 982 L231 1033 L237 1036 L241 1037 Q293 1058 339 1058 Q390 1058 422 1031 Q454 1004 454 963 Q454 926 428.5 905 Q403 884 357 884 L331 884 L331 841 L271 841 L271 923 Z M234 459 L494 459 L494 331 L234 331 L234 128 L504 128 L504 0 L87 0 L87 754 L504 754 L504 626 L234 626 L234 459 Z " />
<glyph glyph-name="uni1EBC" unicode="&#x1ebc;" horiz-adv-x="559" d="M75 838 Q84 905 116 943 Q148 981 195 981 Q229 981 286 958 Q317 947 331 942.5 Q345 938 357 938 Q374 938 384 946.5 Q394 955 407 980 L485 980 Q471 912 436 874 Q401 836 351 836 Q336 836 320 840.5 Q304 845 272 858 Q241 870 225.5 874.5 Q210 879 198 879 Q181 879 170.5 869.5 Q160 860 151 838 L75 838 Z M234 459 L494 459 L494 331 L234 331 L234 128 L504 128 L504 0 L87 0 L87 754 L504 754 L504 626 L234 626 L234 459 Z " />
<glyph glyph-name="uni1EBE" unicode="&#x1ebe;" horiz-adv-x="559" d="M619 1033 L457 922 L496 890 L426 823 L302 924 L179 823 L111 890 L302 1046 L389 977 L525 1111 L619 1033 Z M234 459 L494 459 L494 331 L234 331 L234 128 L504 128 L504 0 L87 0 L87 754 L504 754 L504 626 L234 626 L234 459 Z " />
<glyph glyph-name="uni1EC0" unicode="&#x1ec0;" horiz-adv-x="559" d="M576 997 L515 942 L327 1071 L420 1148 L576 997 Z M501 890 L429 823 L306 924 L183 823 L114 890 L306 1046 L501 890 Z M234 459 L494 459 L494 331 L234 331 L234 128 L504 128 L504 0 L87 0 L87 754 L504 754 L504 626 L234 626 L234 459 Z " />
<glyph glyph-name="uni1EC2" unicode="&#x1ec2;" horiz-adv-x="559" d="M431 1003 L464 1009 Q497 1013 508.5 1020.5 Q520 1028 520 1044 Q520 1063 506.5 1073.5 Q493 1084 468 1084 Q452 1084 447 1082.5 Q442 1081 426 1072 L402 1061 L382 1112 L389 1114 L392 1115 Q441 1136 490 1136 Q541 1136 573.5 1109 Q606 1082 606 1041 Q606 1004 580.5 983 Q555 962 508 962 Q495 962 483 963 L483 920 L460 920 L496 890 L426 823 L302 924 L179 823 L111 890 L302 1046 L423 950 L423 1002 L431 1003 Z M234 459 L494 459 L494 331 L234 331 L234 128 L504 128 L504 0 L87 0 L87 754 L504 754 L504 626 L234 626 L234 459 Z " />
<glyph glyph-name="uni1EC4" unicode="&#x1ec4;" horiz-adv-x="559" d="M99 1049 Q109 1115 141.5 1153.5 Q174 1192 220 1192 Q252 1192 311 1170 Q342 1158 356 1153.5 Q370 1149 382 1149 Q398 1149 408.5 1157.5 Q419 1166 431 1191 L508 1191 Q496 1122 461 1084 Q426 1046 375 1046 Q360 1046 344.5 1050.5 Q329 1055 297 1068 Q245 1090 221 1090 Q205 1090 195 1080.5 Q185 1071 176 1049 L99 1049 Z M496 890 L426 823 L302 924 L179 823 L111 890 L302 1046 L496 890 Z M234 459 L494 459 L494 331 L234 331 L234 128 L504 128 L504 0 L87 0 L87 754 L504 754 L504 626 L234 626 L234 459 Z " />
<glyph glyph-name="uni1EC6" unicode="&#x1ec6;" horiz-adv-x="559" d="M496 890 L426 823 L302 924 L179 823 L111 890 L302 1046 L496 890 Z M234 459 L494 459 L494 331 L234 331 L234 128 L504 128 L504 0 L87 0 L87 754 L504 754 L504 626 L234 626 L234 459 Z M299 -24 Q337 -24 363 -49.5 Q389 -75 389 -112 Q389 -149 363 -175 Q337 -201 301 -201 Q263 -201 237 -175 Q211 -149 211 -112 Q211 -76 237 -50 Q263 -24 299 -24 Z " />
<glyph glyph-name="uni1EC8" unicode="&#x1ec8;" horiz-adv-x="320" d="M121 923 L129 925 Q156 930 163 930 Q196 935 207 942.5 Q218 950 218 966 Q218 985 204.5 995.5 Q191 1006 166 1006 Q151 1006 146 1004.5 Q141 1003 124 993 L111 988 L107 985 L101 982 L80 1033 L87 1036 L90 1037 Q143 1058 189 1058 Q240 1058 272 1031 Q304 1004 304 963 Q304 926 278.5 905 Q253 884 207 884 L181 884 L181 841 L121 841 L121 923 Z M87 0 L87 754 L234 754 L234 0 L87 0 Z " />
<glyph glyph-name="uni1ECA" unicode="&#x1eca;" horiz-adv-x="320" d="M86 0 L86 754 L233 754 L233 0 L86 0 Z M157 -33 Q194 -33 220 -58.5 Q246 -84 246 -121 Q246 -158 220.5 -184 Q195 -210 158 -210 Q121 -210 95 -184.5 Q69 -159 69 -121 Q69 -85 95 -59 Q121 -33 157 -33 Z " />
<glyph glyph-name="uni1ECC" unicode="&#x1ecc;" horiz-adv-x="903" d="M453 771 Q564 771 656 718.5 Q748 666 801 575.5 Q854 485 854 376 Q854 267 800.5 177 Q747 87 653.5 35 Q560 -17 447 -17 Q336 -17 245 35.5 Q154 88 101.5 179.5 Q49 271 49 382 Q49 488 103 577 Q157 666 250 718.5 Q343 771 453 771 Z M451 636 Q384 636 326 601.5 Q268 567 234 508 Q200 449 200 380 Q200 308 233.5 248 Q267 188 325 153 Q383 118 452 118 Q520 118 577.5 153 Q635 188 669 247.5 Q703 307 703 377 Q703 448 669.5 507.5 Q636 567 578 601.5 Q520 636 451 636 Z M452 -50 Q489 -50 515 -75.5 Q541 -101 541 -138 Q541 -175 515.5 -201 Q490 -227 453 -227 Q416 -227 390 -201.5 Q364 -176 364 -138 Q364 -102 390 -76 Q416 -50 452 -50 Z " />
<glyph glyph-name="uni1ECE" unicode="&#x1ece;" horiz-adv-x="903" d="M410 925 L418 928 Q445 932 452 932 Q485 937 496 944.5 Q507 952 507 968 Q507 987 493.5 997.5 Q480 1008 455 1008 Q440 1008 435 1006.5 Q430 1005 414 996 L400 990 L397 988 L390 984 L370 1035 L380 1040 Q434 1060 478 1060 Q529 1060 561 1033 Q593 1006 593 965 Q593 928 567.5 907 Q542 886 496 886 L470 886 L470 843 L410 843 L410 925 Z M453 771 Q564 771 656 718.5 Q748 666 801 575.5 Q854 485 854 376 Q854 267 800.5 177 Q747 87 653.5 35 Q560 -17 447 -17 Q336 -17 245 35.5 Q154 88 101.5 179.5 Q49 271 49 382 Q49 488 103 577 Q157 666 250 718.5 Q343 771 453 771 Z M451 636 Q384 636 326 601.5 Q268 567 234 508 Q200 449 200 380 Q200 308 233.5 248 Q267 188 325 153 Q383 118 452 118 Q520 118 577.5 153 Q635 188 669 247.5 Q703 307 703 377 Q703 448 669.5 507.5 Q636 567 578 601.5 Q520 636 451 636 Z " />
<glyph glyph-name="uni1ED0" unicode="&#x1ed0;" horiz-adv-x="903" d="M779 1037 L607 921 L644 890 L574 823 L450 924 L327 823 L259 890 L450 1046 L540 974 L685 1115 L779 1037 Z M450 771 Q631 771 749 644 Q800 590 827 521 Q854 452 854 376 Q854 268 800.5 178 Q747 88 654.5 35.5 Q562 -17 451 -17 Q341 -17 249 34.5 Q157 86 103 174.5 Q49 263 49 368 Q49 552 179 668 Q233 716 304.5 743.5 Q376 771 450 771 Z M451 636 Q384 636 326 601.5 Q268 567 234 508 Q200 449 200 380 Q200 308 233.5 248 Q267 188 325 153 Q383 118 452 118 Q520 118 577.5 153 Q635 188 669 247.5 Q703 307 703 377 Q703 448 669.5 507.5 Q636 567 578 601.5 Q520 636 451 636 Z " />
<glyph glyph-name="uni1ED2" unicode="&#x1ed2;" horiz-adv-x="903" d="M729 997 L669 942 L480 1071 L574 1148 L729 997 Z M653 890 L583 823 L459 924 L336 823 L268 890 L459 1046 L653 890 Z M450 771 Q631 771 749 644 Q800 590 827 521 Q854 452 854 376 Q854 268 800.5 178 Q747 88 654.5 35.5 Q562 -17 451 -17 Q341 -17 249 34.5 Q157 86 103 174.5 Q49 263 49 368 Q49 552 179 668 Q233 716 304.5 743.5 Q376 771 450 771 Z M451 636 Q384 636 326 601.5 Q268 567 234 508 Q200 449 200 380 Q200 308 233.5 248 Q267 188 325 153 Q383 118 452 118 Q520 118 577.5 153 Q635 188 669 247.5 Q703 307 703 377 Q703 448 669.5 507.5 Q636 567 578 601.5 Q520 636 451 636 Z " />
<glyph glyph-name="uni1ED4" unicode="&#x1ed4;" horiz-adv-x="903" d="M580 1007 L614 1012 Q647 1016 658 1024 Q669 1032 669 1049 Q669 1068 655.5 1078 Q642 1088 617 1088 Q602 1088 597 1086.5 Q592 1085 575 1076 L562 1070 L558 1068 L551 1064 L531 1115 L541 1120 Q596 1140 640 1140 Q690 1140 722.5 1113.5 Q755 1087 755 1044 Q755 1007 729.5 986 Q704 965 658 965 Q644 965 632 966 L632 923 L605 923 L644 890 L574 823 L450 924 L327 823 L259 890 L450 1046 L572 949 L572 1006 L580 1007 Z M450 771 Q631 771 749 644 Q800 590 827 521 Q854 452 854 376 Q854 268 800.5 178 Q747 88 654.5 35.5 Q562 -17 451 -17 Q341 -17 249 34.5 Q157 86 103 174.5 Q49 263 49 368 Q49 552 179 668 Q233 716 304.5 743.5 Q376 771 450 771 Z M451 636 Q384 636 326 601.5 Q268 567 234 508 Q200 449 200 380 Q200 308 233.5 248 Q267 188 325 153 Q383 118 452 118 Q520 118 577.5 153 Q635 188 669 247.5 Q703 307 703 377 Q703 448 669.5 507.5 Q636 567 578 601.5 Q520 636 451 636 Z " />
<glyph glyph-name="uni1ED6" unicode="&#x1ed6;" horiz-adv-x="903" d="M246 1063 Q256 1129 288.5 1168 Q321 1207 367 1207 Q401 1207 458 1184 Q489 1173 503 1168.5 Q517 1164 529 1164 Q545 1164 555 1172 Q565 1180 579 1206 L657 1206 Q644 1137 608.5 1099 Q573 1061 523 1061 Q508 1061 492 1065.5 Q476 1070 444 1083 Q414 1095 398 1100 Q382 1105 370 1105 Q353 1105 342 1095 Q331 1085 323 1063 L246 1063 Z M644 890 L574 823 L450 924 L327 823 L259 890 L450 1046 L644 890 Z M453 771 Q564 771 656 718.5 Q748 666 801 575.5 Q854 485 854 376 Q854 267 800.5 177 Q747 87 653.5 35 Q560 -17 447 -17 Q336 -17 245 35.5 Q154 88 101.5 179.5 Q49 271 49 382 Q49 488 103 577 Q157 666 250 718.5 Q343 771 453 771 Z M451 636 Q384 636 326 601.5 Q268 567 234 508 Q200 449 200 380 Q200 308 233.5 248 Q267 188 325 153 Q383 118 452 118 Q520 118 577.5 153 Q635 188 669 247.5 Q703 307 703 377 Q703 448 669.5 507.5 Q636 567 578 601.5 Q520 636 451 636 Z " />
<glyph glyph-name="uni1ED8" unicode="&#x1ed8;" horiz-adv-x="903" d="M644 890 L574 823 L450 924 L327 823 L259 890 L450 1046 L644 890 Z M453 771 Q564 771 656 718.5 Q748 666 801 575.5 Q854 485 854 376 Q854 267 800.5 177 Q747 87 653.5 35 Q560 -17 447 -17 Q336 -17 245 35.5 Q154 88 101.5 179.5 Q49 271 49 382 Q49 488 103 577 Q157 666 250 718.5 Q343 771 453 771 Z M451 636 Q384 636 326 601.5 Q268 567 234 508 Q200 449 200 380 Q200 308 233.5 248 Q267 188 325 153 Q383 118 452 118 Q520 118 577.5 153 Q635 188 669 247.5 Q703 307 703 377 Q703 448 669.5 507.5 Q636 567 578 601.5 Q520 636 451 636 Z M451 -42 Q488 -42 514 -67.5 Q540 -93 540 -130 Q540 -167 514.5 -193 Q489 -219 452 -219 Q415 -219 389 -193.5 Q363 -168 363 -130 Q363 -93 389 -67.5 Q415 -42 451 -42 Z " />
<glyph glyph-name="uni1EDA" unicode="&#x1eda;" horiz-adv-x="903" d="M372 878 L528 1028 L621 951 L433 823 L372 878 Z M899 793 L781 605 Q854 502 854 376 Q854 268 800.5 178 Q747 88 654.5 35.5 Q562 -17 451 -17 Q339 -17 247 35 Q155 87 102 177 Q49 267 49 375 Q49 484 102.5 575 Q156 666 248.5 718.5 Q341 771 452 771 Q530 771 600.5 744.5 Q671 718 724 669 L777 803 L899 793 Z M451 636 Q384 636 326 601.5 Q268 567 234 508 Q200 449 200 380 Q200 308 233.5 248 Q267 188 325 153 Q383 118 452 118 Q520 118 577.5 153 Q635 188 669 247.5 Q703 307 703 377 Q703 448 669.5 507.5 Q636 567 578 601.5 Q520 636 451 636 Z " />
<glyph glyph-name="uni1EDC" unicode="&#x1edc;" horiz-adv-x="903" d="M531 878 L470 823 L281 951 L375 1028 L531 878 Z M899 793 L781 605 Q854 502 854 376 Q854 268 800.5 178 Q747 88 654.5 35.5 Q562 -17 451 -17 Q339 -17 247 35 Q155 87 102 177 Q49 267 49 375 Q49 484 102.5 575 Q156 666 248.5 718.5 Q341 771 452 771 Q530 771 600.5 744.5 Q671 718 724 669 L777 803 L899 793 Z M451 636 Q384 636 326 601.5 Q268 567 234 508 Q200 449 200 380 Q200 308 233.5 248 Q267 188 325 153 Q383 118 452 118 Q520 118 577.5 153 Q635 188 669 247.5 Q703 307 703 377 Q703 448 669.5 507.5 Q636 567 578 601.5 Q520 636 451 636 Z " />
<glyph glyph-name="uni1EDE" unicode="&#x1ede;" horiz-adv-x="903" d="M398 925 L406 928 Q433 932 440 932 Q473 937 484 944.5 Q495 952 495 968 Q495 987 481.5 997.5 Q468 1008 443 1008 Q428 1008 423 1006.5 Q418 1005 401 996 L388 990 L384 988 L377 984 L357 1035 L364 1038 L367 1040 Q421 1060 466 1060 Q516 1060 548.5 1033 Q581 1006 581 965 Q581 928 555.5 907 Q530 886 484 886 L458 886 L458 843 L398 843 L398 925 Z M899 793 L781 605 Q854 502 854 376 Q854 268 800.5 178 Q747 88 654.5 35.5 Q562 -17 451 -17 Q339 -17 247 35 Q155 87 102 177 Q49 267 49 375 Q49 484 102.5 575 Q156 666 248.5 718.5 Q341 771 452 771 Q530 771 600.5 744.5 Q671 718 724 669 L777 803 L899 793 Z M451 636 Q384 636 326 601.5 Q268 567 234 508 Q200 449 200 380 Q200 308 233.5 248 Q267 188 325 153 Q383 118 452 118 Q520 118 577.5 153 Q635 188 669 247.5 Q703 307 703 377 Q703 448 669.5 507.5 Q636 567 578 601.5 Q520 636 451 636 Z " />
<glyph glyph-name="uni1EE0" unicode="&#x1ee0;" horiz-adv-x="903" d="M246 838 Q256 905 288 943 Q320 981 367 981 Q401 981 458 958 Q489 947 503 942.5 Q517 938 529 938 Q545 938 555 946 Q565 954 579 980 L657 980 Q643 911 608 873.5 Q573 836 523 836 Q508 836 492 840.5 Q476 845 444 858 Q413 870 397.5 874.5 Q382 879 370 879 Q353 879 342 869.5 Q331 860 323 838 L246 838 Z M899 793 L781 605 Q854 502 854 376 Q854 268 800.5 178 Q747 88 654.5 35.5 Q562 -17 451 -17 Q339 -17 247 35 Q155 87 102 177 Q49 267 49 375 Q49 484 102.5 575 Q156 666 248.5 718.5 Q341 771 452 771 Q530 771 600.5 744.5 Q671 718 724 669 L777 803 L899 793 Z M451 636 Q384 636 326 601.5 Q268 567 234 508 Q200 449 200 380 Q200 308 233.5 248 Q267 188 325 153 Q383 118 452 118 Q520 118 577.5 153 Q635 188 669 247.5 Q703 307 703 377 Q703 448 669.5 507.5 Q636 567 578 601.5 Q520 636 451 636 Z " />
<glyph glyph-name="uni1EE2" unicode="&#x1ee2;" horiz-adv-x="903" d="M899 793 L781 605 Q854 502 854 376 Q854 268 800.5 178 Q747 88 654.5 35.5 Q562 -17 451 -17 Q339 -17 247 35 Q155 87 102 177 Q49 267 49 375 Q49 484 102.5 575 Q156 666 248.5 718.5 Q341 771 452 771 Q530 771 600.5 744.5 Q671 718 724 669 L777 803 L899 793 Z M451 636 Q384 636 326 601.5 Q268 567 234 508 Q200 449 200 380 Q200 308 233.5 248 Q267 188 325 153 Q383 118 452 118 Q520 118 577.5 153 Q635 188 669 247.5 Q703 307 703 377 Q703 448 669.5 507.5 Q636 567 578 601.5 Q520 636 451 636 Z M438 -44 Q475 -44 501.5 -70 Q528 -96 528 -132 Q528 -169 502 -195 Q476 -221 440 -221 Q402 -221 376 -195 Q350 -169 350 -132 Q350 -96 376.5 -70 Q403 -44 438 -44 Z " />
<glyph glyph-name="uni1EE4" unicode="&#x1ee4;" horiz-adv-x="779" d="M234 322 Q234 264 238.5 238 Q243 212 258 188 Q277 156 312 137 Q347 118 390 118 Q432 118 467.5 137 Q503 156 522 188 Q536 212 541 238.5 Q546 265 546 322 L546 754 L693 754 L693 293 Q693 227 679.5 178 Q666 129 637 92 Q598 41 532.5 12 Q467 -17 390 -17 Q313 -17 247 12 Q181 41 142 92 Q114 129 100.5 178 Q87 227 87 293 L87 754 L234 754 L234 322 Z M386 -55 Q423 -55 449.5 -81 Q476 -107 476 -144 Q476 -181 450 -207 Q424 -233 388 -233 Q351 -233 324.5 -207 Q298 -181 298 -144 Q298 -108 324.5 -81.5 Q351 -55 386 -55 Z " />
<glyph glyph-name="uni1EE6" unicode="&#x1ee6;" horiz-adv-x="779" d="M344 923 L351 925 Q379 930 385 930 Q418 935 429.5 942.5 Q441 950 441 966 Q441 985 427 995.5 Q413 1006 389 1006 Q373 1006 368 1004.5 Q363 1003 347 993 L333 988 L330 985 L323 982 L303 1033 L310 1036 L313 1037 Q366 1058 411 1058 Q462 1058 494.5 1031 Q527 1004 527 963 Q527 926 501 905 Q475 884 429 884 L403 884 L403 841 L344 841 L344 923 Z M234 322 Q234 264 238.5 238 Q243 212 258 188 Q277 156 312 137 Q347 118 390 118 Q432 118 467.5 137 Q503 156 522 188 Q536 212 541 238.5 Q546 265 546 322 L546 754 L693 754 L693 293 Q693 227 679.5 178 Q666 129 637 92 Q598 41 532.5 12 Q467 -17 390 -17 Q313 -17 247 12 Q181 41 142 92 Q114 129 100.5 178 Q87 227 87 293 L87 754 L234 754 L234 322 Z " />
<glyph glyph-name="uni1EE8" unicode="&#x1ee8;" horiz-adv-x="779" d="M311 878 L466 1028 L559 951 L371 823 L311 878 Z M803 597 L728 605 L808 809 L930 799 L803 597 Z M234 322 Q234 264 238.5 238 Q243 212 258 188 Q277 156 312 137 Q347 118 390 118 Q432 118 467.5 137 Q503 156 522 188 Q536 212 541 238.5 Q546 265 546 322 L546 754 L693 754 L693 293 Q693 227 679.5 178 Q666 129 637 92 Q598 41 532.5 12 Q467 -17 390 -17 Q313 -17 247 12 Q181 41 142 92 Q114 129 100.5 178 Q87 227 87 293 L87 754 L234 754 L234 322 Z " />
<glyph glyph-name="uni1EEA" unicode="&#x1eea;" horiz-adv-x="779" d="M469 878 L409 823 L220 951 L314 1028 L469 878 Z M803 597 L728 605 L808 809 L930 799 L803 597 Z M234 322 Q234 264 238.5 238 Q243 212 258 188 Q277 156 312 137 Q347 118 390 118 Q432 118 467.5 137 Q503 156 522 188 Q536 212 541 238.5 Q546 265 546 322 L546 754 L693 754 L693 293 Q693 227 679.5 178 Q666 129 637 92 Q598 41 532.5 12 Q467 -17 390 -17 Q313 -17 247 12 Q181 41 142 92 Q114 129 100.5 178 Q87 227 87 293 L87 754 L234 754 L234 322 Z " />
<glyph glyph-name="uni1EEC" unicode="&#x1eec;" horiz-adv-x="779" d="M357 923 L365 925 Q392 930 399 930 Q432 935 443 942.5 Q454 950 454 966 Q454 985 440.5 995.5 Q427 1006 402 1006 Q387 1006 381.5 1004.5 Q376 1003 360 993 L347 988 L344 985 L337 982 L316 1033 L323 1036 L327 1037 Q379 1058 425 1058 Q476 1058 508 1031 Q540 1004 540 963 Q540 926 514.5 905 Q489 884 443 884 L417 884 L417 841 L357 841 L357 923 Z M803 597 L728 605 L808 809 L930 799 L803 597 Z M234 322 Q234 264 238.5 238 Q243 212 258 188 Q277 156 312 137 Q347 118 390 118 Q432 118 467.5 137 Q503 156 522 188 Q536 212 541 238.5 Q546 265 546 322 L546 754 L693 754 L693 293 Q693 227 679.5 178 Q666 129 637 92 Q598 41 532.5 12 Q467 -17 390 -17 Q313 -17 247 12 Q181 41 142 92 Q114 129 100.5 178 Q87 227 87 293 L87 754 L234 754 L234 322 Z " />
<glyph glyph-name="uni1EEE" unicode="&#x1eee;" horiz-adv-x="779" d="M185 838 Q195 905 227 943 Q259 981 306 981 Q339 981 397 958 Q428 947 442 942.5 Q456 938 468 938 Q484 938 493.5 946.5 Q503 955 516 980 L596 980 Q582 911 547 873.5 Q512 836 461 836 Q446 836 430.5 840.5 Q415 845 383 858 Q350 870 334.5 874.5 Q319 879 307 879 Q292 879 281 869.5 Q270 860 262 838 L185 838 Z M803 597 L728 605 L808 809 L930 799 L803 597 Z M234 322 Q234 264 238.5 238 Q243 212 258 188 Q277 156 312 137 Q347 118 390 118 Q432 118 467.5 137 Q503 156 522 188 Q536 212 541 238.5 Q546 265 546 322 L546 754 L693 754 L693 293 Q693 227 679.5 178 Q666 129 637 92 Q598 41 532.5 12 Q467 -17 390 -17 Q313 -17 247 12 Q181 41 142 92 Q114 129 100.5 178 Q87 227 87 293 L87 754 L234 754 L234 322 Z " />
<glyph glyph-name="uni1EF0" unicode="&#x1ef0;" horiz-adv-x="779" d="M803 597 L728 605 L808 809 L930 799 L803 597 Z M234 322 Q234 264 238.5 238 Q243 212 258 188 Q277 156 312 137 Q347 118 390 118 Q432 118 467.5 137 Q503 156 522 188 Q536 212 541 238.5 Q546 265 546 322 L546 754 L693 754 L693 293 Q693 227 679.5 178 Q666 129 637 92 Q598 41 532.5 12 Q467 -17 390 -17 Q313 -17 247 12 Q181 41 142 92 Q114 129 100.5 178 Q87 227 87 293 L87 754 L234 754 L234 322 Z M377 -46 Q414 -46 440.5 -72 Q467 -98 467 -134 Q467 -171 441 -197.5 Q415 -224 379 -224 Q342 -224 315.5 -198 Q289 -172 289 -134 Q289 -98 315.5 -72 Q342 -46 377 -46 Z " />
<glyph glyph-name="uni1EF4" unicode="&#x1ef4;" horiz-adv-x="659" d="M168 754 L330 492 L490 754 L666 754 L401 346 L401 0 L254 0 L254 346 L-6 754 L168 754 Z M313 -35 Q350 -35 376 -61 Q402 -87 402 -123 Q402 -161 376.5 -186.5 Q351 -212 313 -212 Q276 -212 250.5 -186 Q225 -160 225 -123 Q225 -87 250.5 -61 Q276 -35 313 -35 Z " />
<glyph glyph-name="uni1EF6" unicode="&#x1ef6;" horiz-adv-x="659" d="M279 925 L287 928 Q313 932 320 932 Q354 937 365 944.5 Q376 952 376 968 Q376 987 362 997.5 Q348 1008 323 1008 Q309 1008 304 1006.5 Q299 1005 283 996 L269 990 L266 988 Q264 988 258 984 L238 1035 L245 1038 L249 1040 Q303 1060 347 1060 Q398 1060 430 1033 Q462 1006 462 965 Q462 928 436 907 Q410 886 364 886 L339 886 L339 843 L279 843 L279 925 Z M168 754 L330 492 L490 754 L666 754 L401 346 L401 0 L254 0 L254 346 L-6 754 L168 754 Z " />
<glyph glyph-name="uni1EF8" unicode="&#x1ef8;" horiz-adv-x="659" d="M124 838 Q135 905 167.5 943 Q200 981 246 981 Q279 981 337 958 Q368 947 382 942.5 Q396 938 408 938 Q424 938 434.5 946.5 Q445 955 457 980 L534 980 Q522 912 486.5 874 Q451 836 401 836 Q386 836 370.5 840.5 Q355 845 322 858 Q291 870 275 874.5 Q259 879 247 879 Q231 879 221 870 Q211 861 202 838 L124 838 Z M168 754 L330 492 L490 754 L666 754 L401 346 L401 0 L254 0 L254 346 L-6 754 L168 754 Z " />
<glyph glyph-name="a" unicode="a" horiz-adv-x="643" d="M577 0 L441 0 L441 63 Q408 22 369.5 3 Q331 -16 280 -16 Q212 -16 157 18 Q102 52 71 111.5 Q40 171 40 245 Q40 317 71.5 376.5 Q103 436 157.5 470.5 Q212 505 278 505 Q328 505 366.5 486 Q405 467 441 426 L441 489 L577 489 L577 0 Z M319 382 Q281 382 249.5 363.5 Q218 345 199.5 313.5 Q181 282 181 245 Q181 207 199.5 175.5 Q218 144 250 125.5 Q282 107 319 107 Q355 107 386.5 125.5 Q418 144 436.5 175.5 Q455 207 455 243 Q455 281 437 313 Q419 345 387.5 363.5 Q356 382 319 382 Z " />
<glyph glyph-name="aacute" unicode="&#xe1;" horiz-adv-x="643" d="M258 620 L392 791 L492 728 L322 575 L258 620 Z M577 0 L441 0 L441 63 Q408 22 369.5 3 Q331 -16 280 -16 Q212 -16 157 18 Q102 52 71 111.5 Q40 171 40 245 Q40 317 71.5 376.5 Q103 436 157.5 470.5 Q212 505 278 505 Q328 505 366.5 486 Q405 467 441 426 L441 489 L577 489 L577 0 Z M319 382 Q281 382 249.5 363.5 Q218 345 199.5 313.5 Q181 282 181 245 Q181 207 199.5 175.5 Q218 144 250 125.5 Q282 107 319 107 Q355 107 386.5 125.5 Q418 144 436.5 175.5 Q455 207 455 243 Q455 281 437 313 Q419 345 387.5 363.5 Q356 382 319 382 Z " />
<glyph glyph-name="abreve" unicode="&#x103;" horiz-adv-x="643" d="M238 734 Q251 697 272.5 680 Q294 663 329 663 Q364 663 385.5 680 Q407 697 420 734 L515 734 Q506 660 456 617.5 Q406 575 329 575 Q252 575 202.5 618 Q153 661 144 734 L238 734 Z M577 0 L441 0 L441 63 Q408 22 369.5 3 Q331 -16 280 -16 Q212 -16 157 18 Q102 52 71 111.5 Q40 171 40 245 Q40 317 71.5 376.5 Q103 436 157.5 470.5 Q212 505 278 505 Q328 505 366.5 486 Q405 467 441 426 L441 489 L577 489 L577 0 Z M319 382 Q281 382 249.5 363.5 Q218 345 199.5 313.5 Q181 282 181 245 Q181 207 199.5 175.5 Q218 144 250 125.5 Q282 107 319 107 Q355 107 386.5 125.5 Q418 144 436.5 175.5 Q455 207 455 243 Q455 281 437 313 Q419 345 387.5 363.5 Q356 382 319 382 Z " />
<glyph glyph-name="acircumflex" unicode="&#xe2;" horiz-adv-x="643" d="M522 643 L452 575 L328 679 L205 575 L137 643 L328 799 L522 643 Z M577 0 L441 0 L441 63 Q408 22 369.5 3 Q331 -16 280 -16 Q212 -16 157 18 Q102 52 71 111.5 Q40 171 40 245 Q40 317 71.5 376.5 Q103 436 157.5 470.5 Q212 505 278 505 Q328 505 366.5 486 Q405 467 441 426 L441 489 L577 489 L577 0 Z M319 382 Q281 382 249.5 363.5 Q218 345 199.5 313.5 Q181 282 181 245 Q181 207 199.5 175.5 Q218 144 250 125.5 Q282 107 319 107 Q355 107 386.5 125.5 Q418 144 436.5 175.5 Q455 207 455 243 Q455 281 437 313 Q419 345 387.5 363.5 Q356 382 319 382 Z " />
<glyph glyph-name="adieresis" unicode="&#xe4;" horiz-adv-x="643" d="M216 744 Q249 744 272.5 720 Q296 696 296 662 Q296 628 272.5 604.5 Q249 581 216 581 Q182 581 158 605 Q134 629 134 663 Q134 696 158.5 720 Q183 744 216 744 Z M450 744 Q484 744 507.5 720 Q531 696 531 662 Q531 628 507.5 604.5 Q484 581 450 581 Q416 581 392 605 Q368 629 368 663 Q368 696 392.5 720 Q417 744 450 744 Z M577 0 L441 0 L441 63 Q408 22 369.5 3 Q331 -16 280 -16 Q212 -16 157 18 Q102 52 71 111.5 Q40 171 40 245 Q40 317 71.5 376.5 Q103 436 157.5 470.5 Q212 505 278 505 Q328 505 366.5 486 Q405 467 441 426 L441 489 L577 489 L577 0 Z M319 382 Q281 382 249.5 363.5 Q218 345 199.5 313.5 Q181 282 181 245 Q181 207 199.5 175.5 Q218 144 250 125.5 Q282 107 319 107 Q355 107 386.5 125.5 Q418 144 436.5 175.5 Q455 207 455 243 Q455 281 437 313 Q419 345 387.5 363.5 Q356 382 319 382 Z " />
<glyph glyph-name="agrave" unicode="&#xe0;" horiz-adv-x="643" d="M409 620 L344 575 L174 728 L275 791 L409 620 Z M577 0 L441 0 L441 63 Q408 22 369.5 3 Q331 -16 280 -16 Q212 -16 157 18 Q102 52 71 111.5 Q40 171 40 245 Q40 317 71.5 376.5 Q103 436 157.5 470.5 Q212 505 278 505 Q328 505 366.5 486 Q405 467 441 426 L441 489 L577 489 L577 0 Z M319 382 Q281 382 249.5 363.5 Q218 345 199.5 313.5 Q181 282 181 245 Q181 207 199.5 175.5 Q218 144 250 125.5 Q282 107 319 107 Q355 107 386.5 125.5 Q418 144 436.5 175.5 Q455 207 455 243 Q455 281 437 313 Q419 345 387.5 363.5 Q356 382 319 382 Z " />
<glyph glyph-name="amacron" unicode="&#x101;" horiz-adv-x="643" d="M504 623 L142 623 L142 713 L504 713 L504 623 Z M577 0 L441 0 L441 63 Q408 22 369.5 3 Q331 -16 280 -16 Q212 -16 157 18 Q102 52 71 111.5 Q40 171 40 245 Q40 317 71.5 376.5 Q103 436 157.5 470.5 Q212 505 278 505 Q328 505 366.5 486 Q405 467 441 426 L441 489 L577 489 L577 0 Z M319 382 Q281 382 249.5 363.5 Q218 345 199.5 313.5 Q181 282 181 245 Q181 207 199.5 175.5 Q218 144 250 125.5 Q282 107 319 107 Q355 107 386.5 125.5 Q418 144 436.5 175.5 Q455 207 455 243 Q455 281 437 313 Q419 345 387.5 363.5 Q356 382 319 382 Z " />
<glyph glyph-name="aogonek" unicode="&#x105;" horiz-adv-x="643" d="M577 0 L563 -10 Q531 -31 519 -47 Q507 -63 507 -84 Q507 -103 521 -116 Q535 -129 556 -129 Q580 -129 610 -114 L593 -190 Q561 -209 521 -209 Q480 -209 450.5 -184 Q421 -159 421 -123 Q421 -102 430 -80 Q439 -58 453 -42 Q464 -30 476 -21.5 Q488 -13 512 0 L441 0 L441 63 Q408 22 369.5 3 Q331 -16 280 -16 Q212 -16 157 18 Q102 52 71 111.5 Q40 171 40 245 Q40 317 71.5 376.5 Q103 436 157.5 470.5 Q212 505 278 505 Q328 505 366.5 486 Q405 467 441 426 L441 489 L577 489 L577 0 Z M319 382 Q281 382 249.5 363.5 Q218 345 199.5 313.5 Q181 282 181 245 Q181 207 199.5 175.5 Q218 144 250 125.5 Q282 107 319 107 Q355 107 386.5 125.5 Q418 144 436.5 175.5 Q455 207 455 243 Q455 281 437 313 Q419 345 387.5 363.5 Q356 382 319 382 Z " />
<glyph glyph-name="aring" unicode="&#xe5;" horiz-adv-x="643" d="M328 783 Q371 783 401.5 752.5 Q432 722 432 679 Q432 636 401.5 605.5 Q371 575 328 575 Q284 575 254 605.5 Q224 636 224 680 Q224 723 254.5 753 Q285 783 328 783 Z M328 719 Q312 719 300 707.5 Q288 696 288 679 Q288 663 300 651.5 Q312 640 328 640 Q344 640 355.5 651.5 Q367 663 367 679 Q367 696 356 707.5 Q345 719 328 719 Z M577 0 L441 0 L441 63 Q408 22 369.5 3 Q331 -16 280 -16 Q212 -16 157 18 Q102 52 71 111.5 Q40 171 40 245 Q40 317 71.5 376.5 Q103 436 157.5 470.5 Q212 505 278 505 Q328 505 366.5 486 Q405 467 441 426 L441 489 L577 489 L577 0 Z M319 382 Q281 382 249.5 363.5 Q218 345 199.5 313.5 Q181 282 181 245 Q181 207 199.5 175.5 Q218 144 250 125.5 Q282 107 319 107 Q355 107 386.5 125.5 Q418 144 436.5 175.5 Q455 207 455 243 Q455 281 437 313 Q419 345 387.5 363.5 Q356 382 319 382 Z " />
<glyph glyph-name="aringacute" unicode="&#x1fb;" horiz-adv-x="643" d="M151 798 L286 968 L385 904 L216 753 L151 798 Z M328 783 Q371 783 401.5 752.5 Q432 722 432 679 Q432 636 401.5 605.5 Q371 575 328 575 Q284 575 254 605.5 Q224 636 224 680 Q224 723 254.5 753 Q285 783 328 783 Z M328 719 Q312 719 300 707.5 Q288 696 288 679 Q288 663 300 651.5 Q312 640 328 640 Q344 640 355.5 651.5 Q367 663 367 679 Q367 696 356 707.5 Q345 719 328 719 Z M577 0 L441 0 L441 63 Q408 22 369.5 3 Q331 -16 280 -16 Q212 -16 157 18 Q102 52 71 111.5 Q40 171 40 245 Q40 317 71.5 376.5 Q103 436 157.5 470.5 Q212 505 278 505 Q328 505 366.5 486 Q405 467 441 426 L441 489 L577 489 L577 0 Z M319 382 Q281 382 249.5 363.5 Q218 345 199.5 313.5 Q181 282 181 245 Q181 207 199.5 175.5 Q218 144 250 125.5 Q282 107 319 107 Q355 107 386.5 125.5 Q418 144 436.5 175.5 Q455 207 455 243 Q455 281 437 313 Q419 345 387.5 363.5 Q356 382 319 382 Z " />
<glyph glyph-name="atilde" unicode="&#xe3;" horiz-adv-x="643" d="M124 591 Q134 656 166.5 694 Q199 732 245 732 Q277 732 336 710 Q375 695 385.5 692 Q396 689 407 689 Q423 689 433 697.5 Q443 706 457 731 L534 731 Q522 664 486.5 626.5 Q451 589 401 589 Q384 589 368.5 593 Q353 597 322 610 Q267 631 247 631 Q232 631 221.5 622 Q211 613 201 591 L124 591 Z M577 0 L441 0 L441 63 Q408 22 369.5 3 Q331 -16 280 -16 Q212 -16 157 18 Q102 52 71 111.5 Q40 171 40 245 Q40 317 71.5 376.5 Q103 436 157.5 470.5 Q212 505 278 505 Q328 505 366.5 486 Q405 467 441 426 L441 489 L577 489 L577 0 Z M319 382 Q281 382 249.5 363.5 Q218 345 199.5 313.5 Q181 282 181 245 Q181 207 199.5 175.5 Q218 144 250 125.5 Q282 107 319 107 Q355 107 386.5 125.5 Q418 144 436.5 175.5 Q455 207 455 243 Q455 281 437 313 Q419 345 387.5 363.5 Q356 382 319 382 Z " />
<glyph glyph-name="ae" unicode="&#xe6;" horiz-adv-x="912" d="M504 223 Q507 161 540.5 125.5 Q574 90 629 90 Q667 90 696 107.5 Q725 125 740 157 L868 137 Q838 64 775 24 Q712 -16 627 -16 Q501 -16 436 77 Q366 -16 241 -16 Q182 -16 136 4 Q90 24 65 60.5 Q40 97 40 144 Q40 217 93.5 261.5 Q147 306 236 306 Q276 306 307.5 298 Q339 290 372 271 Q373 280 373 296 Q373 344 340.5 371 Q308 398 249 398 Q183 398 114 377 L114 487 Q192 505 254 505 Q321 505 364 485 Q407 465 436 421 Q501 505 621 505 Q738 505 805.5 433.5 Q873 362 873 240 L873 223 L504 223 Z M741 310 Q728 359 699.5 383 Q671 407 625 407 Q580 407 551.5 383.5 Q523 360 508 310 L741 310 Z M268 209 Q224 209 198 193 Q172 177 172 149 Q172 120 199 100.5 Q226 81 268 81 Q312 81 342 101.5 Q372 122 372 151 Q372 176 342.5 192.5 Q313 209 268 209 Z " />
<glyph glyph-name="aeacute" unicode="&#x1fd;" horiz-adv-x="912" d="M364 620 L498 791 L599 728 L429 575 L364 620 Z M504 223 Q507 161 540.5 125.5 Q574 90 629 90 Q667 90 696 107.5 Q725 125 740 157 L868 137 Q838 64 775 24 Q712 -16 627 -16 Q501 -16 436 77 Q366 -16 241 -16 Q182 -16 136 4 Q90 24 65 60.5 Q40 97 40 144 Q40 217 93.5 261.5 Q147 306 236 306 Q276 306 307.5 298 Q339 290 372 271 Q373 280 373 296 Q373 344 340.5 371 Q308 398 249 398 Q183 398 114 377 L114 487 Q192 505 254 505 Q321 505 364 485 Q407 465 436 421 Q501 505 621 505 Q738 505 805.5 433.5 Q873 362 873 240 L873 223 L504 223 Z M741 310 Q728 359 699.5 383 Q671 407 625 407 Q580 407 551.5 383.5 Q523 360 508 310 L741 310 Z M268 209 Q224 209 198 193 Q172 177 172 149 Q172 120 199 100.5 Q226 81 268 81 Q312 81 342 101.5 Q372 122 372 151 Q372 176 342.5 192.5 Q313 209 268 209 Z " />
<glyph glyph-name="b" unicode="b" horiz-adv-x="643" d="M202 426 Q239 468 277.5 486.5 Q316 505 365 505 Q432 505 486.5 471 Q541 437 572 377.5 Q603 318 603 246 Q603 172 572 112 Q541 52 486 18 Q431 -16 363 -16 Q312 -16 274 3 Q236 22 202 63 L202 0 L66 0 L66 846 L202 846 L202 426 Z M324 382 Q287 382 256 363.5 Q225 345 206.5 313.5 Q188 282 188 245 Q188 207 206.5 175.5 Q225 144 256.5 125.5 Q288 107 325 107 Q362 107 393.5 125.5 Q425 144 443.5 175.5 Q462 207 462 243 Q462 281 443.5 313 Q425 345 393.5 363.5 Q362 382 324 382 Z " />
<glyph glyph-name="c" unicode="c" horiz-adv-x="471" d="M433 340 Q403 363 378 372.5 Q353 382 322 382 Q261 382 221 342.5 Q181 303 181 244 Q181 185 221 146 Q261 107 322 107 Q353 107 378.5 116.5 Q404 126 433 148 L433 15 Q401 -2 371.5 -9 Q342 -16 307 -16 Q233 -16 171.5 18 Q110 52 75 111 Q40 170 40 242 Q40 315 75 375.5 Q110 436 171.5 470.5 Q233 505 308 505 Q344 505 373.5 498 Q403 491 433 476 L433 340 Z " />
<glyph glyph-name="cacute" unicode="&#x107;" horiz-adv-x="471" d="M209 620 L344 791 L444 728 L275 575 L209 620 Z M433 340 Q403 363 378 372.5 Q353 382 322 382 Q261 382 221 342.5 Q181 303 181 244 Q181 185 221 146 Q261 107 322 107 Q353 107 378.5 116.5 Q404 126 433 148 L433 15 Q401 -2 371.5 -9 Q342 -16 307 -16 Q233 -16 171.5 18 Q110 52 75 111 Q40 170 40 242 Q40 315 75 375.5 Q110 436 171.5 470.5 Q233 505 308 505 Q344 505 373.5 498 Q403 491 433 476 L433 340 Z " />
<glyph glyph-name="ccaron" unicode="&#x10d;" horiz-adv-x="471" d="M280 696 L403 799 L475 732 L280 575 L89 732 L157 799 L280 696 Z M433 340 Q403 363 378 372.5 Q353 382 322 382 Q261 382 221 342.5 Q181 303 181 244 Q181 185 221 146 Q261 107 322 107 Q353 107 378.5 116.5 Q404 126 433 148 L433 15 Q401 -2 371.5 -9 Q342 -16 307 -16 Q233 -16 171.5 18 Q110 52 75 111 Q40 170 40 242 Q40 315 75 375.5 Q110 436 171.5 470.5 Q233 505 308 505 Q344 505 373.5 498 Q403 491 433 476 L433 340 Z " />
<glyph glyph-name="ccedilla" unicode="&#xe7;" horiz-adv-x="471" d="M433 340 Q403 365 378 375.5 Q353 386 321 386 Q261 386 221 345.5 Q181 305 181 244 Q181 183 221 143 Q261 103 321 103 Q353 103 379 113 Q405 123 433 148 L433 15 Q400 -2 371 -9 Q342 -16 307 -16 Q233 -16 171.5 18 Q110 52 75 111 Q40 170 40 242 Q40 315 75 375.5 Q110 436 171.5 470.5 Q233 505 308 505 Q344 505 373.5 498 Q403 491 433 476 L433 340 Z M166 -201 L278 -51 L366 -99 L235 -241 L166 -201 Z " />
<glyph glyph-name="ccircumflex" unicode="&#x109;" horiz-adv-x="471" d="M473 643 L403 575 L280 679 L157 575 L88 643 L280 799 L473 643 Z M433 340 Q403 363 378 372.5 Q353 382 322 382 Q261 382 221 342.5 Q181 303 181 244 Q181 185 221 146 Q261 107 322 107 Q353 107 378.5 116.5 Q404 126 433 148 L433 15 Q401 -2 371.5 -9 Q342 -16 307 -16 Q233 -16 171.5 18 Q110 52 75 111 Q40 170 40 242 Q40 315 75 375.5 Q110 436 171.5 470.5 Q233 505 308 505 Q344 505 373.5 498 Q403 491 433 476 L433 340 Z " />
<glyph glyph-name="cdotaccent" unicode="&#x10b;" horiz-adv-x="471" d="M289 751 Q324 751 349 726.5 Q374 702 374 667 Q374 631 349 606 Q324 581 289 581 Q254 581 228.5 606.5 Q203 632 203 668 Q203 702 228.5 726.5 Q254 751 289 751 Z M433 340 Q403 363 378 372.5 Q353 382 322 382 Q261 382 221 342.5 Q181 303 181 244 Q181 185 221 146 Q261 107 322 107 Q353 107 378.5 116.5 Q404 126 433 148 L433 15 Q401 -2 371.5 -9 Q342 -16 307 -16 Q233 -16 171.5 18 Q110 52 75 111 Q40 170 40 242 Q40 315 75 375.5 Q110 436 171.5 470.5 Q233 505 308 505 Q344 505 373.5 498 Q403 491 433 476 L433 340 Z " />
<glyph glyph-name="d" unicode="d" horiz-adv-x="643" d="M577 0 L441 0 L441 63 Q408 22 369.5 3 Q331 -16 280 -16 Q212 -16 157 18 Q102 52 71 111.5 Q40 171 40 245 Q40 317 71.5 376.5 Q103 436 157.5 470.5 Q212 505 278 505 Q328 505 366.5 486 Q405 467 441 426 L441 846 L577 846 L577 0 Z M319 382 Q281 382 249.5 363.5 Q218 345 199.5 313.5 Q181 282 181 245 Q181 207 199.5 175.5 Q218 144 250 125.5 Q282 107 319 107 Q355 107 386.5 125.5 Q418 144 436.5 175.5 Q455 207 455 243 Q455 281 437 313 Q419 345 387.5 363.5 Q356 382 319 382 Z " />
<glyph glyph-name="eth" unicode="&#xf0;" horiz-adv-x="638" d="M377 692 Q483 595 541 480 Q599 365 599 253 Q599 172 564.5 111 Q530 50 467.5 17 Q405 -16 322 -16 Q241 -16 176.5 17 Q112 50 76 109 Q40 168 40 243 Q40 320 76 379.5 Q112 439 176.5 472 Q241 505 325 505 Q337 505 347 504 Q308 580 259 634 L154 581 L110 671 L191 713 Q165 732 151 739 L116 755 Q98 764 93 766 L133 847 Q168 836 216.5 809.5 Q265 783 287 764 L415 827 L461 734 L377 692 Z M320 382 Q283 382 251 363.5 Q219 345 200 313.5 Q181 282 181 246 Q181 208 199.5 176 Q218 144 250 125.5 Q282 107 320 107 Q357 107 388.5 125.5 Q420 144 439 175.5 Q458 207 458 245 Q458 283 440 314.5 Q422 346 390 364 Q358 382 320 382 Z " />
<glyph glyph-name="dcaron" unicode="&#x10f;" horiz-adv-x="818" d="M687 642 L615 650 L696 851 L811 841 L687 642 Z M577 0 L441 0 L441 63 Q408 22 369.5 3 Q331 -16 280 -16 Q212 -16 157 18 Q102 52 71 111.5 Q40 171 40 245 Q40 317 71.5 376.5 Q103 436 157.5 470.5 Q212 505 278 505 Q328 505 366.5 486 Q405 467 441 426 L441 846 L577 846 L577 0 Z M319 382 Q281 382 249.5 363.5 Q218 345 199.5 313.5 Q181 282 181 245 Q181 207 199.5 175.5 Q218 144 250 125.5 Q282 107 319 107 Q355 107 386.5 125.5 Q418 144 436.5 175.5 Q455 207 455 243 Q455 281 437 313 Q419 345 387.5 363.5 Q356 382 319 382 Z " />
<glyph glyph-name="dslash" unicode="&#x111;" horiz-adv-x="643" d="M577 741 L637 741 L637 636 L577 636 L577 0 L441 0 L441 63 Q408 22 369.5 3 Q331 -16 280 -16 Q212 -16 157 18 Q102 52 71 111.5 Q40 171 40 245 Q40 317 71.5 376.5 Q103 436 157.5 470.5 Q212 505 278 505 Q327 505 366 486 Q405 467 441 426 L441 636 L305 636 L305 741 L441 741 L441 846 L577 846 L577 741 Z M319 382 Q281 382 249.5 363.5 Q218 345 199.5 313.5 Q181 282 181 245 Q181 207 199.5 175.5 Q218 144 250 125.5 Q282 107 319 107 Q355 107 386.5 125.5 Q418 144 436.5 175.5 Q455 207 455 243 Q455 281 437 313 Q419 345 387.5 363.5 Q356 382 319 382 Z " />
<glyph glyph-name="e" unicode="e" horiz-adv-x="585" d="M180 223 Q182 159 212.5 125.5 Q243 92 299 92 Q338 92 365 107 Q392 122 416 157 L542 137 Q511 62 450.5 23 Q390 -16 303 -16 Q224 -16 164.5 16 Q105 48 72.5 107 Q40 166 40 244 Q40 322 71.5 381.5 Q103 441 161 473 Q219 505 296 505 Q413 505 480 434.5 Q547 364 547 241 L547 223 L180 223 Z M416 310 Q405 357 375 382 Q345 407 299 407 Q254 407 224 381.5 Q194 356 184 310 L416 310 Z " />
<glyph glyph-name="eacute" unicode="&#xe9;" horiz-adv-x="585" d="M217 620 L351 791 L452 728 L283 575 L217 620 Z M180 223 Q182 159 212.5 125.5 Q243 92 299 92 Q338 92 365 107 Q392 122 416 157 L542 137 Q511 62 450.5 23 Q390 -16 303 -16 Q224 -16 164.5 16 Q105 48 72.5 107 Q40 166 40 244 Q40 322 71.5 381.5 Q103 441 161 473 Q219 505 296 505 Q413 505 480 434.5 Q547 364 547 241 L547 223 L180 223 Z M416 310 Q405 357 375 382 Q345 407 299 407 Q254 407 224 381.5 Q194 356 184 310 L416 310 Z " />
<glyph glyph-name="ebreve" unicode="&#x115;" horiz-adv-x="585" d="M202 734 Q215 697 236.5 680 Q258 663 293 663 Q328 663 349.5 680 Q371 697 384 734 L479 734 Q470 661 420 618 Q370 575 293 575 Q217 575 167 617.5 Q117 660 107 734 L202 734 Z M180 223 Q182 159 212.5 125.5 Q243 92 299 92 Q338 92 365 107 Q392 122 416 157 L542 137 Q511 62 450.5 23 Q390 -16 303 -16 Q224 -16 164.5 16 Q105 48 72.5 107 Q40 166 40 244 Q40 322 71.5 381.5 Q103 441 161 473 Q219 505 296 505 Q413 505 480 434.5 Q547 364 547 241 L547 223 L180 223 Z M416 310 Q405 357 375 382 Q345 407 299 407 Q254 407 224 381.5 Q194 356 184 310 L416 310 Z " />
<glyph glyph-name="ecaron" unicode="&#x11b;" horiz-adv-x="585" d="M299 696 L423 799 L494 732 L299 575 L108 732 L176 799 L299 696 Z M180 223 Q182 159 212.5 125.5 Q243 92 299 92 Q338 92 365 107 Q392 122 416 157 L542 137 Q511 62 450.5 23 Q390 -16 303 -16 Q224 -16 164.5 16 Q105 48 72.5 107 Q40 166 40 244 Q40 322 71.5 381.5 Q103 441 161 473 Q219 505 296 505 Q413 505 480 434.5 Q547 364 547 241 L547 223 L180 223 Z M416 310 Q405 357 375 382 Q345 407 299 407 Q254 407 224 381.5 Q194 356 184 310 L416 310 Z " />
<glyph glyph-name="ecircumflex" unicode="&#xea;" horiz-adv-x="585" d="M494 643 L423 575 L299 679 L176 575 L108 643 L299 799 L494 643 Z M180 223 Q182 159 212.5 125.5 Q243 92 299 92 Q338 92 365 107 Q392 122 416 157 L542 137 Q511 62 450.5 23 Q390 -16 303 -16 Q224 -16 164.5 16 Q105 48 72.5 107 Q40 166 40 244 Q40 322 71.5 381.5 Q103 441 161 473 Q219 505 296 505 Q413 505 480 434.5 Q547 364 547 241 L547 223 L180 223 Z M416 310 Q405 357 375 382 Q345 407 299 407 Q254 407 224 381.5 Q194 356 184 310 L416 310 Z " />
<glyph glyph-name="edieresis" unicode="&#xeb;" horiz-adv-x="585" d="M183 744 Q216 744 239.5 720 Q263 696 263 662 Q263 628 239.5 604.5 Q216 581 183 581 Q149 581 125.5 605 Q102 629 102 663 Q102 696 126 720 Q150 744 183 744 Z M418 744 Q452 744 475.5 720 Q499 696 499 662 Q499 628 475.5 604.5 Q452 581 418 581 Q384 581 360.5 605 Q337 629 337 663 Q337 696 361 720 Q385 744 418 744 Z M180 223 Q182 159 212.5 125.5 Q243 92 299 92 Q338 92 365 107 Q392 122 416 157 L542 137 Q511 62 450.5 23 Q390 -16 303 -16 Q224 -16 164.5 16 Q105 48 72.5 107 Q40 166 40 244 Q40 322 71.5 381.5 Q103 441 161 473 Q219 505 296 505 Q413 505 480 434.5 Q547 364 547 241 L547 223 L180 223 Z M416 310 Q405 357 375 382 Q345 407 299 407 Q254 407 224 381.5 Q194 356 184 310 L416 310 Z " />
<glyph glyph-name="edotaccent" unicode="&#x117;" horiz-adv-x="585" d="M301 751 Q336 751 360.5 726.5 Q385 702 385 667 Q385 631 360.5 606 Q336 581 301 581 Q265 581 240 606 Q215 631 215 668 Q215 702 240 726.5 Q265 751 301 751 Z M180 223 Q182 159 212.5 125.5 Q243 92 299 92 Q338 92 365 107 Q392 122 416 157 L542 137 Q511 62 450.5 23 Q390 -16 303 -16 Q224 -16 164.5 16 Q105 48 72.5 107 Q40 166 40 244 Q40 322 71.5 381.5 Q103 441 161 473 Q219 505 296 505 Q413 505 480 434.5 Q547 364 547 241 L547 223 L180 223 Z M416 310 Q405 357 375 382 Q345 407 299 407 Q254 407 224 381.5 Q194 356 184 310 L416 310 Z " />
<glyph glyph-name="egrave" unicode="&#xe8;" horiz-adv-x="585" d="M373 620 L307 575 L138 728 L238 791 L373 620 Z M180 223 Q182 159 212.5 125.5 Q243 92 299 92 Q338 92 365 107 Q392 122 416 157 L542 137 Q511 62 450.5 23 Q390 -16 303 -16 Q224 -16 164.5 16 Q105 48 72.5 107 Q40 166 40 244 Q40 322 71.5 381.5 Q103 441 161 473 Q219 505 296 505 Q413 505 480 434.5 Q547 364 547 241 L547 223 L180 223 Z M416 310 Q405 357 375 382 Q345 407 299 407 Q254 407 224 381.5 Q194 356 184 310 L416 310 Z " />
<glyph glyph-name="emacron" unicode="&#x113;" horiz-adv-x="585" d="M481 623 L120 623 L120 713 L481 713 L481 623 Z M180 223 Q182 159 212.5 125.5 Q243 92 299 92 Q338 92 365 107 Q392 122 416 157 L542 137 Q511 62 450.5 23 Q390 -16 303 -16 Q224 -16 164.5 16 Q105 48 72.5 107 Q40 166 40 244 Q40 322 71.5 381.5 Q103 441 161 473 Q219 505 296 505 Q413 505 480 434.5 Q547 364 547 241 L547 223 L180 223 Z M416 310 Q405 357 375 382 Q345 407 299 407 Q254 407 224 381.5 Q194 356 184 310 L416 310 Z " />
<glyph glyph-name="eogonek" unicode="&#x119;" horiz-adv-x="585" d="M180 223 Q182 159 212.5 125.5 Q243 92 299 92 Q338 92 365 107 Q392 122 416 157 L542 137 Q526 94 501 66 Q476 38 433 12 Q353 -38 353 -85 Q353 -104 366.5 -116.5 Q380 -129 401 -129 Q425 -129 455 -114 L440 -190 Q405 -209 366 -209 Q325 -209 296 -184 Q267 -159 267 -123 Q267 -91 282 -65 Q297 -39 331 -15 Q318 -16 304 -16 Q225 -16 165.5 16 Q106 48 73 107 Q40 166 40 244 Q40 323 71.5 382 Q103 441 161 473 Q219 505 296 505 Q413 505 480 434.5 Q547 364 547 241 L547 223 L180 223 Z M416 310 Q405 357 375 382 Q345 407 299 407 Q254 407 224 381.5 Q194 356 184 310 L416 310 Z " />
<glyph glyph-name="uni0259" unicode="&#x259;" horiz-adv-x="608" d="M424 268 Q423 294 419.5 310.5 Q416 327 408 344 Q394 372 365 389.5 Q336 407 303 407 Q264 407 236 389.5 Q208 372 188 334 L51 345 Q80 418 146.5 460 Q213 502 301 502 Q379 502 440.5 469.5 Q502 437 536 379 Q570 321 570 247 Q570 172 536 112.5 Q502 53 441.5 19.5 Q381 -14 304 -14 Q216 -14 151 30 Q86 74 56 154 Q45 184 41.5 206 Q38 228 38 268 L424 268 Z M182 191 Q190 140 223 110 Q256 80 303 80 Q350 80 383 110.5 Q416 141 421 191 L182 191 Z " />
<glyph glyph-name="f" unicode="f" horiz-adv-x="331" d="M70 0 L70 371 L17 371 L17 489 L70 489 L70 646 Q70 701 80 734 Q90 767 115 796 Q144 826 182 843 Q220 860 260 860 Q281 860 296 856.5 Q311 853 332 843 L332 719 Q309 729 296 733 Q283 737 270 737 Q252 737 237.5 727.5 Q223 718 217 702 Q211 690 209 673 Q207 656 207 626 L207 489 L332 489 L332 371 L207 371 L207 0 L70 0 Z " />
<glyph glyph-name="g" unicode="g" horiz-adv-x="641" d="M575 18 Q575 -58 563.5 -99 Q552 -140 520 -176 Q484 -218 431.5 -240 Q379 -262 314 -262 Q165 -262 89 -155 Q71 -129 63 -108 Q55 -87 52 -58 L201 -58 Q212 -101 241 -123.5 Q270 -146 316 -146 Q342 -146 366.5 -136.5 Q391 -127 408 -110 Q438 -77 438 -8 L438 66 Q401 22 362.5 3 Q324 -16 272 -16 Q206 -16 153 16.5 Q100 49 70 107 Q40 165 40 238 Q40 314 71 375 Q102 436 156.5 470.5 Q211 505 279 505 Q330 505 367 487 Q404 469 438 426 L438 489 L575 489 L575 18 Z M319 382 Q281 382 249.5 363.5 Q218 345 199.5 313.5 Q181 282 181 245 Q181 207 199.5 175.5 Q218 144 250 125.5 Q282 107 319 107 Q355 107 386.5 125.5 Q418 144 436.5 175.5 Q455 207 455 243 Q455 281 436.5 313 Q418 345 387 363.5 Q356 382 319 382 Z " />
<glyph glyph-name="gbreve" unicode="&#x11f;" horiz-adv-x="641" d="M229 734 Q243 696 264 679.5 Q285 663 321 663 Q356 663 377 680 Q398 697 411 734 L506 734 Q497 661 447.5 618 Q398 575 321 575 Q244 575 194 617.5 Q144 660 134 734 L229 734 Z M575 18 Q575 -58 563.5 -99 Q552 -140 520 -176 Q484 -218 431.5 -240 Q379 -262 314 -262 Q165 -262 89 -155 Q71 -129 63 -108 Q55 -87 52 -58 L201 -58 Q212 -101 241 -123.5 Q270 -146 316 -146 Q342 -146 366.5 -136.5 Q391 -127 408 -110 Q438 -77 438 -8 L438 66 Q401 22 362.5 3 Q324 -16 272 -16 Q206 -16 153 16.5 Q100 49 70 107 Q40 165 40 238 Q40 314 71 375 Q102 436 156.5 470.5 Q211 505 279 505 Q330 505 367 487 Q404 469 438 426 L438 489 L575 489 L575 18 Z M319 382 Q281 382 249.5 363.5 Q218 345 199.5 313.5 Q181 282 181 245 Q181 207 199.5 175.5 Q218 144 250 125.5 Q282 107 319 107 Q355 107 386.5 125.5 Q418 144 436.5 175.5 Q455 207 455 243 Q455 281 436.5 313 Q418 345 387 363.5 Q356 382 319 382 Z " />
<glyph glyph-name="gcaron" unicode="&#x1e7;" horiz-adv-x="641" d="M320 696 L443 799 L513 732 L319 575 L128 732 L197 799 L320 696 Z M575 18 Q575 -58 563.5 -99 Q552 -140 520 -176 Q484 -218 431.5 -240 Q379 -262 314 -262 Q165 -262 89 -155 Q71 -129 63 -108 Q55 -87 52 -58 L201 -58 Q212 -101 241 -123.5 Q270 -146 316 -146 Q342 -146 366.5 -136.5 Q391 -127 408 -110 Q438 -77 438 -8 L438 66 Q401 22 362.5 3 Q324 -16 272 -16 Q206 -16 153 16.5 Q100 49 70 107 Q40 165 40 238 Q40 314 71 375 Q102 436 156.5 470.5 Q211 505 279 505 Q330 505 367 487 Q404 469 438 426 L438 489 L575 489 L575 18 Z M319 382 Q281 382 249.5 363.5 Q218 345 199.5 313.5 Q181 282 181 245 Q181 207 199.5 175.5 Q218 144 250 125.5 Q282 107 319 107 Q355 107 386.5 125.5 Q418 144 436.5 175.5 Q455 207 455 243 Q455 281 436.5 313 Q418 345 387 363.5 Q356 382 319 382 Z " />
<glyph glyph-name="gcircumflex" unicode="&#x11d;" horiz-adv-x="641" d="M521 643 L451 575 L327 679 L203 575 L136 643 L327 799 L521 643 Z M575 18 Q575 -58 563.5 -99 Q552 -140 520 -176 Q484 -218 431.5 -240 Q379 -262 314 -262 Q165 -262 89 -155 Q71 -129 63 -108 Q55 -87 52 -58 L201 -58 Q212 -101 241 -123.5 Q270 -146 316 -146 Q342 -146 366.5 -136.5 Q391 -127 408 -110 Q438 -77 438 -8 L438 66 Q401 22 362.5 3 Q324 -16 272 -16 Q206 -16 153 16.5 Q100 49 70 107 Q40 165 40 238 Q40 314 71 375 Q102 436 156.5 470.5 Q211 505 279 505 Q330 505 367 487 Q404 469 438 426 L438 489 L575 489 L575 18 Z M319 382 Q281 382 249.5 363.5 Q218 345 199.5 313.5 Q181 282 181 245 Q181 207 199.5 175.5 Q218 144 250 125.5 Q282 107 319 107 Q355 107 386.5 125.5 Q418 144 436.5 175.5 Q455 207 455 243 Q455 281 436.5 313 Q418 345 387 363.5 Q356 382 319 382 Z " />
<glyph glyph-name="uni0123" unicode="&#x123;" horiz-adv-x="641" d="M374 786 L446 779 L365 577 L251 588 L374 786 Z M575 18 Q575 -58 563.5 -99 Q552 -140 520 -176 Q484 -218 431.5 -240 Q379 -262 314 -262 Q165 -262 89 -155 Q71 -129 63 -108 Q55 -87 52 -58 L201 -58 Q212 -101 241 -123.5 Q270 -146 316 -146 Q342 -146 366.5 -136.5 Q391 -127 408 -110 Q438 -77 438 -8 L438 66 Q401 22 362.5 3 Q324 -16 272 -16 Q206 -16 153 16.5 Q100 49 70 107 Q40 165 40 238 Q40 314 71 375 Q102 436 156.5 470.5 Q211 505 279 505 Q330 505 367 487 Q404 469 438 426 L438 489 L575 489 L575 18 Z M319 382 Q281 382 249.5 363.5 Q218 345 199.5 313.5 Q181 282 181 245 Q181 207 199.5 175.5 Q218 144 250 125.5 Q282 107 319 107 Q355 107 386.5 125.5 Q418 144 436.5 175.5 Q455 207 455 243 Q455 281 436.5 313 Q418 345 387 363.5 Q356 382 319 382 Z " />
<glyph glyph-name="gdotaccent" unicode="&#x121;" horiz-adv-x="641" d="M313 751 Q348 751 373 726 Q398 701 398 667 Q398 631 373 606 Q348 581 313 581 Q278 581 252.5 606.5 Q227 632 227 668 Q227 702 252.5 726.5 Q278 751 313 751 Z M575 18 Q575 -58 563.5 -99 Q552 -140 520 -176 Q484 -218 431.5 -240 Q379 -262 314 -262 Q165 -262 89 -155 Q71 -129 63 -108 Q55 -87 52 -58 L201 -58 Q212 -101 241 -123.5 Q270 -146 316 -146 Q342 -146 366.5 -136.5 Q391 -127 408 -110 Q438 -77 438 -8 L438 66 Q401 22 362.5 3 Q324 -16 272 -16 Q206 -16 153 16.5 Q100 49 70 107 Q40 165 40 238 Q40 314 71 375 Q102 436 156.5 470.5 Q211 505 279 505 Q330 505 367 487 Q404 469 438 426 L438 489 L575 489 L575 18 Z M319 382 Q281 382 249.5 363.5 Q218 345 199.5 313.5 Q181 282 181 245 Q181 207 199.5 175.5 Q218 144 250 125.5 Q282 107 319 107 Q355 107 386.5 125.5 Q418 144 436.5 175.5 Q455 207 455 243 Q455 281 436.5 313 Q418 345 387 363.5 Q356 382 319 382 Z " />
<glyph glyph-name="h" unicode="h" horiz-adv-x="602" d="M202 426 Q234 469 270 487 Q306 505 356 505 Q400 505 437 489.5 Q474 474 498 445 Q520 419 528.5 389 Q537 359 537 307 L537 0 L400 0 L400 268 Q400 300 397 318.5 Q394 337 386 349 Q376 367 354.5 378 Q333 389 306 389 Q253 389 227.5 355 Q202 321 202 251 L202 0 L66 0 L66 846 L202 846 L202 426 Z " />
<glyph glyph-name="hbar" unicode="&#x127;" horiz-adv-x="602" d="M202 636 L202 426 Q234 468 270 486.5 Q306 505 357 505 Q401 505 438 489.5 Q475 474 499 445 Q521 419 529.5 389 Q538 359 538 307 L538 0 L401 0 L401 268 Q401 300 398 318 Q395 336 388 349 Q377 367 355 378 Q333 389 307 389 Q254 389 228 355 Q202 321 202 251 L202 0 L66 0 L66 636 L6 636 L6 741 L66 741 L66 846 L202 846 L202 741 L339 741 L339 636 L202 636 Z " />
<glyph glyph-name="hcircumflex" unicode="&#x125;" horiz-adv-x="602" d="M383 946 L313 878 L189 980 L66 878 L-2 946 L189 1102 L383 946 Z M202 426 Q234 469 270 487 Q306 505 356 505 Q400 505 437 489.5 Q474 474 498 445 Q520 419 528.5 389 Q537 359 537 307 L537 0 L400 0 L400 268 Q400 300 397 318.5 Q394 337 386 349 Q376 367 354.5 378 Q333 389 306 389 Q253 389 227.5 355 Q202 321 202 251 L202 0 L66 0 L66 846 L202 846 L202 426 Z " />
<glyph glyph-name="i" unicode="i" horiz-adv-x="263" d="M132 779 Q166 779 190 754.5 Q214 730 214 696 Q214 662 190 638 Q166 614 132 614 Q98 614 74 638 Q50 662 50 697 Q50 730 74 754.5 Q98 779 132 779 Z M63 0 L63 489 L200 489 L200 0 L63 0 Z " />
<glyph glyph-name="dotlessi" unicode="&#x131;" horiz-adv-x="264" d="M64 0 L64 489 L201 489 L201 0 L64 0 Z " />
<glyph glyph-name="iacute" unicode="&#xed;" horiz-adv-x="264" d="M53 620 L188 791 L288 728 L119 575 L53 620 Z M64 0 L64 489 L201 489 L201 0 L64 0 Z " />
<glyph glyph-name="ibreve" unicode="&#x12d;" horiz-adv-x="264" d="M68 734 Q79 660 140 660 Q203 660 212 734 L299 734 Q289 657 248.5 616 Q208 575 140 575 Q73 575 32 616 Q-9 657 -19 734 L68 734 Z M64 0 L64 489 L201 489 L201 0 L64 0 Z " />
<glyph glyph-name="icircumflex" unicode="&#xee;" horiz-adv-x="264" d="M303 643 L233 575 L131 679 L31 575 L-37 643 L131 799 L303 643 Z M64 0 L64 489 L201 489 L201 0 L64 0 Z " />
<glyph glyph-name="idieresis" unicode="&#xef;" horiz-adv-x="264" d="M33 744 Q67 744 90.5 720 Q114 696 114 662 Q114 628 90.5 604.5 Q67 581 33 581 Q-1 581 -25 605 Q-49 629 -49 663 Q-49 696 -24.5 720 Q0 744 33 744 Z M233 744 Q267 744 290.5 720 Q314 696 314 662 Q314 628 290.5 604.5 Q267 581 233 581 Q199 581 175 605 Q151 629 151 663 Q151 696 175.5 720 Q200 744 233 744 Z M64 0 L64 489 L201 489 L201 0 L64 0 Z " />
<glyph glyph-name="igrave" unicode="&#xec;" horiz-adv-x="264" d="M212 620 L147 575 L-23 728 L77 791 L212 620 Z M64 0 L64 489 L201 489 L201 0 L64 0 Z " />
<glyph glyph-name="ij" unicode="&#x133;" horiz-adv-x="535" d="M132 779 Q166 779 190 754.5 Q214 730 214 696 Q214 662 190 638 Q166 614 132 614 Q98 614 74 638 Q50 662 50 697 Q50 730 74 754.5 Q98 779 132 779 Z M63 0 L63 489 L200 489 L200 0 L63 0 Z M404 779 Q438 779 462 754.5 Q486 730 486 696 Q486 662 462 638 Q438 614 404 614 Q370 614 346 638 Q322 662 322 697 Q322 730 346 754.5 Q370 779 404 779 Z M295 -264 Q271 -264 255 -262.5 Q239 -261 226 -255 L226 -133 Q247 -145 274 -145 Q302 -145 318.5 -128.5 Q335 -112 335 -67 L335 489 L472 489 L472 -44 Q472 -117 457.5 -156 Q443 -195 414 -220 Q362 -264 295 -264 Z " />
<glyph glyph-name="imacron" unicode="&#x12b;" horiz-adv-x="264" d="M270 623 L-6 623 L-6 713 L270 713 L270 623 Z M63 0 L63 489 L200 489 L200 0 L63 0 Z " />
<glyph glyph-name="iogonek" unicode="&#x12f;" horiz-adv-x="263" d="M132 779 Q166 779 190 754.5 Q214 730 214 696 Q214 662 190 638 Q166 614 132 614 Q98 614 74 638 Q50 662 50 697 Q50 730 74 754.5 Q98 779 132 779 Z M63 489 L200 489 L200 0 Q156 -21 136 -41 Q116 -61 116 -85 Q116 -104 130 -116.5 Q144 -129 165 -129 Q188 -129 218 -114 L202 -190 Q170 -209 130 -209 Q89 -209 60 -184 Q31 -159 31 -122 Q31 -87 50 -58.5 Q69 -30 113 0 L63 0 L63 489 Z " />
<glyph glyph-name="itilde" unicode="&#x129;" horiz-adv-x="264" d="M-72 591 Q-63 656 -30.5 694 Q2 732 49 732 Q80 732 139 710 Q178 695 188.5 692 Q199 689 210 689 Q227 689 237 697.5 Q247 706 260 731 L338 731 Q324 664 289 626.5 Q254 589 205 589 Q188 589 172 593 Q156 597 125 610 Q94 622 78 626.5 Q62 631 50 631 Q35 631 24.5 621.5 Q14 612 5 591 L-72 591 Z M64 0 L64 489 L201 489 L201 0 L64 0 Z " />
<glyph glyph-name="j" unicode="j" horiz-adv-x="263" d="M132 779 Q166 779 190 754.5 Q214 730 214 696 Q214 662 190 638 Q166 614 132 614 Q98 614 74 638 Q50 662 50 697 Q50 730 74 754.5 Q98 779 132 779 Z M23 -264 Q-1 -264 -17 -262.5 Q-33 -261 -46 -255 L-46 -133 Q-25 -145 2 -145 Q30 -145 46.5 -128.5 Q63 -112 63 -67 L63 489 L200 489 L200 -44 Q200 -117 185.5 -156 Q171 -195 142 -220 Q90 -264 23 -264 Z " />
<glyph glyph-name="uni0237" unicode="&#x237;" horiz-adv-x="264" d="M24 -264 Q-24 -264 -45 -255 L-45 -133 Q-24 -145 3 -145 Q31 -145 47.5 -128.5 Q64 -112 64 -67 L64 489 L201 489 L201 -44 Q201 -118 187 -157.5 Q173 -197 144 -220 Q90 -264 24 -264 Z " />
<glyph glyph-name="jcircumflex" unicode="&#x135;" horiz-adv-x="263" d="M324 643 L254 575 L130 679 L7 575 L-61 643 L130 799 L324 643 Z M23 -264 Q-1 -264 -17 -262.5 Q-33 -261 -46 -255 L-46 -133 Q-25 -145 2 -145 Q30 -145 46.5 -128.5 Q63 -112 63 -67 L63 489 L200 489 L200 -44 Q200 -118 186 -157.5 Q172 -197 142 -220 Q90 -264 23 -264 Z " />
<glyph glyph-name="k" unicode="k" horiz-adv-x="584" d="M385 489 L571 489 L341 275 L589 0 L400 0 L217 210 L202 195 L202 0 L66 0 L66 846 L202 846 L202 311 L385 489 Z " />
<glyph glyph-name="uni0137" unicode="&#x137;" horiz-adv-x="584" d="M385 489 L571 489 L341 275 L589 0 L400 0 L217 210 L202 195 L202 0 L66 0 L66 846 L202 846 L202 311 L385 489 Z M245 -261 L173 -253 L254 -60 L368 -70 L245 -261 Z " />
<glyph glyph-name="kgreenlandic" unicode="&#x138;" horiz-adv-x="584" d="M385 489 L571 489 L341 275 L589 0 L400 0 L217 210 L202 195 L202 0 L66 0 L66 489 L202 489 L202 311 L385 489 Z " />
<glyph glyph-name="l" unicode="l" horiz-adv-x="268" d="M66 0 L66 846 L202 846 L202 0 L66 0 Z " />
<glyph glyph-name="lacute" unicode="&#x13a;" horiz-adv-x="268" d="M68 920 L207 1057 L295 979 L122 871 L68 920 Z M66 0 L66 832 L202 832 L202 0 L66 0 Z " />
<glyph glyph-name="lcaron" unicode="&#x13e;" horiz-adv-x="444" d="M313 642 L241 650 L322 851 L436 841 L313 642 Z M66 0 L66 846 L202 846 L202 0 L66 0 Z " />
<glyph glyph-name="uni013C" unicode="&#x13c;" horiz-adv-x="268" d="M66 0 L66 846 L202 846 L202 0 L66 0 Z M78 -261 L6 -253 L87 -60 L201 -70 L78 -261 Z " />
<glyph glyph-name="ldot" unicode="&#x140;" horiz-adv-x="476" d="M66 0 L66 846 L202 846 L202 0 L66 0 Z M371 426 Q414 426 444.5 396 Q475 366 475 323 Q475 280 444.5 249.5 Q414 219 372 219 Q329 219 298.5 249.5 Q268 280 268 324 Q268 366 298 396 Q328 426 371 426 Z " />
<glyph glyph-name="lslash" unicode="&#x142;" horiz-adv-x="304" d="M304 627 L304 501 L219 442 L219 0 L82 0 L82 379 L0 320 L0 445 L82 501 L82 846 L219 846 L219 565 L304 627 Z " />
<glyph glyph-name="m" unicode="m" horiz-adv-x="893" d="M202 433 Q235 471 270.5 488 Q306 505 351 505 Q402 505 439 483.5 Q476 462 504 416 Q560 505 664 505 Q708 505 744.5 486 Q781 467 801 435 Q815 413 821 385 Q827 357 827 316 L827 0 L690 0 L690 268 Q690 298 688 314.5 Q686 331 679 346 Q670 366 652 377.5 Q634 389 610 389 Q584 389 562.5 376 Q541 363 530 340 Q515 309 515 251 L515 0 L379 0 L379 260 Q379 291 376.5 309 Q374 327 368 341 Q360 363 339.5 376 Q319 389 295 389 Q272 389 250 376.5 Q228 364 218 345 Q210 329 206 307.5 Q202 286 202 251 L202 0 L66 0 L66 489 L202 489 L202 433 Z " />
<glyph glyph-name="n" unicode="n" horiz-adv-x="602" d="M202 428 Q234 470 269.5 487.5 Q305 505 356 505 Q400 505 437 489.5 Q474 474 498 446 Q520 422 528.5 391.5 Q537 361 537 311 L537 0 L400 0 L400 271 Q400 303 397 320.5 Q394 338 386 350 Q376 368 354.5 378.5 Q333 389 306 389 Q253 389 227.5 355.5 Q202 322 202 253 L202 0 L66 0 L66 489 L202 489 L202 428 Z " />
<glyph glyph-name="nacute" unicode="&#x144;" horiz-adv-x="602" d="M229 620 L364 791 L463 728 L295 575 L229 620 Z M202 428 Q234 470 269.5 487.5 Q305 505 356 505 Q400 505 437 489.5 Q474 474 498 446 Q520 422 528.5 391.5 Q537 361 537 311 L537 0 L400 0 L400 271 Q400 303 397 320.5 Q394 338 386 350 Q376 368 354.5 378.5 Q333 389 306 389 Q253 389 227.5 355.5 Q202 322 202 253 L202 0 L66 0 L66 489 L202 489 L202 428 Z " />
<glyph glyph-name="napostrophe" unicode="&#x149;" horiz-adv-x="755" d="M124 453 L37 464 L158 768 L284 754 L124 453 Z M354 428 Q386 470 421.5 487.5 Q457 505 508 505 Q552 505 589 489.5 Q626 474 651 446 Q672 422 680.5 391.5 Q689 361 689 311 L689 0 L553 0 L553 271 Q553 301 550 319 Q547 337 539 350 Q528 368 507 378.5 Q486 389 459 389 Q406 389 380 356 Q354 323 354 253 L354 0 L217 0 L217 489 L354 489 L354 428 Z " />
<glyph glyph-name="ncaron" unicode="&#x148;" horiz-adv-x="602" d="M307 696 L432 799 L502 732 L307 575 L116 732 L184 799 L307 696 Z M202 428 Q234 470 269.5 487.5 Q305 505 356 505 Q400 505 437 489.5 Q474 474 498 446 Q520 422 528.5 391.5 Q537 361 537 311 L537 0 L400 0 L400 271 Q400 303 397 320.5 Q394 338 386 350 Q376 368 354.5 378.5 Q333 389 306 389 Q253 389 227.5 355.5 Q202 322 202 253 L202 0 L66 0 L66 489 L202 489 L202 428 Z " />
<glyph glyph-name="uni0146" unicode="&#x146;" horiz-adv-x="602" d="M202 428 Q234 470 269.5 487.5 Q305 505 356 505 Q400 505 437 489.5 Q474 474 498 446 Q520 422 528.5 391.5 Q537 361 537 311 L537 0 L400 0 L400 271 Q400 303 397 320.5 Q394 338 386 350 Q376 368 354.5 378.5 Q333 389 306 389 Q253 389 227.5 355.5 Q202 322 202 253 L202 0 L66 0 L66 489 L202 489 L202 428 Z M253 -261 L181 -253 L262 -60 L376 -70 L253 -261 Z " />
<glyph glyph-name="eng" unicode="&#x14b;" horiz-adv-x="602" d="M202 428 Q234 469 270 487 Q306 505 356 505 Q400 505 437 489.5 Q474 474 498 446 Q520 422 528.5 391.5 Q537 361 537 311 L537 62 Q537 9 526.5 -24.5 Q516 -58 492 -86 Q464 -117 426 -133.5 Q388 -150 347 -150 Q326 -150 311 -147 Q296 -144 275 -134 L275 -9 Q296 -19 309.5 -23 Q323 -27 337 -27 Q355 -27 369.5 -17.5 Q384 -8 390 7 Q396 19 398 35.5 Q400 52 400 82 L400 271 Q400 303 397 320.5 Q394 338 386 350 Q377 368 355.5 378.5 Q334 389 307 389 Q254 389 228 355.5 Q202 322 202 253 L202 0 L66 0 L66 489 L202 489 L202 428 Z " />
<glyph glyph-name="ntilde" unicode="&#xf1;" horiz-adv-x="602" d="M104 591 Q113 656 145.5 694 Q178 732 225 732 Q258 732 315 710 Q353 695 364 692 Q375 689 386 689 Q403 689 413 697.5 Q423 706 436 731 L514 731 Q501 664 466 626.5 Q431 589 381 589 Q364 589 348.5 593 Q333 597 302 610 Q270 622 254.5 626.5 Q239 631 227 631 Q211 631 200.5 621.5 Q190 612 181 591 L104 591 Z M202 428 Q234 470 269.5 487.5 Q305 505 356 505 Q400 505 437 489.5 Q474 474 498 446 Q520 422 528.5 391.5 Q537 361 537 311 L537 0 L400 0 L400 271 Q400 303 397 320.5 Q394 338 386 350 Q376 368 354.5 378.5 Q333 389 306 389 Q253 389 227.5 355.5 Q202 322 202 253 L202 0 L66 0 L66 489 L202 489 L202 428 Z " />
<glyph glyph-name="o" unicode="o" horiz-adv-x="638" d="M321 505 Q402 505 465.5 472 Q529 439 564 380 Q599 321 599 245 Q599 168 563.5 109 Q528 50 463.5 17 Q399 -16 316 -16 Q235 -16 172.5 17.5 Q110 51 75 111 Q40 171 40 249 Q40 323 76 381 Q112 439 176 472 Q240 505 321 505 Z M319 382 Q282 382 250.5 363.5 Q219 345 200 313.5 Q181 282 181 246 Q181 208 199.5 176 Q218 144 250 125.5 Q282 107 320 107 Q357 107 388.5 125.5 Q420 144 439 175.5 Q458 207 458 244 Q458 282 439 313.5 Q420 345 388 363.5 Q356 382 319 382 Z " />
<glyph glyph-name="oacute" unicode="&#xf3;" horiz-adv-x="638" d="M247 620 L382 791 L481 728 L313 575 L247 620 Z M321 505 Q402 505 465.5 472 Q529 439 564 380 Q599 321 599 245 Q599 168 563.5 109 Q528 50 463.5 17 Q399 -16 316 -16 Q235 -16 172.5 17.5 Q110 51 75 111 Q40 171 40 249 Q40 323 76 381 Q112 439 176 472 Q240 505 321 505 Z M319 382 Q282 382 250.5 363.5 Q219 345 200 313.5 Q181 282 181 246 Q181 208 199.5 176 Q218 144 250 125.5 Q282 107 320 107 Q357 107 388.5 125.5 Q420 144 439 175.5 Q458 207 458 244 Q458 282 439 313.5 Q420 345 388 363.5 Q356 382 319 382 Z " />
<glyph glyph-name="obreve" unicode="&#x14f;" horiz-adv-x="638" d="M228 734 Q242 696 263 679.5 Q284 663 320 663 Q355 663 376 680 Q397 697 410 734 L505 734 Q496 661 446 618 Q396 575 320 575 Q243 575 193 617.5 Q143 660 133 734 L228 734 Z M321 505 Q402 505 465.5 472 Q529 439 564 380 Q599 321 599 245 Q599 168 563.5 109 Q528 50 463.5 17 Q399 -16 316 -16 Q235 -16 172.5 17.5 Q110 51 75 111 Q40 171 40 249 Q40 323 76 381 Q112 439 176 472 Q240 505 321 505 Z M319 382 Q282 382 250.5 363.5 Q219 345 200 313.5 Q181 282 181 246 Q181 208 199.5 176 Q218 144 250 125.5 Q282 107 320 107 Q357 107 388.5 125.5 Q420 144 439 175.5 Q458 207 458 244 Q458 282 439 313.5 Q420 345 388 363.5 Q356 382 319 382 Z " />
<glyph glyph-name="ocircumflex" unicode="&#xf4;" horiz-adv-x="638" d="M512 643 L442 575 L319 679 L195 575 L127 643 L318 799 L512 643 Z M321 505 Q402 505 465.5 472 Q529 439 564 380 Q599 321 599 245 Q599 168 563.5 109 Q528 50 463.5 17 Q399 -16 316 -16 Q235 -16 172.5 17.5 Q110 51 75 111 Q40 171 40 249 Q40 323 76 381 Q112 439 176 472 Q240 505 321 505 Z M319 382 Q282 382 250.5 363.5 Q219 345 200 313.5 Q181 282 181 246 Q181 208 199.5 176 Q218 144 250 125.5 Q282 107 320 107 Q357 107 388.5 125.5 Q420 144 439 175.5 Q458 207 458 244 Q458 282 439 313.5 Q420 345 388 363.5 Q356 382 319 382 Z " />
<glyph glyph-name="odieresis" unicode="&#xf6;" horiz-adv-x="638" d="M202 744 Q235 744 259 720 Q283 696 283 662 Q283 628 259 604.5 Q235 581 202 581 Q168 581 144.5 605 Q121 629 121 663 Q121 696 145 720 Q169 744 202 744 Z M436 744 Q470 744 494 720 Q518 696 518 662 Q518 628 494 604.5 Q470 581 436 581 Q402 581 378.5 605 Q355 629 355 663 Q355 696 379 720 Q403 744 436 744 Z M321 505 Q402 505 465.5 472 Q529 439 564 380 Q599 321 599 245 Q599 168 563.5 109 Q528 50 463.5 17 Q399 -16 316 -16 Q235 -16 172.5 17.5 Q110 51 75 111 Q40 171 40 249 Q40 323 76 381 Q112 439 176 472 Q240 505 321 505 Z M319 382 Q282 382 250.5 363.5 Q219 345 200 313.5 Q181 282 181 246 Q181 208 199.5 176 Q218 144 250 125.5 Q282 107 320 107 Q357 107 388.5 125.5 Q420 144 439 175.5 Q458 207 458 244 Q458 282 439 313.5 Q420 345 388 363.5 Q356 382 319 382 Z " />
<glyph glyph-name="ograve" unicode="&#xf2;" horiz-adv-x="638" d="M399 620 L333 575 L164 728 L264 791 L399 620 Z M321 505 Q402 505 465.5 472 Q529 439 564 380 Q599 321 599 245 Q599 168 563.5 109 Q528 50 463.5 17 Q399 -16 316 -16 Q235 -16 172.5 17.5 Q110 51 75 111 Q40 171 40 249 Q40 323 76 381 Q112 439 176 472 Q240 505 321 505 Z M319 382 Q282 382 250.5 363.5 Q219 345 200 313.5 Q181 282 181 246 Q181 208 199.5 176 Q218 144 250 125.5 Q282 107 320 107 Q357 107 388.5 125.5 Q420 144 439 175.5 Q458 207 458 244 Q458 282 439 313.5 Q420 345 388 363.5 Q356 382 319 382 Z " />
<glyph glyph-name="ohorn" unicode="&#x1a1;" horiz-adv-x="638" d="M681 549 L570 368 Q599 316 599 245 Q599 169 563.5 110 Q528 51 464.5 17.5 Q401 -16 320 -16 Q238 -16 174.5 17 Q111 50 75.5 109 Q40 168 40 244 Q40 320 75.5 379.5 Q111 439 174.5 472 Q238 505 319 505 Q378 505 430.5 486.5 Q483 468 518 436 L567 559 L681 549 Z M319 382 Q282 382 250.5 363.5 Q219 345 200 313.5 Q181 282 181 246 Q181 208 199.5 176 Q218 144 250 125.5 Q282 107 320 107 Q357 107 388.5 125.5 Q420 144 439 175.5 Q458 207 458 244 Q458 282 439 313.5 Q420 345 388 363.5 Q356 382 319 382 Z " />
<glyph glyph-name="ohungarumlaut" unicode="&#x151;" horiz-adv-x="638" d="M167 620 L281 791 L374 728 L223 575 L167 620 Z M379 620 L492 791 L584 728 L434 575 L379 620 Z M321 505 Q402 505 465.5 472 Q529 439 564 380 Q599 321 599 245 Q599 168 563.5 109 Q528 50 463.5 17 Q399 -16 316 -16 Q235 -16 172.5 17.5 Q110 51 75 111 Q40 171 40 249 Q40 323 76 381 Q112 439 176 472 Q240 505 321 505 Z M319 382 Q282 382 250.5 363.5 Q219 345 200 313.5 Q181 282 181 246 Q181 208 199.5 176 Q218 144 250 125.5 Q282 107 320 107 Q357 107 388.5 125.5 Q420 144 439 175.5 Q458 207 458 244 Q458 282 439 313.5 Q420 345 388 363.5 Q356 382 319 382 Z " />
<glyph glyph-name="omacron" unicode="&#x14d;" horiz-adv-x="638" d="M501 623 L139 623 L139 713 L501 713 L501 623 Z M321 505 Q402 505 465.5 472 Q529 439 564 380 Q599 321 599 245 Q599 168 563.5 109 Q528 50 463.5 17 Q399 -16 316 -16 Q235 -16 172.5 17.5 Q110 51 75 111 Q40 171 40 249 Q40 323 76 381 Q112 439 176 472 Q240 505 321 505 Z M319 382 Q282 382 250.5 363.5 Q219 345 200 313.5 Q181 282 181 246 Q181 208 199.5 176 Q218 144 250 125.5 Q282 107 320 107 Q357 107 388.5 125.5 Q420 144 439 175.5 Q458 207 458 244 Q458 282 439 313.5 Q420 345 388 363.5 Q356 382 319 382 Z " />
<glyph glyph-name="oslash" unicode="&#xf8;" horiz-adv-x="640" d="M527 428 Q599 352 599 244 Q599 169 563.5 110 Q528 51 464.5 17.5 Q401 -16 321 -16 Q245 -16 179 15 L112 -63 L53 -11 L112 60 Q40 133 40 245 Q40 321 75.5 380 Q111 439 174.5 472 Q238 505 319 505 Q394 505 460 475 L524 553 L588 501 L527 428 Z M373 371 Q347 382 319 382 Q282 382 250 363.5 Q218 345 199.5 313 Q181 281 181 244 Q181 224 186 207.5 Q191 191 203 169 L373 371 Z M266 119 Q295 107 319 107 Q356 107 388 125.5 Q420 144 439 175.5 Q458 207 458 244 Q458 265 452.5 282 Q447 299 435 320 L266 119 Z " />
<glyph glyph-name="oslashacute" unicode="&#x1ff;" horiz-adv-x="640" d="M244 620 L379 791 L479 728 L310 575 L244 620 Z M527 428 Q599 352 599 244 Q599 169 563.5 110 Q528 51 464.5 17.5 Q401 -16 321 -16 Q245 -16 179 15 L112 -63 L53 -11 L112 60 Q40 133 40 245 Q40 321 75.5 380 Q111 439 174.5 472 Q238 505 319 505 Q394 505 460 475 L524 553 L588 501 L527 428 Z M373 371 Q347 382 319 382 Q282 382 250 363.5 Q218 345 199.5 313 Q181 281 181 244 Q181 224 186 207.5 Q191 191 203 169 L373 371 Z M266 119 Q295 107 319 107 Q356 107 388 125.5 Q420 144 439 175.5 Q458 207 458 244 Q458 265 452.5 282 Q447 299 435 320 L266 119 Z " />
<glyph glyph-name="otilde" unicode="&#xf5;" horiz-adv-x="638" d="M122 591 Q131 656 163.5 694 Q196 732 243 732 Q276 732 333 710 Q371 695 382 692 Q393 689 405 689 Q421 689 431 697.5 Q441 706 454 731 L532 731 Q519 664 484 626.5 Q449 589 399 589 Q382 589 366.5 593 Q351 597 320 610 Q288 622 272.5 626.5 Q257 631 245 631 Q229 631 218.5 621.5 Q208 612 199 591 L122 591 Z M321 505 Q402 505 465.5 472 Q529 439 564 380 Q599 321 599 245 Q599 168 563.5 109 Q528 50 463.5 17 Q399 -16 316 -16 Q235 -16 172.5 17.5 Q110 51 75 111 Q40 171 40 249 Q40 323 76 381 Q112 439 176 472 Q240 505 321 505 Z M319 382 Q282 382 250.5 363.5 Q219 345 200 313.5 Q181 282 181 246 Q181 208 199.5 176 Q218 144 250 125.5 Q282 107 320 107 Q357 107 388.5 125.5 Q420 144 439 175.5 Q458 207 458 244 Q458 282 439 313.5 Q420 345 388 363.5 Q356 382 319 382 Z " />
<glyph glyph-name="oe" unicode="&#x153;" horiz-adv-x="999" d="M588 223 Q592 161 625 125.5 Q658 90 712 90 Q787 90 826 158 L953 137 Q923 62 861 23 Q799 -16 710 -16 Q585 -16 516 79 Q469 26 423 5 Q377 -16 310 -16 Q233 -16 171.5 17.5 Q110 51 75 110 Q40 169 40 243 Q40 318 75 377.5 Q110 437 172.5 471 Q235 505 312 505 Q437 505 516 416 Q551 462 597 483.5 Q643 505 707 505 Q797 505 860 462 Q923 419 945 342 Q953 313 956 288 Q959 263 959 223 L588 223 Z M827 310 Q814 359 785.5 383 Q757 407 711 407 Q619 407 592 310 L827 310 Z M314 381 Q278 381 247.5 363 Q217 345 199.5 314.5 Q182 284 182 247 Q182 208 199.5 176 Q217 144 247.5 125.5 Q278 107 314 107 Q371 107 409 147 Q447 187 447 246 Q447 303 409 342 Q371 381 314 381 Z " />
<glyph glyph-name="p" unicode="p" horiz-adv-x="643" d="M66 489 L202 489 L202 426 Q235 467 273.5 486 Q312 505 363 505 Q431 505 486 471 Q541 437 572 377.5 Q603 318 603 244 Q603 172 571.5 112.5 Q540 53 485.5 18.5 Q431 -16 365 -16 Q316 -16 277.5 2.5 Q239 21 202 63 L202 -261 L66 -261 L66 489 Z M324 382 Q287 382 256 363.5 Q225 345 206.5 313.5 Q188 282 188 245 Q188 207 206.5 175.5 Q225 144 256.5 125.5 Q288 107 325 107 Q362 107 393.5 125.5 Q425 144 443.5 175.5 Q462 207 462 243 Q462 281 443.5 313 Q425 345 393.5 363.5 Q362 382 324 382 Z " />
<glyph glyph-name="thorn" unicode="&#xfe;" horiz-adv-x="641" d="M66 824 L207 824 L207 438 Q241 475 277 490.5 Q313 506 360 506 Q429 506 484 472 Q539 438 570 378.5 Q601 319 601 245 Q601 172 569.5 112.5 Q538 53 483 19 Q428 -15 360 -15 Q314 -15 278.5 0.5 Q243 16 207 51 L207 -258 L66 -258 L66 824 Z M325 380 Q270 380 235.5 341.5 Q201 303 201 243 Q201 184 235.5 146 Q270 108 323 108 Q378 108 414 146 Q450 184 450 243 Q450 304 415 342 Q380 380 325 380 Z " />
<glyph glyph-name="q" unicode="q" horiz-adv-x="643" d="M441 63 Q405 22 366.5 3 Q328 -16 278 -16 Q212 -16 157.5 18.5 Q103 53 71.5 112.5 Q40 172 40 244 Q40 318 71 377.5 Q102 437 157 471 Q212 505 280 505 Q331 505 369.5 486 Q408 467 441 426 L441 489 L577 489 L577 -261 L441 -261 L441 63 Z M319 382 Q281 382 249.5 363.5 Q218 345 199.5 313.5 Q181 282 181 245 Q181 207 199.5 175.5 Q218 144 250 125.5 Q282 107 319 107 Q355 107 386.5 125.5 Q418 144 436.5 175.5 Q455 207 455 243 Q455 281 437 313 Q419 345 387.5 363.5 Q356 382 319 382 Z " />
<glyph glyph-name="r" unicode="r" horiz-adv-x="407" d="M202 415 Q228 461 263 483 Q298 505 345 505 Q362 505 374.5 502.5 Q387 500 405 493 L385 365 Q367 375 354 378.5 Q341 382 320 382 Q263 382 233 347 Q216 328 209 302.5 Q202 277 202 235 L202 0 L66 0 L66 489 L202 489 L202 415 Z " />
<glyph glyph-name="racute" unicode="&#x155;" horiz-adv-x="407" d="M147 620 L281 791 L381 728 L211 575 L147 620 Z M202 415 Q228 461 263 483 Q298 505 345 505 Q362 505 374.5 502.5 Q387 500 405 493 L385 365 Q367 375 354 378.5 Q341 382 320 382 Q263 382 233 347 Q216 328 209 302.5 Q202 277 202 235 L202 0 L66 0 L66 489 L202 489 L202 415 Z " />
<glyph glyph-name="rcaron" unicode="&#x159;" horiz-adv-x="407" d="M220 696 L345 799 L415 732 L220 575 L29 732 L97 799 L220 696 Z M202 415 Q228 461 263 483 Q298 505 345 505 Q362 505 374.5 502.5 Q387 500 405 493 L385 365 Q367 375 354 378.5 Q341 382 320 382 Q263 382 233 347 Q216 328 209 302.5 Q202 277 202 235 L202 0 L66 0 L66 489 L202 489 L202 415 Z " />
<glyph glyph-name="uni0157" unicode="&#x157;" horiz-adv-x="407" d="M202 415 Q228 461 263 483 Q298 505 345 505 Q362 505 374.5 502.5 Q387 500 405 493 L385 365 Q367 375 354 378.5 Q341 382 320 382 Q263 382 233 347 Q216 328 209 302.5 Q202 277 202 235 L202 0 L66 0 L66 489 L202 489 L202 415 Z M102 -261 L29 -253 L111 -60 L225 -70 L102 -261 Z " />
<glyph glyph-name="s" unicode="s" horiz-adv-x="458" d="M333 375 Q291 408 252 408 Q229 408 214 396 Q199 384 199 366 Q199 349 214.5 338.5 Q230 328 277 312 Q318 298 336.5 289.5 Q355 281 372 268 Q426 230 426 159 Q426 108 400 68 Q374 28 327 6 Q280 -16 220 -16 Q167 -16 118.5 5.5 Q70 27 35 66 L106 149 Q136 120 164 106 Q192 92 223 92 Q249 92 267 107.5 Q285 123 285 146 Q285 167 270.5 178.5 Q256 190 209 207 Q163 224 147 231 Q131 238 115 250 Q67 282 67 351 Q67 420 116 463.5 Q165 507 242 507 Q331 507 401 455 L333 375 Z " />
<glyph glyph-name="sacute" unicode="&#x15b;" horiz-adv-x="458" d="M172 620 L306 791 L406 728 L237 575 L172 620 Z M333 375 Q291 408 252 408 Q229 408 214 396 Q199 384 199 366 Q199 349 214.5 338.5 Q230 328 277 312 Q318 298 336.5 289.5 Q355 281 372 268 Q426 230 426 159 Q426 108 400 68 Q374 28 327 6 Q280 -16 220 -16 Q167 -16 118.5 5.5 Q70 27 35 66 L106 149 Q136 120 164 106 Q192 92 223 92 Q249 92 267 107.5 Q285 123 285 146 Q285 167 270.5 178.5 Q256 190 209 207 Q163 224 147 231 Q131 238 115 250 Q67 282 67 351 Q67 420 116 463.5 Q165 507 242 507 Q331 507 401 455 L333 375 Z " />
<glyph glyph-name="scaron" unicode="&#x161;" horiz-adv-x="458" d="M243 696 L366 799 L436 732 L242 575 L51 732 L120 799 L243 696 Z M333 375 Q291 408 252 408 Q229 408 214 396 Q199 384 199 366 Q199 349 214.5 338.5 Q230 328 277 312 Q318 298 336.5 289.5 Q355 281 372 268 Q426 230 426 159 Q426 108 400 68 Q374 28 327 6 Q280 -16 220 -16 Q167 -16 118.5 5.5 Q70 27 35 66 L106 149 Q136 120 164 106 Q192 92 223 92 Q249 92 267 107.5 Q285 123 285 146 Q285 167 270.5 178.5 Q256 190 209 207 Q163 224 147 231 Q131 238 115 250 Q67 282 67 351 Q67 420 116 463.5 Q165 507 242 507 Q331 507 401 455 L333 375 Z " />
<glyph glyph-name="scedilla" unicode="&#x15f;" horiz-adv-x="458" d="M333 375 Q291 408 252 408 Q229 408 214 396 Q199 384 199 366 Q199 349 214.5 338.5 Q230 328 277 312 Q318 298 336.5 289.5 Q355 281 372 268 Q426 230 426 159 Q426 108 400 68 Q374 28 327 6 Q280 -16 220 -16 Q167 -16 118.5 5.5 Q70 27 35 66 L106 149 Q136 120 164 106 Q192 92 223 92 Q249 92 267 107.5 Q285 123 285 146 Q285 167 270.5 178.5 Q256 190 209 207 Q163 224 147 231 Q131 238 115 250 Q67 282 67 351 Q67 420 116 463.5 Q165 507 242 507 Q331 507 401 455 L333 375 Z M92 -201 L202 -51 L290 -99 L160 -241 L92 -201 Z " />
<glyph glyph-name="scircumflex" unicode="&#x15d;" horiz-adv-x="458" d="M436 643 L366 575 L243 679 L120 575 L51 643 L242 799 L436 643 Z M333 375 Q291 408 252 408 Q229 408 214 396 Q199 384 199 366 Q199 349 214.5 338.5 Q230 328 277 312 Q318 298 336.5 289.5 Q355 281 372 268 Q426 230 426 159 Q426 108 400 68 Q374 28 327 6 Q280 -16 220 -16 Q167 -16 118.5 5.5 Q70 27 35 66 L106 149 Q136 120 164 106 Q192 92 223 92 Q249 92 267 107.5 Q285 123 285 146 Q285 167 270.5 178.5 Q256 190 209 207 Q163 224 147 231 Q131 238 115 250 Q67 282 67 351 Q67 420 116 463.5 Q165 507 242 507 Q331 507 401 455 L333 375 Z " />
<glyph glyph-name="uni0219" unicode="&#x219;" horiz-adv-x="458" d="M333 375 Q291 408 252 408 Q229 408 214 396 Q199 384 199 366 Q199 349 214.5 338.5 Q230 328 277 312 Q318 298 336.5 289.5 Q355 281 372 268 Q426 230 426 159 Q426 108 400 68 Q374 28 327 6 Q280 -16 220 -16 Q167 -16 118.5 5.5 Q70 27 35 66 L106 149 Q136 120 164 106 Q192 92 223 92 Q249 92 267 107.5 Q285 123 285 146 Q285 167 270.5 178.5 Q256 190 209 207 Q163 224 147 231 Q131 238 115 250 Q67 282 67 351 Q67 420 116 463.5 Q165 507 242 507 Q331 507 401 455 L333 375 Z M171 -261 L98 -253 L180 -60 L295 -70 L171 -261 Z " />
<glyph glyph-name="germandbls" unicode="&#xdf;" horiz-adv-x="640" d="M66 616 Q66 729 120 790 Q150 823 199 841.5 Q248 860 305 860 Q374 860 427.5 832.5 Q481 805 510.5 755 Q540 705 540 640 Q540 589 518.5 551 Q497 513 449 479 Q482 465 500 454 Q518 443 534 426 Q566 395 583.5 349.5 Q601 304 601 252 Q601 157 548.5 87 Q496 17 409 -5 Q380 -12 357 -14 Q334 -16 290 -16 L290 107 Q326 108 349 114.5 Q372 121 395 137 Q426 158 443 190.5 Q460 223 460 260 Q460 300 441 334 Q422 368 389 386 Q367 398 346 403.5 Q325 409 290 410 L290 529 Q317 530 333.5 534.5 Q350 539 366 549 Q386 563 397 586.5 Q408 610 408 636 Q408 680 379 708.5 Q350 737 305 737 Q272 737 247 721 Q222 705 214 678 Q207 658 204.5 633 Q202 608 202 557 L202 0 L66 0 L66 616 Z " />
<glyph glyph-name="longs" unicode="&#x17f;" horiz-adv-x="331" d="M70 371 L17 371 L17 489 L70 489 L70 646 Q70 701 80 734 Q90 767 115 796 Q144 826 182 843 Q220 860 260 860 Q281 860 296 856.5 Q311 853 332 843 L332 719 Q309 729 296 733 Q283 737 270 737 Q252 737 237.5 727.5 Q223 718 217 702 Q211 690 209 673 Q207 656 207 626 L207 0 L70 0 L70 371 Z " />
<glyph glyph-name="t" unicode="t" horiz-adv-x="355" d="M330 3 Q299 -12 240 -12 Q205 -12 175 -4 Q145 4 127 20 Q86 57 86 141 L86 371 L29 371 L29 489 L86 489 L86 657 L222 657 L222 489 L337 489 L337 371 L222 371 L222 163 Q222 128 235 115 Q248 102 277 102 Q309 102 330 122 L330 3 Z " />
<glyph glyph-name="tbar" unicode="&#x167;" horiz-adv-x="355" d="M222 371 L222 298 L328 298 L328 205 L222 205 L222 163 Q222 128 235 115 Q248 102 277 102 Q309 102 330 122 L330 3 Q299 -12 240 -12 Q205 -12 175 -4 Q145 4 127 20 Q86 57 86 141 L86 205 L31 205 L31 298 L86 298 L86 371 L29 371 L29 489 L86 489 L86 657 L222 657 L222 489 L337 489 L337 371 L222 371 Z " />
<glyph glyph-name="tcaron" unicode="&#x165;" horiz-adv-x="463" d="M334 537 L262 545 L343 746 L457 736 L334 537 Z M330 3 Q299 -12 240 -12 Q205 -12 175 -4 Q145 4 127 20 Q86 57 86 141 L86 371 L29 371 L29 489 L86 489 L86 657 L222 657 L222 489 L337 489 L337 371 L222 371 L222 163 Q222 128 235 115 Q248 102 277 102 Q309 102 330 122 L330 3 Z " />
<glyph glyph-name="uni0163" unicode="&#x163;" horiz-adv-x="355" d="M330 3 Q299 -12 240 -12 Q205 -12 175 -4 Q145 4 127 20 Q86 57 86 141 L86 371 L29 371 L29 489 L86 489 L86 657 L222 657 L222 489 L337 489 L337 371 L222 371 L222 163 Q222 128 235 115 Q248 102 277 102 Q309 102 330 122 L330 3 Z M136 -261 L63 -253 L145 -60 L259 -70 L136 -261 Z " />
<glyph glyph-name="u" unicode="u" horiz-adv-x="605" d="M402 62 Q370 20 333 2 Q296 -16 245 -16 Q153 -16 108 35 Q87 60 76.5 94.5 Q66 129 66 179 L66 489 L202 489 L202 218 Q202 188 205.5 170.5 Q209 153 217 140 Q227 122 249.5 111.5 Q272 101 299 101 Q354 101 378 135.5 Q402 170 402 249 L402 489 L539 489 L539 0 L402 0 L402 62 Z " />
<glyph glyph-name="uacute" unicode="&#xfa;" horiz-adv-x="605" d="M402 62 Q370 20 333 2 Q296 -16 245 -16 Q153 -16 108 35 Q87 60 76.5 94.5 Q66 129 66 179 L66 489 L202 489 L202 218 Q202 188 205.5 170.5 Q209 153 217 140 Q227 122 249.5 111.5 Q272 101 299 101 Q354 101 378 135.5 Q402 170 402 249 L402 489 L539 489 L539 0 L402 0 L402 62 Z M234 620 L368 791 L469 728 L300 575 L234 620 Z " />
<glyph glyph-name="ubreve" unicode="&#x16d;" horiz-adv-x="605" d="M402 62 Q370 20 333 2 Q296 -16 245 -16 Q153 -16 108 35 Q87 60 76.5 94.5 Q66 129 66 179 L66 489 L202 489 L202 218 Q202 188 205.5 170.5 Q209 153 217 140 Q227 122 249.5 111.5 Q272 101 299 101 Q354 101 378 135.5 Q402 170 402 249 L402 489 L539 489 L539 0 L402 0 L402 62 Z M211 734 Q224 696 245 679.5 Q266 663 302 663 Q337 663 358 679.5 Q379 696 393 734 L488 734 Q479 661 429 618 Q379 575 302 575 Q226 575 176 617.5 Q126 660 116 734 L211 734 Z " />
<glyph glyph-name="ucircumflex" unicode="&#xfb;" horiz-adv-x="605" d="M402 62 Q370 20 333 2 Q296 -16 245 -16 Q153 -16 108 35 Q87 60 76.5 94.5 Q66 129 66 179 L66 489 L202 489 L202 218 Q202 188 205.5 170.5 Q209 153 217 140 Q227 122 249.5 111.5 Q272 101 299 101 Q354 101 378 135.5 Q402 170 402 249 L402 489 L539 489 L539 0 L402 0 L402 62 Z M494 643 L424 575 L299 679 L176 575 L108 643 L299 799 L494 643 Z " />
<glyph glyph-name="udieresis" unicode="&#xfc;" horiz-adv-x="605" d="M402 62 Q370 20 333 2 Q296 -16 245 -16 Q153 -16 108 35 Q87 60 76.5 94.5 Q66 129 66 179 L66 489 L202 489 L202 218 Q202 188 205.5 170.5 Q209 153 217 140 Q227 122 249.5 111.5 Q272 101 299 101 Q354 101 378 135.5 Q402 170 402 249 L402 489 L539 489 L539 0 L402 0 L402 62 Z M186 744 Q219 744 242.5 720 Q266 696 266 662 Q266 628 242.5 604.5 Q219 581 186 581 Q152 581 128.5 605 Q105 629 105 663 Q105 696 129 720 Q153 744 186 744 Z M420 744 Q454 744 477.5 720 Q501 696 501 662 Q501 628 477.5 604.5 Q454 581 420 581 Q386 581 362.5 605 Q339 629 339 663 Q339 696 363 720 Q387 744 420 744 Z " />
<glyph glyph-name="ugrave" unicode="&#xf9;" horiz-adv-x="605" d="M402 62 Q370 20 333 2 Q296 -16 245 -16 Q153 -16 108 35 Q87 60 76.5 94.5 Q66 129 66 179 L66 489 L202 489 L202 218 Q202 188 205.5 170.5 Q209 153 217 140 Q227 122 249.5 111.5 Q272 101 299 101 Q354 101 378 135.5 Q402 170 402 249 L402 489 L539 489 L539 0 L402 0 L402 62 Z M381 620 L316 575 L146 728 L246 791 L381 620 Z " />
<glyph glyph-name="uhorn" unicode="&#x1b0;" horiz-adv-x="605" d="M619 324 L548 331 L628 533 L744 523 L619 324 Z M402 62 Q370 20 333 2 Q296 -16 245 -16 Q153 -16 108 35 Q87 60 76.5 94.5 Q66 129 66 179 L66 489 L202 489 L202 218 Q202 188 205.5 170.5 Q209 153 217 140 Q227 122 249.5 111.5 Q272 101 299 101 Q354 101 378 135.5 Q402 170 402 249 L402 489 L539 489 L539 0 L402 0 L402 62 Z " />
<glyph glyph-name="uhungarumlaut" unicode="&#x171;" horiz-adv-x="605" d="M402 62 Q370 20 333 2 Q296 -16 245 -16 Q153 -16 108 35 Q87 60 76.5 94.5 Q66 129 66 179 L66 489 L202 489 L202 218 Q202 188 205.5 170.5 Q209 153 217 140 Q227 122 249.5 111.5 Q272 101 299 101 Q354 101 378 135.5 Q402 170 402 249 L402 489 L539 489 L539 0 L402 0 L402 62 Z M145 620 L259 791 L351 728 L200 575 L145 620 Z M356 620 L469 791 L562 728 L411 575 L356 620 Z " />
<glyph glyph-name="umacron" unicode="&#x16b;" horiz-adv-x="605" d="M402 62 Q370 20 333 2 Q296 -16 245 -16 Q153 -16 108 35 Q87 60 76.5 94.5 Q66 129 66 179 L66 489 L202 489 L202 218 Q202 188 205.5 170.5 Q209 153 217 140 Q227 122 249.5 111.5 Q272 101 299 101 Q354 101 378 135.5 Q402 170 402 249 L402 489 L539 489 L539 0 L402 0 L402 62 Z M482 623 L121 623 L121 713 L482 713 L482 623 Z " />
<glyph glyph-name="uni01C6" unicode="&#x1c6;" horiz-adv-x="1190" d="M577 0 L441 0 L441 63 Q408 22 369.5 3 Q331 -16 280 -16 Q212 -16 157 18 Q102 52 71 111.5 Q40 171 40 245 Q40 317 71.5 376.5 Q103 436 157.5 470.5 Q212 505 278 505 Q328 505 366.5 486 Q405 467 441 426 L441 846 L577 846 L577 0 Z M935 696 L1058 799 L1129 732 L935 575 L742 732 L811 799 L935 696 Z M1158 0 L658 0 L936 373 L701 373 L701 492 L1176 492 L899 119 L1158 119 L1158 0 Z M319 382 Q281 382 249.5 363.5 Q218 345 199.5 313.5 Q181 282 181 245 Q181 207 199.5 175.5 Q218 144 250 125.5 Q282 107 319 107 Q355 107 386.5 125.5 Q418 144 436.5 175.5 Q455 207 455 243 Q455 281 437 313 Q419 345 387.5 363.5 Q356 382 319 382 Z " />
<glyph glyph-name="uni01C9" unicode="&#x1c9;" horiz-adv-x="538" d="M66 0 L66 846 L202 846 L202 0 L66 0 Z M407 779 Q441 779 465 754.5 Q489 730 489 696 Q489 662 465 638 Q441 614 407 614 Q373 614 349 638 Q325 662 325 697 Q325 730 349 754.5 Q373 779 407 779 Z M298 -264 Q274 -264 258 -262.5 Q242 -261 229 -255 L229 -133 Q250 -145 277 -145 Q305 -145 321.5 -128.5 Q338 -112 338 -67 L338 489 L475 489 L475 -44 Q475 -117 460.5 -156 Q446 -195 417 -220 Q365 -264 298 -264 Z " />
<glyph glyph-name="uni01CC" unicode="&#x1cc;" horiz-adv-x="868" d="M202 428 Q234 470 269.5 487.5 Q305 505 356 505 Q400 505 437 489.5 Q474 474 498 446 Q520 422 528.5 391.5 Q537 361 537 311 L537 0 L400 0 L400 271 Q400 303 397 320.5 Q394 338 386 350 Q376 368 354.5 378.5 Q333 389 306 389 Q253 389 227.5 355.5 Q202 322 202 253 L202 0 L66 0 L66 489 L202 489 L202 428 Z M737 779 Q771 779 795 754.5 Q819 730 819 696 Q819 662 795 638 Q771 614 737 614 Q703 614 679 638 Q655 662 655 697 Q655 730 679 754.5 Q703 779 737 779 Z M628 -264 Q604 -264 588 -262.5 Q572 -261 559 -255 L559 -133 Q580 -145 607 -145 Q635 -145 651.5 -128.5 Q668 -112 668 -67 L668 489 L805 489 L805 -44 Q805 -117 790.5 -156 Q776 -195 747 -220 Q695 -264 628 -264 Z " />
<glyph glyph-name="uni01CE" unicode="&#x1ce;" horiz-adv-x="643" d="M328 696 L452 799 L522 732 L328 575 L137 732 L205 799 L328 696 Z M577 0 L441 0 L441 63 Q408 22 369.5 3 Q331 -16 280 -16 Q212 -16 157 18 Q102 52 71 111.5 Q40 171 40 245 Q40 317 71.5 376.5 Q103 436 157.5 470.5 Q212 505 278 505 Q328 505 366.5 486 Q405 467 441 426 L441 489 L577 489 L577 0 Z M319 382 Q281 382 249.5 363.5 Q218 345 199.5 313.5 Q181 282 181 245 Q181 207 199.5 175.5 Q218 144 250 125.5 Q282 107 319 107 Q355 107 386.5 125.5 Q418 144 436.5 175.5 Q455 207 455 243 Q455 281 437 313 Q419 345 387.5 363.5 Q356 382 319 382 Z " />
<glyph glyph-name="uni01D0" unicode="&#x1d0;" horiz-adv-x="264" d="M131 696 L255 799 L325 732 L131 575 L-60 732 L8 799 L131 696 Z M64 0 L64 489 L201 489 L201 0 L64 0 Z " />
<glyph glyph-name="uni01D2" unicode="&#x1d2;" horiz-adv-x="638" d="M318 696 L442 799 L512 732 L318 575 L127 732 L194 799 L318 696 Z M321 505 Q402 505 465.5 472 Q529 439 564 380 Q599 321 599 245 Q599 168 563.5 109 Q528 50 463.5 17 Q399 -16 316 -16 Q235 -16 172.5 17.5 Q110 51 75 111 Q40 171 40 249 Q40 323 76 381 Q112 439 176 472 Q240 505 321 505 Z M319 382 Q282 382 250.5 363.5 Q219 345 200 313.5 Q181 282 181 246 Q181 208 199.5 176 Q218 144 250 125.5 Q282 107 320 107 Q357 107 388.5 125.5 Q420 144 439 175.5 Q458 207 458 244 Q458 282 439 313.5 Q420 345 388 363.5 Q356 382 319 382 Z " />
<glyph glyph-name="uni01D4" unicode="&#x1d4;" horiz-adv-x="605" d="M402 62 Q370 20 333 2 Q296 -16 245 -16 Q153 -16 108 35 Q87 60 76.5 94.5 Q66 129 66 179 L66 489 L202 489 L202 218 Q202 188 205.5 170.5 Q209 153 217 140 Q227 122 249.5 111.5 Q272 101 299 101 Q354 101 378 135.5 Q402 170 402 249 L402 489 L539 489 L539 0 L402 0 L402 62 Z M300 696 L425 799 L495 732 L300 575 L109 732 L177 799 L300 696 Z " />
<glyph glyph-name="uni01DD" unicode="&#x1dd;" horiz-adv-x="608" d="M424 268 Q423 294 419.5 310.5 Q416 327 408 344 Q394 372 365 389.5 Q336 407 303 407 Q264 407 236 389.5 Q208 372 188 334 L51 345 Q80 418 146.5 460 Q213 502 301 502 Q379 502 440.5 469.5 Q502 437 536 379 Q570 321 570 247 Q570 172 536 112.5 Q502 53 441.5 19.5 Q381 -14 304 -14 Q216 -14 151 30 Q86 74 56 154 Q45 184 41.5 206 Q38 228 38 268 L424 268 Z M182 191 Q190 140 223 110 Q256 80 303 80 Q350 80 383 110.5 Q416 141 421 191 L182 191 Z " />
<glyph glyph-name="uni01F5" unicode="&#x1f5;" horiz-adv-x="641" d="M190 620 L324 791 L425 728 L255 575 L190 620 Z M575 18 Q575 -58 563.5 -99 Q552 -140 520 -176 Q484 -218 431.5 -240 Q379 -262 314 -262 Q165 -262 89 -155 Q71 -129 63 -108 Q55 -87 52 -58 L201 -58 Q212 -101 241 -123.5 Q270 -146 316 -146 Q342 -146 366.5 -136.5 Q391 -127 408 -110 Q438 -77 438 -8 L438 66 Q401 22 362.5 3 Q324 -16 272 -16 Q206 -16 153 16.5 Q100 49 70 107 Q40 165 40 238 Q40 314 71 375 Q102 436 156.5 470.5 Q211 505 279 505 Q330 505 367 487 Q404 469 438 426 L438 489 L575 489 L575 18 Z M319 382 Q281 382 249.5 363.5 Q218 345 199.5 313.5 Q181 282 181 245 Q181 207 199.5 175.5 Q218 144 250 125.5 Q282 107 319 107 Q355 107 386.5 125.5 Q418 144 436.5 175.5 Q455 207 455 243 Q455 281 436.5 313 Q418 345 387 363.5 Q356 382 319 382 Z " />
<glyph glyph-name="uni0201" unicode="&#x201;" horiz-adv-x="643" d="M306 620 L251 575 L99 728 L192 791 L306 620 Z M518 620 L462 575 L311 728 L403 791 L518 620 Z M577 0 L441 0 L441 63 Q408 22 369.5 3 Q331 -16 280 -16 Q212 -16 157 18 Q102 52 71 111.5 Q40 171 40 245 Q40 317 71.5 376.5 Q103 436 157.5 470.5 Q212 505 278 505 Q328 505 366.5 486 Q405 467 441 426 L441 489 L577 489 L577 0 Z M319 382 Q281 382 249.5 363.5 Q218 345 199.5 313.5 Q181 282 181 245 Q181 207 199.5 175.5 Q218 144 250 125.5 Q282 107 319 107 Q355 107 386.5 125.5 Q418 144 436.5 175.5 Q455 207 455 243 Q455 281 437 313 Q419 345 387.5 363.5 Q356 382 319 382 Z " />
<glyph glyph-name="uni021B" unicode="&#x21b;" horiz-adv-x="355" d="M330 3 Q299 -12 240 -12 Q205 -12 175 -4 Q145 4 127 20 Q86 57 86 141 L86 371 L29 371 L29 489 L86 489 L86 657 L222 657 L222 489 L337 489 L337 371 L222 371 L222 163 Q222 128 235 115 Q248 102 277 102 Q309 102 330 122 L330 3 Z M136 -261 L63 -253 L145 -60 L259 -70 L136 -261 Z " />
<glyph glyph-name="uni0227" unicode="&#x227;" horiz-adv-x="643" d="M319 751 Q354 751 378.5 726.5 Q403 702 403 667 Q403 631 378.5 606 Q354 581 319 581 Q283 581 258 606 Q233 631 233 668 Q233 702 258 726.5 Q283 751 319 751 Z M577 0 L441 0 L441 63 Q408 22 369.5 3 Q331 -16 280 -16 Q212 -16 157 18 Q102 52 71 111.5 Q40 171 40 245 Q40 317 71.5 376.5 Q103 436 157.5 470.5 Q212 505 278 505 Q328 505 366.5 486 Q405 467 441 426 L441 489 L577 489 L577 0 Z M319 382 Q281 382 249.5 363.5 Q218 345 199.5 313.5 Q181 282 181 245 Q181 207 199.5 175.5 Q218 144 250 125.5 Q282 107 319 107 Q355 107 386.5 125.5 Q418 144 436.5 175.5 Q455 207 455 243 Q455 281 437 313 Q419 345 387.5 363.5 Q356 382 319 382 Z " />
<glyph glyph-name="uni1EA1" unicode="&#x1ea1;" horiz-adv-x="643" d="M577 0 L441 0 L441 63 Q408 22 369.5 3 Q331 -16 280 -16 Q212 -16 157 18 Q102 52 71 111.5 Q40 171 40 245 Q40 317 71.5 376.5 Q103 436 157.5 470.5 Q212 505 278 505 Q328 505 366.5 486 Q405 467 441 426 L441 489 L577 489 L577 0 Z M319 382 Q281 382 249.5 363.5 Q218 345 199.5 313.5 Q181 282 181 245 Q181 207 199.5 175.5 Q218 144 250 125.5 Q282 107 319 107 Q355 107 386.5 125.5 Q418 144 436.5 175.5 Q455 207 455 243 Q455 281 437 313 Q419 345 387.5 363.5 Q356 382 319 382 Z M312 -45 Q349 -45 375 -71 Q401 -97 401 -133 Q401 -170 375 -196.5 Q349 -223 313 -223 Q275 -223 249 -197 Q223 -171 223 -133 Q223 -97 249.5 -71 Q276 -45 312 -45 Z " />
<glyph glyph-name="uni1EA3" unicode="&#x1ea3;" horiz-adv-x="643" d="M253 646 L261 649 Q288 653 295 653 Q328 658 339 665.5 Q350 673 350 689 Q350 708 336.5 718.5 Q323 729 298 729 Q283 729 278 727.5 Q273 726 257 716 L243 711 L240 709 L233 705 L212 756 L219 759 L223 760 Q276 781 321 781 Q372 781 404 754 Q436 727 436 686 Q436 649 410.5 628 Q385 607 339 607 L313 607 L313 564 L253 564 L253 646 Z M577 0 L441 0 L441 63 Q408 22 369.5 3 Q331 -16 280 -16 Q212 -16 157 18 Q102 52 71 111.5 Q40 171 40 245 Q40 317 71.5 376.5 Q103 436 157.5 470.5 Q212 505 278 505 Q328 505 366.5 486 Q405 467 441 426 L441 489 L577 489 L577 0 Z M319 382 Q281 382 249.5 363.5 Q218 345 199.5 313.5 Q181 282 181 245 Q181 207 199.5 175.5 Q218 144 250 125.5 Q282 107 319 107 Q355 107 386.5 125.5 Q418 144 436.5 175.5 Q455 207 455 243 Q455 281 437 313 Q419 345 387.5 363.5 Q356 382 319 382 Z " />
<glyph glyph-name="uni1EA5" unicode="&#x1ea5;" horiz-adv-x="643" d="M637 798 L493 667 L522 643 L452 575 L328 679 L205 575 L137 643 L328 799 L426 720 L538 861 L637 798 Z M577 0 L441 0 L441 63 Q408 22 369.5 3 Q331 -16 280 -16 Q212 -16 157 18 Q102 52 71 111.5 Q40 171 40 245 Q40 317 71.5 376.5 Q103 436 157.5 470.5 Q212 505 278 505 Q328 505 366.5 486 Q405 467 441 426 L441 489 L577 489 L577 0 Z M319 382 Q281 382 249.5 363.5 Q218 345 199.5 313.5 Q181 282 181 245 Q181 207 199.5 175.5 Q218 144 250 125.5 Q282 107 319 107 Q355 107 386.5 125.5 Q418 144 436.5 175.5 Q455 207 455 243 Q455 281 437 313 Q419 345 387.5 363.5 Q356 382 319 382 Z " />
<glyph glyph-name="uni1EA7" unicode="&#x1ea7;" horiz-adv-x="643" d="M568 706 L507 652 L319 780 L412 858 L568 706 Z M493 600 L421 532 L298 634 L175 532 L106 600 L298 756 L493 600 Z M577 0 L441 0 L441 63 Q408 22 369.5 3 Q331 -16 280 -16 Q212 -16 157 18 Q102 52 71 111.5 Q40 171 40 245 Q40 317 71.5 376.5 Q103 436 157.5 470.5 Q212 505 278 505 Q328 505 366.5 486 Q405 467 441 426 L441 489 L577 489 L577 0 Z M319 382 Q281 382 249.5 363.5 Q218 345 199.5 313.5 Q181 282 181 245 Q181 207 199.5 175.5 Q218 144 250 125.5 Q282 107 319 107 Q355 107 386.5 125.5 Q418 144 436.5 175.5 Q455 207 455 243 Q455 281 437 313 Q419 345 387.5 363.5 Q356 382 319 382 Z " />
<glyph glyph-name="uni1EA9" unicode="&#x1ea9;" horiz-adv-x="643" d="M471 749 Q499 754 505 755 Q538 759 549 766.5 Q560 774 560 791 Q560 810 546.5 820.5 Q533 831 508 831 Q493 831 488 829.5 Q483 828 467 818 L443 807 L423 858 L433 862 Q488 883 531 883 Q582 883 614 856 Q646 829 646 786 Q646 749 620.5 728 Q595 707 549 707 Q536 707 523 709 L523 666 L495 666 L522 643 L452 575 L328 679 L205 575 L137 643 L328 799 L463 690 L463 748 L471 749 Z M577 0 L441 0 L441 63 Q408 22 369.5 3 Q331 -16 280 -16 Q212 -16 157 18 Q102 52 71 111.5 Q40 171 40 245 Q40 317 71.5 376.5 Q103 436 157.5 470.5 Q212 505 278 505 Q328 505 366.5 486 Q405 467 441 426 L441 489 L577 489 L577 0 Z M319 382 Q281 382 249.5 363.5 Q218 345 199.5 313.5 Q181 282 181 245 Q181 207 199.5 175.5 Q218 144 250 125.5 Q282 107 319 107 Q355 107 386.5 125.5 Q418 144 436.5 175.5 Q455 207 455 243 Q455 281 437 313 Q419 345 387.5 363.5 Q356 382 319 382 Z " />
<glyph glyph-name="uni1EAB" unicode="&#x1eab;" horiz-adv-x="643" d="M116 814 Q127 880 159.5 918 Q192 956 238 956 Q270 956 329 933 Q360 922 374 917.5 Q388 913 400 913 Q416 913 426.5 921.5 Q437 930 449 955 L527 955 Q514 887 478.5 849 Q443 811 393 811 Q378 811 362.5 815.5 Q347 820 314 833 Q285 845 269 849.5 Q253 854 240 854 Q224 854 213.5 845 Q203 836 194 814 L116 814 Z M522 643 L452 575 L328 679 L205 575 L137 643 L328 799 L522 643 Z M577 0 L441 0 L441 63 Q408 22 369.5 3 Q331 -16 280 -16 Q212 -16 157 18 Q102 52 71 111.5 Q40 171 40 245 Q40 317 71.5 376.5 Q103 436 157.5 470.5 Q212 505 278 505 Q328 505 366.5 486 Q405 467 441 426 L441 489 L577 489 L577 0 Z M319 382 Q281 382 249.5 363.5 Q218 345 199.5 313.5 Q181 282 181 245 Q181 207 199.5 175.5 Q218 144 250 125.5 Q282 107 319 107 Q355 107 386.5 125.5 Q418 144 436.5 175.5 Q455 207 455 243 Q455 281 437 313 Q419 345 387.5 363.5 Q356 382 319 382 Z " />
<glyph glyph-name="uni1EAD" unicode="&#x1ead;" horiz-adv-x="643" d="M577 0 L441 0 L441 63 Q408 22 369.5 3 Q331 -16 280 -16 Q212 -16 157 18 Q102 52 71 111.5 Q40 171 40 245 Q40 317 71.5 376.5 Q103 436 157.5 470.5 Q212 505 278 505 Q328 505 366.5 486 Q405 467 441 426 L441 489 L577 489 L577 0 Z M319 382 Q281 382 249.5 363.5 Q218 345 199.5 313.5 Q181 282 181 245 Q181 207 199.5 175.5 Q218 144 250 125.5 Q282 107 319 107 Q355 107 386.5 125.5 Q418 144 436.5 175.5 Q455 207 455 243 Q455 281 437 313 Q419 345 387.5 363.5 Q356 382 319 382 Z M521 643 L451 575 L326 679 L203 575 L135 643 L326 799 L521 643 Z M312 -45 Q349 -45 375 -71 Q401 -97 401 -133 Q401 -170 375 -196.5 Q349 -223 313 -223 Q275 -223 249 -197 Q223 -171 223 -133 Q223 -97 249.5 -71 Q276 -45 312 -45 Z " />
<glyph glyph-name="uni1EAF" unicode="&#x1eaf;" horiz-adv-x="643" d="M262 732 L397 903 L497 840 L328 687 L262 732 Z M238 734 Q251 697 272.5 680 Q294 663 329 663 Q364 663 385.5 680 Q407 697 420 734 L515 734 Q506 660 456 617.5 Q406 575 329 575 Q252 575 202.5 618 Q153 661 144 734 L238 734 Z M577 0 L441 0 L441 63 Q408 22 369.5 3 Q331 -16 280 -16 Q212 -16 157 18 Q102 52 71 111.5 Q40 171 40 245 Q40 317 71.5 376.5 Q103 436 157.5 470.5 Q212 505 278 505 Q328 505 366.5 486 Q405 467 441 426 L441 489 L577 489 L577 0 Z M319 382 Q281 382 249.5 363.5 Q218 345 199.5 313.5 Q181 282 181 245 Q181 207 199.5 175.5 Q218 144 250 125.5 Q282 107 319 107 Q355 107 386.5 125.5 Q418 144 436.5 175.5 Q455 207 455 243 Q455 281 437 313 Q419 345 387.5 363.5 Q356 382 319 382 Z " />
<glyph glyph-name="uni1EB1" unicode="&#x1eb1;" horiz-adv-x="643" d="M385 742 L320 697 L150 850 L251 913 L385 742 Z M238 734 Q251 697 272.5 680 Q294 663 329 663 Q364 663 385.5 680 Q407 697 420 734 L515 734 Q506 660 456 617.5 Q406 575 329 575 Q252 575 202.5 618 Q153 661 144 734 L238 734 Z M577 0 L441 0 L441 63 Q408 22 369.5 3 Q331 -16 280 -16 Q212 -16 157 18 Q102 52 71 111.5 Q40 171 40 245 Q40 317 71.5 376.5 Q103 436 157.5 470.5 Q212 505 278 505 Q328 505 366.5 486 Q405 467 441 426 L441 489 L577 489 L577 0 Z M319 382 Q281 382 249.5 363.5 Q218 345 199.5 313.5 Q181 282 181 245 Q181 207 199.5 175.5 Q218 144 250 125.5 Q282 107 319 107 Q355 107 386.5 125.5 Q418 144 436.5 175.5 Q455 207 455 243 Q455 281 437 313 Q419 345 387.5 363.5 Q356 382 319 382 Z " />
<glyph glyph-name="uni1EB3" unicode="&#x1eb3;" horiz-adv-x="643" d="M294 791 L302 792 Q333 798 336 798 Q370 803 380.5 810 Q391 817 391 834 Q391 853 377.5 863 Q364 873 339 873 Q324 873 319 871.5 Q314 870 297 861 L284 855 L280 853 L273 850 L253 901 Q263 905 263 905 Q314 925 362 925 Q412 925 444.5 898.5 Q477 872 477 831 Q477 793 451 771.5 Q425 750 380 750 Q366 750 354 751 L354 707 L294 707 L294 791 Z M238 734 Q251 697 272.5 680 Q294 663 329 663 Q364 663 385.5 680 Q407 697 420 734 L515 734 Q506 660 456 617.5 Q406 575 329 575 Q252 575 202.5 618 Q153 661 144 734 L238 734 Z M577 0 L441 0 L441 63 Q408 22 369.5 3 Q331 -16 280 -16 Q212 -16 157 18 Q102 52 71 111.5 Q40 171 40 245 Q40 317 71.5 376.5 Q103 436 157.5 470.5 Q212 505 278 505 Q328 505 366.5 486 Q405 467 441 426 L441 489 L577 489 L577 0 Z M319 382 Q281 382 249.5 363.5 Q218 345 199.5 313.5 Q181 282 181 245 Q181 207 199.5 175.5 Q218 144 250 125.5 Q282 107 319 107 Q355 107 386.5 125.5 Q418 144 436.5 175.5 Q455 207 455 243 Q455 281 437 313 Q419 345 387.5 363.5 Q356 382 319 382 Z " />
<glyph glyph-name="uni1EB5" unicode="&#x1eb5;" horiz-adv-x="643" d="M118 766 Q128 832 160.5 870.5 Q193 909 240 909 Q269 909 330 886 Q339 883 359 875 Q379 867 386 865.5 Q393 864 401 864 Q417 864 426.5 872.5 Q436 881 450 907 L528 907 Q515 841 480 802.5 Q445 764 398 764 Q374 764 354.5 769.5 Q335 775 275 800 Q260 807 243 807 Q225 807 214.5 798 Q204 789 195 766 L118 766 Z M238 734 Q251 697 272.5 680 Q294 663 329 663 Q364 663 385.5 680 Q407 697 420 734 L515 734 Q506 660 456 617.5 Q406 575 329 575 Q252 575 202.5 618 Q153 661 144 734 L238 734 Z M577 0 L441 0 L441 63 Q408 22 369.5 3 Q331 -16 280 -16 Q212 -16 157 18 Q102 52 71 111.5 Q40 171 40 245 Q40 317 71.5 376.5 Q103 436 157.5 470.5 Q212 505 278 505 Q328 505 366.5 486 Q405 467 441 426 L441 489 L577 489 L577 0 Z M319 382 Q281 382 249.5 363.5 Q218 345 199.5 313.5 Q181 282 181 245 Q181 207 199.5 175.5 Q218 144 250 125.5 Q282 107 319 107 Q355 107 386.5 125.5 Q418 144 436.5 175.5 Q455 207 455 243 Q455 281 437 313 Q419 345 387.5 363.5 Q356 382 319 382 Z " />
<glyph glyph-name="uni1EB7" unicode="&#x1eb7;" horiz-adv-x="643" d="M577 0 L441 0 L441 63 Q408 22 369.5 3 Q331 -16 280 -16 Q212 -16 157 18 Q102 52 71 111.5 Q40 171 40 245 Q40 317 71.5 376.5 Q103 436 157.5 470.5 Q212 505 278 505 Q328 505 366.5 486 Q405 467 441 426 L441 489 L577 489 L577 0 Z M319 382 Q281 382 249.5 363.5 Q218 345 199.5 313.5 Q181 282 181 245 Q181 207 199.5 175.5 Q218 144 250 125.5 Q282 107 319 107 Q355 107 386.5 125.5 Q418 144 436.5 175.5 Q455 207 455 243 Q455 281 437 313 Q419 345 387.5 363.5 Q356 382 319 382 Z M312 -45 Q349 -45 375 -71 Q401 -97 401 -133 Q401 -170 375 -196.5 Q349 -223 313 -223 Q275 -223 249 -197 Q223 -171 223 -133 Q223 -97 249.5 -71 Q276 -45 312 -45 Z M236 734 Q249 696 270 679.5 Q291 663 327 663 Q362 663 383 679.5 Q404 696 418 734 L513 734 Q504 661 454 618 Q404 575 327 575 Q251 575 201 617.5 Q151 660 141 734 L236 734 Z " />
<glyph glyph-name="uni1EB9" unicode="&#x1eb9;" horiz-adv-x="585" d="M180 223 Q182 159 212.5 125.5 Q243 92 299 92 Q338 92 365 107 Q392 122 416 157 L542 137 Q511 62 450.5 23 Q390 -16 303 -16 Q224 -16 164.5 16 Q105 48 72.5 107 Q40 166 40 244 Q40 322 71.5 381.5 Q103 441 161 473 Q219 505 296 505 Q413 505 480 434.5 Q547 364 547 241 L547 223 L180 223 Z M416 310 Q405 357 375 382 Q345 407 299 407 Q254 407 224 381.5 Q194 356 184 310 L416 310 Z M292 -45 Q329 -45 355 -71 Q381 -97 381 -133 Q381 -170 355 -196.5 Q329 -223 293 -223 Q255 -223 229 -197 Q203 -171 203 -133 Q203 -97 229.5 -71 Q256 -45 292 -45 Z " />
<glyph glyph-name="uni1EBB" unicode="&#x1ebb;" horiz-adv-x="585" d="M240 644 L247 646 Q275 651 281 651 Q315 656 326 663 Q337 670 337 687 Q337 706 323.5 716.5 Q310 727 285 727 Q269 727 264 725.5 Q259 724 243 714 L229 709 L226 706 L219 703 L199 754 L206 757 L209 758 Q262 779 307 779 Q358 779 390.5 752 Q423 725 423 684 Q423 647 397 626 Q371 605 325 605 L299 605 L299 562 L240 562 L240 644 Z M180 223 Q182 159 212.5 125.5 Q243 92 299 92 Q338 92 365 107 Q392 122 416 157 L542 137 Q511 62 450.5 23 Q390 -16 303 -16 Q224 -16 164.5 16 Q105 48 72.5 107 Q40 166 40 244 Q40 322 71.5 381.5 Q103 441 161 473 Q219 505 296 505 Q413 505 480 434.5 Q547 364 547 241 L547 223 L180 223 Z M416 310 Q405 357 375 382 Q345 407 299 407 Q254 407 224 381.5 Q194 356 184 310 L416 310 Z " />
<glyph glyph-name="uni1EBD" unicode="&#x1ebd;" horiz-adv-x="585" d="M88 591 Q98 656 130.5 694 Q163 732 210 732 Q242 732 299 710 Q337 695 348 692 Q359 689 371 689 Q387 689 396.5 697 Q406 705 420 731 L498 731 Q485 664 450 626.5 Q415 589 365 589 Q348 589 332.5 593 Q317 597 286 610 Q254 622 238.5 626.5 Q223 631 211 631 Q195 631 184.5 621.5 Q174 612 165 591 L88 591 Z M180 223 Q182 159 212.5 125.5 Q243 92 299 92 Q338 92 365 107 Q392 122 416 157 L542 137 Q511 62 450.5 23 Q390 -16 303 -16 Q224 -16 164.5 16 Q105 48 72.5 107 Q40 166 40 244 Q40 322 71.5 381.5 Q103 441 161 473 Q219 505 296 505 Q413 505 480 434.5 Q547 364 547 241 L547 223 L180 223 Z M416 310 Q405 357 375 382 Q345 407 299 407 Q254 407 224 381.5 Q194 356 184 310 L416 310 Z " />
<glyph glyph-name="uni1EBF" unicode="&#x1ebf;" horiz-adv-x="585" d="M599 810 L451 677 L494 643 L423 575 L299 679 L176 575 L108 643 L299 799 L385 730 L499 873 L599 810 Z M180 223 Q182 159 212.5 125.5 Q243 92 299 92 Q338 92 365 107 Q392 122 416 157 L542 137 Q511 62 450.5 23 Q390 -16 303 -16 Q224 -16 164.5 16 Q105 48 72.5 107 Q40 166 40 244 Q40 322 71.5 381.5 Q103 441 161 473 Q219 505 296 505 Q413 505 480 434.5 Q547 364 547 241 L547 223 L180 223 Z M416 310 Q405 357 375 382 Q345 407 299 407 Q254 407 224 381.5 Q194 356 184 310 L416 310 Z " />
<glyph glyph-name="uni1EC1" unicode="&#x1ec1;" horiz-adv-x="585" d="M564 724 L504 670 L315 798 L409 876 L564 724 Z M488 618 L418 550 L294 652 L171 550 L103 618 L294 774 L488 618 Z M180 223 Q182 159 212.5 125.5 Q243 92 299 92 Q338 92 365 107 Q392 122 416 157 L542 137 Q511 62 450.5 23 Q390 -16 303 -16 Q224 -16 164.5 16 Q105 48 72.5 107 Q40 166 40 244 Q40 322 71.5 381.5 Q103 441 161 473 Q219 505 296 505 Q413 505 480 434.5 Q547 364 547 241 L547 223 L180 223 Z M416 310 Q405 357 375 382 Q345 407 299 407 Q254 407 224 381.5 Q194 356 184 310 L416 310 Z " />
<glyph glyph-name="uni1EC3" unicode="&#x1ec3;" horiz-adv-x="585" d="M427 759 L461 765 Q494 769 505 776.5 Q516 784 516 800 Q516 819 502.5 829.5 Q489 840 464 840 Q449 840 444 838.5 Q439 837 423 828 L399 817 L379 868 L385 870 L389 871 Q437 892 487 892 Q538 892 570 865 Q602 838 602 797 Q602 760 576.5 739 Q551 718 505 718 L479 719 L479 676 L454 676 L494 643 L424 575 L299 679 L176 575 L108 643 L299 799 L419 703 L419 758 L427 759 Z M180 223 Q182 159 212.5 125.5 Q243 92 299 92 Q338 92 365 107 Q392 122 416 157 L542 137 Q511 62 450.5 23 Q390 -16 303 -16 Q224 -16 164.5 16 Q105 48 72.5 107 Q40 166 40 244 Q40 322 71.5 381.5 Q103 441 161 473 Q219 505 296 505 Q413 505 480 434.5 Q547 364 547 241 L547 223 L180 223 Z M416 310 Q405 357 375 382 Q345 407 299 407 Q254 407 224 381.5 Q194 356 184 310 L416 310 Z " />
<glyph glyph-name="uni1EC5" unicode="&#x1ec5;" horiz-adv-x="585" d="M112 802 Q121 868 153.5 906.5 Q186 945 233 945 Q267 945 323 922 Q354 910 368.5 906 Q383 902 394 902 Q411 902 420.5 910.5 Q430 919 443 944 L521 944 Q508 876 473 838 Q438 800 388 800 Q373 800 357.5 804.5 Q342 809 310 822 Q277 834 261.5 838.5 Q246 843 234 843 Q218 843 207.5 834 Q197 825 189 802 L112 802 Z M494 643 L423 575 L299 679 L176 575 L108 643 L299 799 L494 643 Z M180 223 Q182 159 212.5 125.5 Q243 92 299 92 Q338 92 365 107 Q392 122 416 157 L542 137 Q511 62 450.5 23 Q390 -16 303 -16 Q224 -16 164.5 16 Q105 48 72.5 107 Q40 166 40 244 Q40 322 71.5 381.5 Q103 441 161 473 Q219 505 296 505 Q413 505 480 434.5 Q547 364 547 241 L547 223 L180 223 Z M416 310 Q405 357 375 382 Q345 407 299 407 Q254 407 224 381.5 Q194 356 184 310 L416 310 Z " />
<glyph glyph-name="uni1EC7" unicode="&#x1ec7;" horiz-adv-x="585" d="M180 223 Q182 159 212.5 125.5 Q243 92 299 92 Q338 92 365 107 Q392 122 416 157 L542 137 Q511 62 450.5 23 Q390 -16 303 -16 Q224 -16 164.5 16 Q105 48 72.5 107 Q40 166 40 244 Q40 322 71.5 381.5 Q103 441 161 473 Q219 505 296 505 Q413 505 480 434.5 Q547 364 547 241 L547 223 L180 223 Z M416 310 Q405 357 375 382 Q345 407 299 407 Q254 407 224 381.5 Q194 356 184 310 L416 310 Z M288 -45 Q325 -45 351 -71 Q377 -97 377 -133 Q377 -170 351 -196.5 Q325 -223 289 -223 Q251 -223 225 -197 Q199 -171 199 -133 Q199 -97 225.5 -71 Q252 -45 288 -45 Z M495 643 L425 575 L300 679 L177 575 L109 643 L300 799 L495 643 Z " />
<glyph glyph-name="uni1EC9" unicode="&#x1ec9;" horiz-adv-x="263" d="M101 629 L108 632 Q137 636 142 636 Q175 641 186.5 648.5 Q198 656 198 672 Q198 691 184.5 701.5 Q171 712 146 712 Q131 712 124.5 710 Q118 708 104 699 Q103 699 87 692 L80 688 L60 739 L67 742 L70 744 Q125 764 168 764 Q219 764 251.5 737 Q284 710 284 669 Q284 632 258 611 Q232 590 186 590 L160 590 L160 547 L101 547 L101 629 Z M63 0 L63 489 L200 489 L200 0 L63 0 Z " />
<glyph glyph-name="uni1ECB" unicode="&#x1ecb;" horiz-adv-x="263" d="M132 779 Q166 779 190 754.5 Q214 730 214 696 Q214 662 190 638 Q166 614 132 614 Q98 614 74 638 Q50 662 50 697 Q50 730 74 754.5 Q98 779 132 779 Z M63 0 L63 489 L200 489 L200 0 L63 0 Z M132 -45 Q169 -45 195 -71 Q221 -97 221 -133 Q221 -170 195 -196.5 Q169 -223 133 -223 Q95 -223 69 -197 Q43 -171 43 -133 Q43 -97 69.5 -71 Q96 -45 132 -45 Z " />
<glyph glyph-name="uni1ECD" unicode="&#x1ecd;" horiz-adv-x="638" d="M321 505 Q402 505 465.5 472 Q529 439 564 380 Q599 321 599 245 Q599 168 563.5 109 Q528 50 463.5 17 Q399 -16 316 -16 Q235 -16 172.5 17.5 Q110 51 75 111 Q40 171 40 249 Q40 323 76 381 Q112 439 176 472 Q240 505 321 505 Z M319 382 Q282 382 250.5 363.5 Q219 345 200 313.5 Q181 282 181 246 Q181 208 199.5 176 Q218 144 250 125.5 Q282 107 320 107 Q357 107 388.5 125.5 Q420 144 439 175.5 Q458 207 458 244 Q458 282 439 313.5 Q420 345 388 363.5 Q356 382 319 382 Z M316 -45 Q353 -45 379 -71 Q405 -97 405 -133 Q405 -170 379 -196.5 Q353 -223 317 -223 Q279 -223 253 -197 Q227 -171 227 -133 Q227 -97 253.5 -71 Q280 -45 316 -45 Z " />
<glyph glyph-name="uni1ECF" unicode="&#x1ecf;" horiz-adv-x="638" d="M284 627 Q316 633 325 634 Q359 639 370 646 Q381 653 381 670 Q381 689 367.5 699.5 Q354 710 329 710 Q313 710 308 708.5 Q303 707 287 697 L263 686 L243 737 L250 740 L253 741 Q306 762 351 762 Q402 762 434.5 735 Q467 708 467 667 Q467 630 441.5 609 Q416 588 370 588 L344 588 L344 545 L284 545 L284 627 Z M321 505 Q402 505 465.5 472 Q529 439 564 380 Q599 321 599 245 Q599 168 563.5 109 Q528 50 463.5 17 Q399 -16 316 -16 Q235 -16 172.5 17.5 Q110 51 75 111 Q40 171 40 249 Q40 323 76 381 Q112 439 176 472 Q240 505 321 505 Z M319 382 Q282 382 250.5 363.5 Q219 345 200 313.5 Q181 282 181 246 Q181 208 199.5 176 Q218 144 250 125.5 Q282 107 320 107 Q357 107 388.5 125.5 Q420 144 439 175.5 Q458 207 458 244 Q458 282 439 313.5 Q420 345 388 363.5 Q356 382 319 382 Z " />
<glyph glyph-name="uni1ED1" unicode="&#x1ed1;" horiz-adv-x="638" d="M619 800 L477 671 L512 643 L442 575 L319 679 L195 575 L127 643 L318 799 L410 725 L519 863 L619 800 Z M318 505 Q401 505 464.5 472.5 Q528 440 563.5 381 Q599 322 599 245 Q599 169 563.5 110 Q528 51 464.5 17.5 Q401 -16 320 -16 Q240 -16 176 17 Q112 50 76 108.5 Q40 167 40 240 Q40 369 129 442 Q164 471 215.5 488 Q267 505 318 505 Z M319 382 Q282 382 250.5 363.5 Q219 345 200 313.5 Q181 282 181 246 Q181 208 199.5 176 Q218 144 250 125.5 Q282 107 320 107 Q357 107 388.5 125.5 Q420 144 439 175.5 Q458 207 458 244 Q458 282 439 313.5 Q420 345 388 363.5 Q356 382 319 382 Z " />
<glyph glyph-name="uni1ED3" unicode="&#x1ed3;" horiz-adv-x="638" d="M594 716 L533 661 L345 790 L438 868 L594 716 Z M518 610 L447 542 L324 644 L201 542 L132 610 L324 766 L518 610 Z M318 505 Q401 505 464.5 472.5 Q528 440 563.5 381 Q599 322 599 245 Q599 169 563.5 110 Q528 51 464.5 17.5 Q401 -16 320 -16 Q240 -16 176 17 Q112 50 76 108.5 Q40 167 40 240 Q40 369 129 442 Q164 471 215.5 488 Q267 505 318 505 Z M319 382 Q282 382 250.5 363.5 Q219 345 200 313.5 Q181 282 181 246 Q181 208 199.5 176 Q218 144 250 125.5 Q282 107 320 107 Q357 107 388.5 125.5 Q420 144 439 175.5 Q458 207 458 244 Q458 282 439 313.5 Q420 345 388 363.5 Q356 382 319 382 Z " />
<glyph glyph-name="uni1ED5" unicode="&#x1ed5;" horiz-adv-x="638" d="M455 754 L489 759 Q522 764 533.5 771 Q545 778 545 794 Q545 813 531 823.5 Q517 834 493 834 Q477 834 472 832.5 Q467 831 451 823 L427 811 L407 861 L414 864 L417 866 Q469 886 515 886 Q566 886 598.5 859 Q631 832 631 791 Q631 754 605 733 Q579 712 533 712 L507 712 L507 669 L480 669 L512 643 L442 575 L319 679 L195 575 L127 643 L319 799 L447 695 L447 753 L455 754 Z M318 505 Q401 505 464.5 472.5 Q528 440 563.5 381 Q599 322 599 245 Q599 169 563.5 110 Q528 51 464.5 17.5 Q401 -16 320 -16 Q240 -16 176 17 Q112 50 76 108.5 Q40 167 40 240 Q40 369 129 442 Q164 471 215.5 488 Q267 505 318 505 Z M319 382 Q282 382 250.5 363.5 Q219 345 200 313.5 Q181 282 181 246 Q181 208 199.5 176 Q218 144 250 125.5 Q282 107 320 107 Q357 107 388.5 125.5 Q420 144 439 175.5 Q458 207 458 244 Q458 282 439 313.5 Q420 345 388 363.5 Q356 382 319 382 Z " />
<glyph glyph-name="uni1ED7" unicode="&#x1ed7;" horiz-adv-x="638" d="M114 809 Q125 875 157.5 913 Q190 951 236 951 Q271 951 327 929 Q358 918 372 913.5 Q386 909 398 909 Q414 909 424 917 Q434 925 446 950 L524 950 Q511 882 476 844.5 Q441 807 391 807 Q376 807 360 811 Q344 815 312 828 Q281 841 265 845.5 Q249 850 237 850 Q221 850 210.5 840.5 Q200 831 192 809 L114 809 Z M512 643 L442 575 L319 679 L195 575 L127 643 L318 799 L512 643 Z M321 505 Q402 505 465.5 472 Q529 439 564 380 Q599 321 599 245 Q599 168 563.5 109 Q528 50 463.5 17 Q399 -16 316 -16 Q235 -16 172.5 17.5 Q110 51 75 111 Q40 171 40 249 Q40 323 76 381 Q112 439 176 472 Q240 505 321 505 Z M319 382 Q282 382 250.5 363.5 Q219 345 200 313.5 Q181 282 181 246 Q181 208 199.5 176 Q218 144 250 125.5 Q282 107 320 107 Q357 107 388.5 125.5 Q420 144 439 175.5 Q458 207 458 244 Q458 282 439 313.5 Q420 345 388 363.5 Q356 382 319 382 Z " />
<glyph glyph-name="uni1ED9" unicode="&#x1ed9;" horiz-adv-x="638" d="M321 505 Q402 505 465.5 472 Q529 439 564 380 Q599 321 599 245 Q599 168 563.5 109 Q528 50 463.5 17 Q399 -16 316 -16 Q235 -16 172.5 17.5 Q110 51 75 111 Q40 171 40 249 Q40 323 76 381 Q112 439 176 472 Q240 505 321 505 Z M319 382 Q282 382 250.5 363.5 Q219 345 200 313.5 Q181 282 181 246 Q181 208 199.5 176 Q218 144 250 125.5 Q282 107 320 107 Q357 107 388.5 125.5 Q420 144 439 175.5 Q458 207 458 244 Q458 282 439 313.5 Q420 345 388 363.5 Q356 382 319 382 Z M315 -45 Q352 -45 378 -71 Q404 -97 404 -133 Q404 -170 378 -196.5 Q352 -223 316 -223 Q278 -223 252 -197 Q226 -171 226 -133 Q226 -97 252.5 -71 Q279 -45 315 -45 Z M476 643 L406 575 L281 679 L158 575 L90 643 L281 799 L476 643 Z " />
<glyph glyph-name="uni1EDB" unicode="&#x1edb;" horiz-adv-x="638" d="M262 620 L397 791 L497 728 L328 575 L262 620 Z M681 549 L570 368 Q599 316 599 245 Q599 169 563.5 110 Q528 51 464.5 17.5 Q401 -16 320 -16 Q238 -16 174.5 17 Q111 50 75.5 109 Q40 168 40 244 Q40 320 75.5 379.5 Q111 439 174.5 472 Q238 505 319 505 Q378 505 430.5 486.5 Q483 468 518 436 L567 559 L681 549 Z M319 382 Q282 382 250.5 363.5 Q219 345 200 313.5 Q181 282 181 246 Q181 208 199.5 176 Q218 144 250 125.5 Q282 107 320 107 Q357 107 388.5 125.5 Q420 144 439 175.5 Q458 207 458 244 Q458 282 439 313.5 Q420 345 388 363.5 Q356 382 319 382 Z " />
<glyph glyph-name="uni1EDD" unicode="&#x1edd;" horiz-adv-x="638" d="M376 620 L311 575 L142 728 L242 791 L376 620 Z M681 549 L570 368 Q599 316 599 245 Q599 169 563.5 110 Q528 51 464.5 17.5 Q401 -16 320 -16 Q238 -16 174.5 17 Q111 50 75.5 109 Q40 168 40 244 Q40 320 75.5 379.5 Q111 439 174.5 472 Q238 505 319 505 Q378 505 430.5 486.5 Q483 468 518 436 L567 559 L681 549 Z M319 382 Q282 382 250.5 363.5 Q219 345 200 313.5 Q181 282 181 246 Q181 208 199.5 176 Q218 144 250 125.5 Q282 107 320 107 Q357 107 388.5 125.5 Q420 144 439 175.5 Q458 207 458 244 Q458 282 439 313.5 Q420 345 388 363.5 Q356 382 319 382 Z " />
<glyph glyph-name="uni1EDF" unicode="&#x1edf;" horiz-adv-x="638" d="M267 678 L275 680 Q301 685 308 685 Q342 690 353 697 Q364 704 364 721 Q364 740 350.5 750 Q337 760 312 760 Q297 760 291.5 758.5 Q286 757 270 748 L246 737 L226 788 L233 791 L236 792 Q286 812 334 812 Q385 812 417.5 785.5 Q450 759 450 718 Q450 680 424.5 659 Q399 638 353 638 L327 638 L327 596 L267 596 L267 678 Z M681 549 L570 368 Q599 316 599 245 Q599 169 563.5 110 Q528 51 464.5 17.5 Q401 -16 320 -16 Q238 -16 174.5 17 Q111 50 75.5 109 Q40 168 40 244 Q40 320 75.5 379.5 Q111 439 174.5 472 Q238 505 319 505 Q378 505 430.5 486.5 Q483 468 518 436 L567 559 L681 549 Z M319 382 Q282 382 250.5 363.5 Q219 345 200 313.5 Q181 282 181 246 Q181 208 199.5 176 Q218 144 250 125.5 Q282 107 320 107 Q357 107 388.5 125.5 Q420 144 439 175.5 Q458 207 458 244 Q458 282 439 313.5 Q420 345 388 363.5 Q356 382 319 382 Z " />
<glyph glyph-name="uni1EE1" unicode="&#x1ee1;" horiz-adv-x="638" d="M114 591 Q125 656 157.5 694 Q190 732 236 732 Q267 732 327 710 Q363 695 374.5 692 Q386 689 398 689 Q414 689 423.5 697.5 Q433 706 446 731 L524 731 Q511 664 476 626.5 Q441 589 391 589 Q375 589 359.5 593 Q344 597 312 610 Q280 622 264.5 626.5 Q249 631 237 631 Q221 631 210.5 621.5 Q200 612 192 591 L114 591 Z M681 549 L570 368 Q599 316 599 245 Q599 169 563.5 110 Q528 51 464.5 17.5 Q401 -16 320 -16 Q238 -16 174.5 17 Q111 50 75.5 109 Q40 168 40 244 Q40 320 75.5 379.5 Q111 439 174.5 472 Q238 505 319 505 Q378 505 430.5 486.5 Q483 468 518 436 L567 559 L681 549 Z M319 382 Q282 382 250.5 363.5 Q219 345 200 313.5 Q181 282 181 246 Q181 208 199.5 176 Q218 144 250 125.5 Q282 107 320 107 Q357 107 388.5 125.5 Q420 144 439 175.5 Q458 207 458 244 Q458 282 439 313.5 Q420 345 388 363.5 Q356 382 319 382 Z " />
<glyph glyph-name="uni1EE3" unicode="&#x1ee3;" horiz-adv-x="638" d="M681 549 L570 368 Q599 316 599 245 Q599 169 563.5 110 Q528 51 464.5 17.5 Q401 -16 320 -16 Q238 -16 174.5 17 Q111 50 75.5 109 Q40 168 40 244 Q40 320 75.5 379.5 Q111 439 174.5 472 Q238 505 319 505 Q378 505 430.5 486.5 Q483 468 518 436 L567 559 L681 549 Z M319 382 Q282 382 250.5 363.5 Q219 345 200 313.5 Q181 282 181 246 Q181 208 199.5 176 Q218 144 250 125.5 Q282 107 320 107 Q357 107 388.5 125.5 Q420 144 439 175.5 Q458 207 458 244 Q458 282 439 313.5 Q420 345 388 363.5 Q356 382 319 382 Z M318 -45 Q355 -45 381 -71 Q407 -97 407 -133 Q407 -170 381 -196.5 Q355 -223 319 -223 Q281 -223 255 -197 Q229 -171 229 -133 Q229 -97 255.5 -71 Q282 -45 318 -45 Z " />
<glyph glyph-name="uni1EE5" unicode="&#x1ee5;" horiz-adv-x="605" d="M402 62 Q370 20 333 2 Q296 -16 245 -16 Q153 -16 108 35 Q87 60 76.5 94.5 Q66 129 66 179 L66 489 L202 489 L202 218 Q202 188 205.5 170.5 Q209 153 217 140 Q227 122 249.5 111.5 Q272 101 299 101 Q354 101 378 135.5 Q402 170 402 249 L402 489 L539 489 L539 0 L402 0 L402 62 Z M306 -45 Q343 -45 369 -71 Q395 -97 395 -133 Q395 -170 369 -196.5 Q343 -223 307 -223 Q269 -223 243 -197 Q217 -171 217 -133 Q217 -97 243.5 -71 Q270 -45 306 -45 Z " />
<glyph glyph-name="uni1EE7" unicode="&#x1ee7;" horiz-adv-x="605" d="M402 62 Q370 20 333 2 Q296 -16 245 -16 Q153 -16 108 35 Q87 60 76.5 94.5 Q66 129 66 179 L66 489 L202 489 L202 218 Q202 188 205.5 170.5 Q209 153 217 140 Q227 122 249.5 111.5 Q272 101 299 101 Q354 101 378 135.5 Q402 170 402 249 L402 489 L539 489 L539 0 L402 0 L402 62 Z M254 646 L262 649 Q289 653 296 653 Q329 658 340 665.5 Q351 673 351 689 Q351 708 337.5 718.5 Q324 729 299 729 Q284 729 279 727.5 Q274 726 257 716 L244 711 L240 709 L234 705 L213 756 L220 759 L223 760 Q276 781 322 781 Q373 781 405 754 Q437 727 437 686 Q437 649 411.5 628 Q386 607 340 607 L314 607 L314 564 L254 564 L254 646 Z " />
<glyph glyph-name="uni1EE9" unicode="&#x1ee9;" horiz-adv-x="605" d="M619 324 L548 331 L628 533 L744 523 L619 324 Z M402 62 Q370 20 333 2 Q296 -16 245 -16 Q153 -16 108 35 Q87 60 76.5 94.5 Q66 129 66 179 L66 489 L202 489 L202 218 Q202 188 205.5 170.5 Q209 153 217 140 Q227 122 249.5 111.5 Q272 101 299 101 Q354 101 378 135.5 Q402 170 402 249 L402 489 L539 489 L539 0 L402 0 L402 62 Z M245 620 L379 791 L480 728 L311 575 L245 620 Z " />
<glyph glyph-name="uni1EEB" unicode="&#x1eeb;" horiz-adv-x="605" d="M619 324 L548 331 L628 533 L744 523 L619 324 Z M402 62 Q370 20 333 2 Q296 -16 245 -16 Q153 -16 108 35 Q87 60 76.5 94.5 Q66 129 66 179 L66 489 L202 489 L202 218 Q202 188 205.5 170.5 Q209 153 217 140 Q227 122 249.5 111.5 Q272 101 299 101 Q354 101 378 135.5 Q402 170 402 249 L402 489 L539 489 L539 0 L402 0 L402 62 Z M359 620 L294 575 L124 728 L224 791 L359 620 Z " />
<glyph glyph-name="uni1EED" unicode="&#x1eed;" horiz-adv-x="605" d="M619 324 L548 331 L628 533 L744 523 L619 324 Z M402 62 Q370 20 333 2 Q296 -16 245 -16 Q153 -16 108 35 Q87 60 76.5 94.5 Q66 129 66 179 L66 489 L202 489 L202 218 Q202 188 205.5 170.5 Q209 153 217 140 Q227 122 249.5 111.5 Q272 101 299 101 Q354 101 378 135.5 Q402 170 402 249 L402 489 L539 489 L539 0 L402 0 L402 62 Z M258 646 L266 649 Q293 653 300 653 Q333 658 344 665.5 Q355 673 355 689 Q355 708 341.5 718.5 Q328 729 303 729 Q288 729 283 727.5 Q278 726 261 716 L248 711 L244 709 L238 705 L217 756 L224 759 L227 760 Q280 781 326 781 Q377 781 409 754 Q441 727 441 686 Q441 649 415.5 628 Q390 607 344 607 L318 607 L318 564 L258 564 L258 646 Z " />
<glyph glyph-name="uni1EEF" unicode="&#x1eef;" horiz-adv-x="605" d="M619 324 L548 331 L628 533 L744 523 L619 324 Z M402 62 Q370 20 333 2 Q296 -16 245 -16 Q153 -16 108 35 Q87 60 76.5 94.5 Q66 129 66 179 L66 489 L202 489 L202 218 Q202 188 205.5 170.5 Q209 153 217 140 Q227 122 249.5 111.5 Q272 101 299 101 Q354 101 378 135.5 Q402 170 402 249 L402 489 L539 489 L539 0 L402 0 L402 62 Z M101 591 Q110 656 142.5 694 Q175 732 222 732 Q255 732 312 710 Q350 695 361 692 Q372 689 383 689 Q400 689 410 697.5 Q420 706 433 731 L511 731 Q497 664 462 626.5 Q427 589 378 589 Q361 589 345.5 593 Q330 597 299 610 Q267 622 251 626.5 Q235 631 223 631 Q208 631 197.5 621.5 Q187 612 178 591 L101 591 Z " />
<glyph glyph-name="uni1EF1" unicode="&#x1ef1;" horiz-adv-x="605" d="M619 324 L548 331 L628 533 L744 523 L619 324 Z M402 62 Q370 20 333 2 Q296 -16 245 -16 Q153 -16 108 35 Q87 60 76.5 94.5 Q66 129 66 179 L66 489 L202 489 L202 218 Q202 188 205.5 170.5 Q209 153 217 140 Q227 122 249.5 111.5 Q272 101 299 101 Q354 101 378 135.5 Q402 170 402 249 L402 489 L539 489 L539 0 L402 0 L402 62 Z M306 -45 Q343 -45 369 -71 Q395 -97 395 -133 Q395 -170 369 -196.5 Q343 -223 307 -223 Q269 -223 243 -197 Q217 -171 217 -133 Q217 -97 243.5 -71 Q270 -45 306 -45 Z " />
<glyph glyph-name="uni1EF5" unicode="&#x1ef5;" horiz-adv-x="605" d="M160 489 L307 211 L446 489 L603 489 L208 -261 L53 -261 L233 75 L1 489 L160 489 Z M415 -45 Q452 -45 478 -71 Q504 -97 504 -133 Q504 -170 478 -196.5 Q452 -223 416 -223 Q379 -223 352.5 -197 Q326 -171 326 -133 Q326 -97 352.5 -71 Q379 -45 415 -45 Z " />
<glyph glyph-name="uni1EF7" unicode="&#x1ef7;" horiz-adv-x="605" d="M251 643 L259 645 Q286 650 293 650 Q327 655 337.5 662 Q348 669 348 686 Q348 705 334.5 715 Q321 725 296 725 Q281 725 276 723.5 Q271 722 254 713 L241 707 L237 705 L231 702 L210 753 L217 756 L220 757 Q270 777 319 777 Q369 777 401.5 750.5 Q434 724 434 683 Q434 645 408.5 624 Q383 603 337 603 L311 603 L311 560 L251 560 L251 643 Z M160 489 L307 211 L446 489 L603 489 L208 -261 L53 -261 L233 75 L1 489 L160 489 Z " />
<glyph glyph-name="uni1EF9" unicode="&#x1ef9;" horiz-adv-x="605" d="M97 591 Q107 656 139.5 694 Q172 732 218 732 Q251 732 308 710 Q346 695 357 692 Q368 689 380 689 Q396 689 406 697.5 Q416 706 429 731 L507 731 Q494 664 459 626.5 Q424 589 374 589 Q357 589 341.5 593 Q326 597 295 610 Q263 622 247.5 626.5 Q232 631 220 631 Q204 631 193.5 621.5 Q183 612 174 591 L97 591 Z M160 489 L307 211 L446 489 L603 489 L208 -261 L53 -261 L233 75 L1 489 L160 489 Z " />
<glyph glyph-name="uogonek" unicode="&#x173;" horiz-adv-x="605" d="M483 -209 Q441 -209 412 -184 Q383 -159 383 -123 Q383 -102 391.5 -80 Q400 -58 415 -42 Q425 -31 436.5 -22.5 Q448 -14 473 0 L402 0 L402 62 Q370 20 333 2 Q296 -16 245 -16 Q153 -16 108 35 Q87 60 76.5 94.5 Q66 129 66 179 L66 489 L202 489 L202 218 Q202 188 205.5 170.5 Q209 153 217 140 Q227 122 249.5 111.5 Q272 101 299 101 Q354 101 378 135.5 Q402 170 402 249 L402 489 L539 489 L539 0 Q534 -3 530.5 -5.5 Q527 -8 524 -10 Q493 -31 481 -47 Q469 -63 469 -84 Q469 -104 482.5 -116.5 Q496 -129 518 -129 Q541 -129 572 -114 L555 -190 Q522 -209 483 -209 Z " />
<glyph glyph-name="uring" unicode="&#x16f;" horiz-adv-x="605" d="M402 62 Q370 20 333 2 Q296 -16 245 -16 Q153 -16 108 35 Q87 60 76.5 94.5 Q66 129 66 179 L66 489 L202 489 L202 218 Q202 188 205.5 170.5 Q209 153 217 140 Q227 122 249.5 111.5 Q272 101 299 101 Q354 101 378 135.5 Q402 170 402 249 L402 489 L539 489 L539 0 L402 0 L402 62 Z M301 783 Q344 783 374 752.5 Q404 722 404 679 Q404 636 374 605.5 Q344 575 301 575 Q257 575 227 605.5 Q197 636 197 680 Q197 723 227.5 753 Q258 783 301 783 Z M301 719 Q285 719 273 707.5 Q261 696 261 679 Q261 663 273 651.5 Q285 640 301 640 Q317 640 328.5 651.5 Q340 663 340 679 Q340 696 329 707.5 Q318 719 301 719 Z " />
<glyph glyph-name="utilde" unicode="&#x169;" horiz-adv-x="605" d="M402 62 Q370 20 333 2 Q296 -16 245 -16 Q153 -16 108 35 Q87 60 76.5 94.5 Q66 129 66 179 L66 489 L202 489 L202 218 Q202 188 205.5 170.5 Q209 153 217 140 Q227 122 249.5 111.5 Q272 101 299 101 Q354 101 378 135.5 Q402 170 402 249 L402 489 L539 489 L539 0 L402 0 L402 62 Z M105 591 Q114 656 146.5 694 Q179 732 226 732 Q259 732 316 710 Q354 695 365 692 Q376 689 387 689 Q404 689 414 697.5 Q424 706 437 731 L515 731 Q501 664 466 626.5 Q431 589 382 589 Q365 589 349.5 593 Q334 597 303 610 Q271 622 255 626.5 Q239 631 227 631 Q212 631 201.5 621.5 Q191 612 182 591 L105 591 Z " />
<glyph glyph-name="v" unicode="v" horiz-adv-x="567" d="M411 489 L565 489 L313 -10 L251 -10 L1 489 L155 489 L284 212 L411 489 Z " />
<glyph glyph-name="w" unicode="w" horiz-adv-x="895" d="M417 503 L476 503 L609 202 L740 489 L893 489 L640 -10 L577 -10 L445 287 L315 -10 L252 -10 L1 489 L155 489 L284 207 L417 503 Z " />
<glyph glyph-name="wacute" unicode="&#x1e83;" horiz-adv-x="895" d="M330 620 L464 791 L564 728 L394 575 L330 620 Z M417 503 L476 503 L609 202 L740 489 L893 489 L640 -10 L577 -10 L445 287 L315 -10 L252 -10 L1 489 L155 489 L284 207 L417 503 Z " />
<glyph glyph-name="wcircumflex" unicode="&#x175;" horiz-adv-x="895" d="M640 643 L570 575 L445 679 L322 575 L254 643 L445 799 L640 643 Z M417 503 L476 503 L609 202 L740 489 L893 489 L640 -10 L577 -10 L445 287 L315 -10 L252 -10 L1 489 L155 489 L284 207 L417 503 Z " />
<glyph glyph-name="wdieresis" unicode="&#x1e85;" horiz-adv-x="895" d="M330 744 Q363 744 386.5 720 Q410 696 410 662 Q410 628 386.5 604.5 Q363 581 330 581 Q296 581 272.5 605 Q249 629 249 663 Q249 696 273 720 Q297 744 330 744 Z M564 744 Q598 744 621.5 720 Q645 696 645 662 Q645 628 621.5 604.5 Q598 581 564 581 Q530 581 506.5 605 Q483 629 483 663 Q483 696 507 720 Q531 744 564 744 Z M417 503 L476 503 L609 202 L740 489 L893 489 L640 -10 L577 -10 L445 287 L315 -10 L252 -10 L1 489 L155 489 L284 207 L417 503 Z " />
<glyph glyph-name="wgrave" unicode="&#x1e81;" horiz-adv-x="895" d="M548 620 L484 575 L314 728 L414 791 L548 620 Z M417 503 L476 503 L609 202 L740 489 L893 489 L640 -10 L577 -10 L445 287 L315 -10 L252 -10 L1 489 L155 489 L284 207 L417 503 Z " />
<glyph glyph-name="x" unicode="x" horiz-adv-x="635" d="M218 489 L320 363 L423 489 L597 489 L405 266 L634 0 L459 0 L319 171 L177 0 L1 0 L234 266 L45 489 L218 489 Z " />
<glyph glyph-name="y" unicode="y" horiz-adv-x="605" d="M160 489 L307 211 L446 489 L603 489 L208 -261 L53 -261 L233 75 L1 489 L160 489 Z " />
<glyph glyph-name="yacute" unicode="&#xfd;" horiz-adv-x="605" d="M231 620 L365 791 L464 728 L295 575 L231 620 Z M160 489 L307 211 L446 489 L603 489 L208 -261 L53 -261 L233 75 L1 489 L160 489 Z " />
<glyph glyph-name="ycircumflex" unicode="&#x177;" horiz-adv-x="605" d="M495 643 L425 575 L301 679 L177 575 L110 643 L301 799 L495 643 Z M160 489 L307 211 L446 489 L603 489 L208 -261 L53 -261 L233 75 L1 489 L160 489 Z " />
<glyph glyph-name="ydieresis" unicode="&#xff;" horiz-adv-x="605" d="M185 744 Q218 744 242 720 Q266 696 266 662 Q266 628 242 604.5 Q218 581 185 581 Q151 581 127.5 605 Q104 629 104 663 Q104 696 128 720 Q152 744 185 744 Z M419 744 Q453 744 477 720 Q501 696 501 662 Q501 628 477 604.5 Q453 581 419 581 Q385 581 361.5 605 Q338 629 338 663 Q338 696 362 720 Q386 744 419 744 Z M160 489 L307 211 L446 489 L603 489 L208 -261 L53 -261 L233 75 L1 489 L160 489 Z " />
<glyph glyph-name="ygrave" unicode="&#x1ef3;" horiz-adv-x="605" d="M419 620 L354 575 L185 728 L285 791 L419 620 Z M160 489 L307 211 L446 489 L603 489 L208 -261 L53 -261 L233 75 L1 489 L160 489 Z " />
<glyph glyph-name="z" unicode="z" horiz-adv-x="548" d="M515 0 L15 0 L293 373 L58 373 L58 492 L533 492 L257 119 L515 119 L515 0 Z " />
<glyph glyph-name="zacute" unicode="&#x17a;" horiz-adv-x="548" d="M217 620 L351 791 L452 728 L283 575 L217 620 Z M515 0 L15 0 L293 373 L58 373 L58 492 L533 492 L257 119 L515 119 L515 0 Z " />
<glyph glyph-name="zcaron" unicode="&#x17e;" horiz-adv-x="548" d="M292 696 L416 799 L486 732 L292 575 L101 732 L168 799 L292 696 Z M515 0 L15 0 L293 373 L58 373 L58 492 L533 492 L257 119 L515 119 L515 0 Z " />
<glyph glyph-name="zdotaccent" unicode="&#x17c;" horiz-adv-x="548" d="M294 751 Q329 751 354 726 Q379 701 379 667 Q379 631 354 606 Q329 581 294 581 Q258 581 233 606 Q208 631 208 668 Q208 702 233 726.5 Q258 751 294 751 Z M515 0 L15 0 L293 373 L58 373 L58 492 L533 492 L257 119 L515 119 L515 0 Z " />
<glyph glyph-name="ff" unicode="&#xfb00;" horiz-adv-x="646" d="M70 0 L70 371 L17 371 L17 489 L70 489 L70 646 Q70 701 80 734 Q90 767 115 796 Q144 826 182 843 Q220 860 260 860 Q281 860 296 856.5 Q311 853 332 843 L332 719 Q309 729 296 733 Q283 737 270 737 Q253 737 237.5 727 Q222 717 216 703 Q207 684 207 626 L207 489 L287 489 L287 371 L207 371 L207 0 L70 0 Z M385 0 L385 371 L332 371 L332 489 L385 489 L385 646 Q385 700 395.5 733.5 Q406 767 431 796 Q459 826 497 843 Q535 860 576 860 Q596 860 611.5 856.5 Q627 853 649 843 L649 719 Q623 730 611 733.5 Q599 737 586 737 Q569 737 553 727 Q537 717 531 703 Q522 684 522 626 L522 489 L649 489 L649 371 L522 371 L522 0 L385 0 Z " />
<glyph glyph-name="ffi" unicode="&#xfb03;" horiz-adv-x="902" d="M70 0 L70 371 L17 371 L17 489 L70 489 L70 646 Q70 701 80 734 Q90 767 115 796 Q144 826 182 843 Q220 860 260 860 Q281 860 296 856.5 Q311 853 332 843 L332 719 Q309 729 296 733 Q283 737 270 737 Q253 737 237.5 727 Q222 717 216 703 Q207 684 207 626 L207 489 L287 489 L287 371 L207 371 L207 0 L70 0 Z M385 0 L385 371 L332 371 L332 489 L385 489 L385 646 Q385 700 395.5 733.5 Q406 767 431 796 Q459 826 497 843 Q535 860 576 860 Q596 860 611.5 856.5 Q627 853 649 843 L649 719 Q623 730 611 733.5 Q599 737 586 737 Q569 737 553 727 Q537 717 531 703 Q522 684 522 626 L522 489 L649 489 L649 371 L522 371 L522 0 L385 0 Z M768 779 Q803 779 827 754.5 Q851 730 851 696 Q851 662 827 638 Q803 614 770 614 Q735 614 711 638 Q687 662 687 697 Q687 730 711 754.5 Q735 779 768 779 Z M702 0 L702 489 L838 489 L838 0 L702 0 Z " />
<glyph glyph-name="ffl" unicode="&#xfb04;" horiz-adv-x="904" d="M70 0 L70 371 L17 371 L17 489 L70 489 L70 646 Q70 700 80 733 Q90 766 115 794 Q144 825 182 842 Q220 859 261 859 Q280 859 295 855.5 Q310 852 332 843 L332 719 Q309 729 296 732.5 Q283 736 270 736 Q253 736 237.5 726 Q222 716 216 702 Q207 683 207 626 L207 489 L287 489 L287 371 L207 371 L207 0 L70 0 Z M385 0 L385 371 L332 371 L332 489 L385 489 L385 646 Q385 700 395.5 733 Q406 766 431 794 Q459 825 497 842 Q535 859 576 859 Q596 859 611 855.5 Q626 852 649 843 L649 719 Q625 729 612.5 732.5 Q600 736 586 736 Q569 736 553 726 Q537 716 531 702 Q522 683 522 626 L522 489 L649 489 L649 371 L522 371 L522 0 L385 0 Z M702 0 L702 846 L838 846 L838 0 L702 0 Z " />
<glyph glyph-name="fi" unicode="&#xfb01;" horiz-adv-x="585" d="M70 0 L70 371 L17 371 L17 489 L70 489 L70 646 Q70 701 80 734 Q90 767 115 796 Q144 826 182 843 Q220 860 260 860 Q281 860 296 856.5 Q311 853 332 843 L332 719 Q309 729 296 733 Q283 737 270 737 Q253 737 237.5 727 Q222 717 216 703 Q207 682 207 626 L207 489 L332 489 L332 371 L207 371 L207 0 L70 0 Z M453 779 Q487 779 511.5 754.5 Q536 730 536 696 Q536 662 511.5 638 Q487 614 454 614 Q420 614 396 638 Q372 662 372 697 Q372 730 396 754.5 Q420 779 453 779 Z M385 0 L385 489 L522 489 L522 0 L385 0 Z " />
<glyph glyph-name="fl" unicode="&#xfb02;" horiz-adv-x="589" d="M70 0 L70 371 L17 371 L17 489 L70 489 L70 646 Q70 700 80 733 Q90 766 115 794 Q144 825 182 842 Q220 859 261 859 Q280 859 295 855.5 Q310 852 332 843 L332 719 Q309 729 296 732.5 Q283 736 270 736 Q253 736 237.5 726 Q222 716 216 702 Q207 683 207 626 L207 489 L332 489 L332 371 L207 371 L207 0 L70 0 Z M385 0 L385 846 L522 846 L522 0 L385 0 Z " />
<glyph glyph-name="ordfeminine" unicode="&#xaa;" horiz-adv-x="383" d="M345 452 L263 452 L263 490 Q243 465 220.5 453.5 Q198 442 167 442 Q127 442 94.5 462.5 Q62 483 43 519 Q24 555 24 599 Q24 642 43 677.5 Q62 713 94.5 733.5 Q127 754 166 754 Q196 754 219 742.5 Q242 731 263 706 L263 745 L345 745 L345 452 Z M190 680 Q156 680 132 656 Q108 632 108 598 Q108 564 132 539.5 Q156 515 190 515 Q223 515 247 539.5 Q271 564 271 597 Q271 632 247.5 656 Q224 680 190 680 Z M344 347 L35 347 L35 409 L344 409 L344 347 Z " />
<glyph glyph-name="ordmasculine" unicode="&#xba;" horiz-adv-x="381" d="M191 755 Q264 755 310.5 711 Q357 667 357 599 Q357 529 310 485.5 Q263 442 189 442 Q115 442 69.5 486 Q24 530 24 601 Q24 645 45.5 680 Q67 715 105 735 Q143 755 191 755 Z M190 680 Q157 680 132.5 656 Q108 632 108 599 Q108 565 132.5 540.5 Q157 516 191 516 Q225 516 248.5 540.5 Q272 565 272 599 Q272 633 248 656.5 Q224 680 190 680 Z M350 347 L41 347 L41 409 L350 409 L350 347 Z " />
<glyph glyph-name="uni0410" unicode="&#x410;" horiz-adv-x="757" d="M157 0 L1 0 L321 754 L444 754 L755 0 L598 0 L533 159 L225 159 L157 0 Z M272 278 L487 278 L382 549 L272 278 Z " />
<glyph glyph-name="uni0411" unicode="&#x411;" horiz-adv-x="644" d="M555 754 L555 626 L229 626 L229 454 L360 454 Q482 454 545 398 Q608 342 608 233 Q608 171 585 121.5 Q562 72 520 43 Q458 0 342 0 L87 0 L87 754 L555 754 Z M318 118 Q365 118 391.5 124.5 Q418 131 434 147 Q448 161 456 183 Q464 205 464 229 Q464 256 454.5 279 Q445 302 428 315 Q412 328 386 334 Q360 340 318 340 L229 340 L229 118 L318 118 Z " />
<glyph glyph-name="uni0412" unicode="&#x412;" horiz-adv-x="644" d="M273 754 Q400 754 458 709 Q489 684 507 642.5 Q525 601 525 555 Q525 525 517.5 496.5 Q510 468 497 447 Q488 435 476.5 425 Q465 415 443 402 Q482 394 503 384 Q524 374 541 355 Q567 329 581.5 291.5 Q596 254 596 212 Q596 167 578.5 126.5 Q561 86 529 58 Q496 28 450 14 Q404 0 341 0 L87 0 L87 754 L273 754 Z M276 440 Q390 440 390 538 Q390 586 361.5 610.5 Q333 635 278 635 L234 635 L234 440 L276 440 Z M297 119 Q372 119 408 144.5 Q444 170 444 223 Q444 250 432.5 271.5 Q421 293 400 306 Q380 319 357 323.5 Q334 328 289 328 L234 328 L234 119 L297 119 Z " />
<glyph glyph-name="uni0413" unicode="&#x413;" horiz-adv-x="540" d="M522 754 L522 626 L234 626 L234 0 L87 0 L87 754 L522 754 Z " />
<glyph glyph-name="uni0403" unicode="&#x403;" horiz-adv-x="540" d="M215 878 L370 1028 L464 951 L276 823 L215 878 Z M522 754 L522 626 L234 626 L234 0 L87 0 L87 754 L522 754 Z " />
<glyph glyph-name="uni0490" unicode="&#x490;" horiz-adv-x="540" d="M390 754 L390 831 L522 831 L522 626 L234 626 L234 0 L87 0 L87 754 L390 754 Z " />
<glyph glyph-name="uni0414" unicode="&#x414;" horiz-adv-x="762" d="M20 128 Q78 130 107 172.5 Q136 215 148 313 Q173 501 181 754 L667 754 L667 128 L734 128 L734 -145 L602 -145 L602 0 L114 0 L114 -145 L-18 -145 L-18 128 L20 128 Z M520 626 L318 626 Q310 439 293 308 Q283 235 269 201.5 Q255 168 217 128 L520 128 L520 626 Z " />
<glyph glyph-name="uni0415" unicode="&#x415;" horiz-adv-x="559" d="M234 459 L494 459 L494 331 L234 331 L234 128 L504 128 L504 0 L87 0 L87 754 L504 754 L504 626 L234 626 L234 459 Z " />
<glyph glyph-name="uni0400" unicode="&#x400;" horiz-adv-x="559" d="M389 878 L329 823 L140 951 L234 1028 L389 878 Z M234 459 L494 459 L494 331 L234 331 L234 128 L504 128 L504 0 L87 0 L87 754 L504 754 L504 626 L234 626 L234 459 Z " />
<glyph glyph-name="uni0401" unicode="&#x401;" horiz-adv-x="559" d="M177 990 Q211 990 235 966.5 Q259 943 259 910 Q259 876 235.5 852 Q212 828 177 828 Q143 828 119.5 852 Q96 876 96 910 Q96 943 120 966.5 Q144 990 177 990 Z M416 990 Q450 990 473.5 966.5 Q497 943 497 910 Q497 876 473.5 852 Q450 828 416 828 Q382 828 358 852 Q334 876 334 910 Q334 943 358.5 966.5 Q383 990 416 990 Z M234 459 L494 459 L494 331 L234 331 L234 128 L504 128 L504 0 L87 0 L87 754 L504 754 L504 626 L234 626 L234 459 Z " />
<glyph glyph-name="uni0416" unicode="&#x416;" horiz-adv-x="1049" d="M419 327 L177 0 L-2 0 L294 386 L21 754 L190 754 L411 445 L453 445 L453 754 L598 754 L598 445 L640 445 L860 754 L1028 754 L756 386 L1052 0 L872 0 L632 327 L598 327 L598 0 L453 0 L453 327 L419 327 Z " />
<glyph glyph-name="uni0417" unicode="&#x417;" horiz-adv-x="634" d="M235 446 Q326 446 368 460 Q434 485 434 539 Q434 585 388.5 610.5 Q343 636 263 636 Q208 636 167 625.5 Q126 615 56 584 L56 732 Q159 771 281 771 Q374 771 442.5 746 Q511 721 548 675 Q585 629 585 566 Q585 530 571.5 498.5 Q558 467 533 443 Q517 428 498.5 417.5 Q480 407 447 395 Q525 370 561.5 325.5 Q598 281 598 211 Q598 162 578 119 Q558 76 521 46 Q480 13 423 -2 Q366 -17 285 -17 Q216 -17 149 -5.5 Q82 6 37 25 L37 179 Q137 118 266 118 Q354 118 399.5 145.5 Q445 173 445 226 Q445 281 394.5 306.5 Q344 332 235 332 L181 332 L181 446 L235 446 Z " />
<glyph glyph-name="uni0418" unicode="&#x418;" horiz-adv-x="789" d="M228 754 L228 246 L592 754 L703 754 L703 0 L562 0 L562 502 L198 0 L87 0 L87 754 L228 754 Z " />
<glyph glyph-name="uni0419" unicode="&#x419;" horiz-adv-x="789" d="M304 985 Q318 947 339 930.5 Q360 914 395 914 Q430 914 451.5 931 Q473 948 486 985 L581 985 Q571 912 521 869.5 Q471 827 395 827 Q318 827 268 869.5 Q218 912 209 985 L304 985 Z M228 754 L228 246 L592 754 L703 754 L703 0 L562 0 L562 502 L198 0 L87 0 L87 754 L228 754 Z " />
<glyph glyph-name="uni040D" unicode="&#x40d;" horiz-adv-x="789" d="M520 878 L459 823 L270 951 L365 1028 L520 878 Z M228 754 L228 246 L592 754 L703 754 L703 0 L562 0 L562 502 L198 0 L87 0 L87 754 L228 754 Z " />
<glyph glyph-name="uni041A" unicode="&#x41a;" horiz-adv-x="703" d="M234 754 L234 400 L508 754 L681 754 L380 386 L705 0 L521 0 L234 359 L234 0 L87 0 L87 754 L234 754 Z " />
<glyph glyph-name="uni040C" unicode="&#x40c;" horiz-adv-x="703" d="M296 878 L451 1028 L545 951 L356 823 L296 878 Z M234 754 L234 400 L508 754 L681 754 L380 386 L705 0 L521 0 L234 359 L234 0 L87 0 L87 754 L234 754 Z " />
<glyph glyph-name="uni041B" unicode="&#x41b;" horiz-adv-x="728" d="M642 0 L495 0 L495 626 L295 626 L294 605 Q284 430 274 340 Q264 250 247 189 Q220 91 168 45 Q116 -1 34 -1 Q11 -1 -9 0 L-9 129 Q6 127 17 127 Q64 127 90 170.5 Q116 214 129 318 Q139 392 147 511.5 Q155 631 159 754 L642 754 L642 0 Z " />
<glyph glyph-name="uni041C" unicode="&#x41c;" horiz-adv-x="961" d="M278 767 L484 275 L697 767 L799 767 L924 0 L776 0 L709 464 L502 -10 L461 -10 L261 464 L185 0 L37 0 L177 767 L278 767 Z " />
<glyph glyph-name="uni041D" unicode="&#x41d;" horiz-adv-x="785" d="M553 754 L699 754 L699 0 L553 0 L553 331 L234 331 L234 0 L87 0 L87 754 L234 754 L234 459 L553 459 L553 754 Z " />
<glyph glyph-name="uni041E" unicode="&#x41e;" horiz-adv-x="903" d="M453 771 Q564 771 656 718.5 Q748 666 801 575.5 Q854 485 854 376 Q854 267 800.5 177 Q747 87 653.5 35 Q560 -17 447 -17 Q336 -17 245 35.5 Q154 88 101.5 179.5 Q49 271 49 382 Q49 488 103 577 Q157 666 250 718.5 Q343 771 453 771 Z M451 636 Q384 636 326 601.5 Q268 567 234 508 Q200 449 200 380 Q200 308 233.5 248 Q267 188 325 153 Q383 118 452 118 Q520 118 577.5 153 Q635 188 669 247.5 Q703 307 703 377 Q703 448 669.5 507.5 Q636 567 578 601.5 Q520 636 451 636 Z " />
<glyph glyph-name="uni041F" unicode="&#x41f;" horiz-adv-x="793" d="M707 754 L707 0 L560 0 L560 626 L234 626 L234 0 L87 0 L87 754 L707 754 Z " />
<glyph glyph-name="uni0420" unicode="&#x420;" horiz-adv-x="605" d="M87 0 L87 754 L307 754 Q381 754 426 741 Q471 728 506 696 Q543 663 563 615.5 Q583 568 583 514 Q583 466 567 422 Q551 378 522 346 Q490 312 442.5 295.5 Q395 279 329 279 L234 279 L234 0 L87 0 Z M294 407 Q432 407 432 515 Q432 542 421.5 565 Q411 588 393 602 Q377 615 351.5 620.5 Q326 626 285 626 L234 626 L234 407 L294 407 Z " />
<glyph glyph-name="uni0421" unicode="&#x421;" horiz-adv-x="687" d="M637 541 Q585 586 541 605 Q497 624 445 624 Q376 624 319.5 591 Q263 558 230.5 501 Q198 444 198 374 Q198 306 230.5 249.5 Q263 193 319.5 160.5 Q376 128 444 128 Q497 128 542 147 Q587 166 637 210 L637 31 Q584 6 538 -5.5 Q492 -17 443 -17 Q336 -17 245.5 35 Q155 87 102.5 176.5 Q50 266 50 373 Q50 482 103 572.5 Q156 663 247.5 715.5 Q339 768 449 768 Q500 768 543 757.5 Q586 747 637 721 L637 541 Z " />
<glyph glyph-name="uni0422" unicode="&#x422;" horiz-adv-x="501" d="M176 626 L8 626 L8 754 L493 754 L493 626 L323 626 L323 0 L176 0 L176 626 Z " />
<glyph glyph-name="uni0423" unicode="&#x423;" horiz-adv-x="651" d="M2 754 L174 754 L331 424 L489 754 L661 754 L244 0 L88 0 L252 285 L2 754 Z " />
<glyph glyph-name="uni040E" unicode="&#x40e;" horiz-adv-x="651" d="M242 985 Q255 948 276 931 Q297 914 332 914 Q368 914 389 930.5 Q410 947 424 985 L519 985 Q509 912 459 869.5 Q409 827 332 827 Q256 827 206 869.5 Q156 912 147 985 L242 985 Z M2 754 L174 754 L331 424 L489 754 L661 754 L244 0 L88 0 L252 285 L2 754 Z " />
<glyph glyph-name="uni0424" unicode="&#x424;" horiz-adv-x="1046" d="M457 46 Q385 51 334 61 Q283 71 241 90 Q149 130 99 204.5 Q49 279 49 375 Q49 478 106.5 555.5 Q164 633 268 671 Q343 697 457 704 L457 814 L589 814 L589 704 Q661 699 712 689 Q763 679 806 660 Q898 620 948 545.5 Q998 471 998 375 Q998 272 940.5 194.5 Q883 117 779 79 Q705 53 589 46 L589 -62 L457 -62 L457 46 Z M457 570 Q407 566 373.5 559 Q340 552 312 540 Q257 515 228 473 Q199 431 199 375 Q199 317 233 272 Q267 227 329 203 Q374 187 457 181 L457 570 Z M589 181 Q640 184 673 190.5 Q706 197 734 210 Q789 235 818 277.5 Q847 320 847 375 Q847 434 813.5 478.5 Q780 523 718 547 Q672 563 589 570 L589 181 Z " />
<glyph glyph-name="uni0425" unicode="&#x425;" horiz-adv-x="706" d="M226 754 L359 520 L498 754 L675 754 L443 399 L699 0 L527 0 L357 276 L182 0 L8 0 L275 399 L50 754 L226 754 Z " />
<glyph glyph-name="uni0427" unicode="&#x427;" horiz-adv-x="715" d="M483 238 Q418 228 394.5 226 Q371 224 339 224 Q251 224 185.5 250 Q120 276 86 324 Q44 387 44 520 L44 754 L191 754 L191 533 Q191 474 197.5 445.5 Q204 417 221 397 Q261 351 357 351 Q417 351 483 371 L483 754 L629 754 L629 0 L483 0 L483 238 Z " />
<glyph glyph-name="uni0426" unicode="&#x426;" horiz-adv-x="792" d="M234 754 L234 128 L551 128 L551 754 L698 754 L698 128 L766 128 L766 -145 L634 -145 L634 0 L87 0 L87 754 L234 754 Z " />
<glyph glyph-name="uni0428" unicode="&#x428;" horiz-adv-x="1102" d="M234 754 L234 128 L478 128 L478 754 L625 754 L625 128 L869 128 L869 754 L1016 754 L1016 0 L87 0 L87 754 L234 754 Z " />
<glyph glyph-name="uni0429" unicode="&#x429;" horiz-adv-x="1110" d="M234 754 L234 128 L478 128 L478 754 L625 754 L625 128 L869 128 L869 754 L1016 754 L1016 128 L1084 128 L1084 -145 L951 -145 L951 0 L87 0 L87 754 L234 754 Z " />
<glyph glyph-name="uni040F" unicode="&#x40f;" horiz-adv-x="788" d="M234 754 L234 128 L551 128 L551 754 L698 754 L698 0 L459 0 L459 -145 L327 -145 L327 0 L87 0 L87 754 L234 754 Z " />
<glyph glyph-name="uni042C" unicode="&#x42c;" horiz-adv-x="637" d="M229 754 L229 464 L362 464 Q482 464 544 406.5 Q606 349 606 237 Q606 175 583 124.5 Q560 74 519 44 Q455 0 342 0 L87 0 L87 754 L229 754 Z M319 118 Q364 118 390 125 Q416 132 432 149 Q446 163 454 186 Q462 209 462 234 Q462 261 452.5 285.5 Q443 310 427 324 Q411 338 385.5 344 Q360 350 319 350 L229 350 L229 118 L319 118 Z " />
<glyph glyph-name="uni042A" unicode="&#x42a;" horiz-adv-x="756" d="M3 626 L3 754 L347 754 L347 464 L478 464 Q598 464 657 411 Q689 382 706 337 Q723 292 723 237 Q723 174 700 123 Q677 72 635 44 Q571 0 460 0 L205 0 L205 626 L3 626 Z M436 118 Q481 118 507.5 125.5 Q534 133 549 149 Q563 163 571.5 186 Q580 209 580 234 Q580 261 570.5 285.5 Q561 310 544 324 Q528 338 503 344 Q478 350 436 350 L347 350 L347 118 L436 118 Z " />
<glyph glyph-name="uni042B" unicode="&#x42b;" horiz-adv-x="940" d="M229 754 L229 464 L362 464 Q482 464 544 406.5 Q606 349 606 237 Q606 175 583 124.5 Q560 74 519 44 Q455 0 342 0 L87 0 L87 754 L229 754 Z M853 754 L853 0 L702 0 L702 754 L853 754 Z M319 118 Q364 118 390 125 Q416 132 432 149 Q446 163 454 186 Q462 209 462 234 Q462 261 452.5 285.5 Q443 310 427 324 Q411 338 385.5 344 Q360 350 319 350 L229 350 L229 118 L319 118 Z " />
<glyph glyph-name="uni0409" unicode="&#x409;" horiz-adv-x="1045" d="M295 626 L294 605 Q286 436 275.5 344 Q265 252 247 189 Q220 91 168 45 Q116 -1 34 -1 Q11 -1 -9 0 L-9 129 Q7 127 17 127 Q64 127 90 170.5 Q116 214 129 318 Q139 393 147 512 Q155 631 159 754 L637 754 L637 464 L770 464 Q890 464 952 406.5 Q1014 349 1014 237 Q1014 175 991 124.5 Q968 74 927 44 Q863 0 750 0 L495 0 L495 626 L295 626 Z M727 118 Q771 118 797.5 125 Q824 132 841 149 Q854 163 862 186 Q870 209 870 234 Q870 261 860.5 285.5 Q851 310 835 324 Q819 338 793.5 344 Q768 350 727 350 L637 350 L637 118 L727 118 Z " />
<glyph glyph-name="uni040A" unicode="&#x40a;" horiz-adv-x="1107" d="M234 754 L234 464 L559 464 L559 754 L702 754 L702 464 L834 464 Q954 464 1016 406.5 Q1078 349 1078 237 Q1078 175 1055 123.5 Q1032 72 991 44 Q927 0 815 0 L559 0 L559 347 L234 347 L234 0 L87 0 L87 754 L234 754 Z M791 118 Q836 118 862.5 125.5 Q889 133 904 149 Q918 163 926.5 186 Q935 209 935 234 Q935 262 925.5 286 Q916 310 899 324 Q884 339 859 344.5 Q834 350 791 350 L702 350 L702 118 L791 118 Z " />
</font>
</svg>
