<?xml version="1.0" encoding="UTF-8"?>
<svg xmlns="http://www.w3.org/2000/svg" xmlns:xlink="http://www.w3.org/1999/xlink" version="1.2" >
<font id="ShellBold">
<font-face  font-family="ShellBold" units-per-em="1000" ascent="1050" descent="-300" font-style="normal" font-weight="400" font-stretch="normal" cap-height="749" x-height="512" underline-position="-56" underline-thickness="124" />
<missing-glyph  horiz-adv-x="283" d="" />
<glyph glyph-name="space" unicode="&#x20;" horiz-adv-x="283" d="" />
<glyph glyph-name="A" unicode="A" horiz-adv-x="802" d="M215 0 L8 0 L297 754 L511 754 L794 0 L585 0 L537 131 L267 131 L215 0 Z M321 280 L484 280 L403 521 L321 280 Z " />
<glyph glyph-name="Aacute" unicode="&#xc1;" horiz-adv-x="802" d="M320 885 L484 1040 L589 945 L397 814 L320 885 Z M215 0 L8 0 L297 754 L511 754 L794 0 L585 0 L537 131 L267 131 L215 0 Z M321 280 L484 280 L403 521 L321 280 Z " />
<glyph glyph-name="Abreve" unicode="&#x102;" horiz-adv-x="802" d="M313 999 Q328 932 401 932 Q439 932 460.5 948.5 Q482 965 490 999 L617 999 Q613 917 555.5 871 Q498 825 401 825 Q304 825 247 871 Q190 917 185 999 L313 999 Z M215 0 L8 0 L297 754 L511 754 L794 0 L585 0 L537 131 L267 131 L215 0 Z M321 280 L484 280 L403 521 L321 280 Z " />
<glyph glyph-name="Acircumflex" unicode="&#xc2;" horiz-adv-x="802" d="M632 899 L577 814 L401 902 L226 814 L172 899 L401 1035 L632 899 Z M215 0 L8 0 L297 754 L511 754 L794 0 L585 0 L537 131 L267 131 L215 0 Z M321 280 L484 280 L403 521 L321 280 Z " />
<glyph glyph-name="Adieresis" unicode="&#xc4;" horiz-adv-x="802" d="M266 1020 Q307 1020 335.5 991.5 Q364 963 364 923 Q364 883 335.5 854 Q307 825 267 825 Q225 825 196.5 854 Q168 883 168 924 Q168 963 197 991.5 Q226 1020 266 1020 Z M537 1020 Q578 1020 606.5 991.5 Q635 963 635 923 Q635 883 606.5 854 Q578 825 538 825 Q497 825 468.5 854 Q440 883 440 924 Q440 963 468.5 991.5 Q497 1020 537 1020 Z M215 0 L8 0 L297 754 L511 754 L794 0 L585 0 L537 131 L267 131 L215 0 Z M321 280 L484 280 L403 521 L321 280 Z " />
<glyph glyph-name="Agrave" unicode="&#xc0;" horiz-adv-x="802" d="M490 885 L415 814 L223 945 L327 1040 L490 885 Z M215 0 L8 0 L297 754 L511 754 L794 0 L585 0 L537 131 L267 131 L215 0 Z M321 280 L484 280 L403 521 L321 280 Z " />
<glyph glyph-name="Amacron" unicode="&#x100;" horiz-adv-x="802" d="M610 855 L192 855 L192 966 L610 966 L610 855 Z M215 0 L8 0 L297 754 L511 754 L794 0 L585 0 L537 131 L267 131 L215 0 Z M321 280 L484 280 L403 521 L321 280 Z " />
<glyph glyph-name="Aogonek" unicode="&#x104;" horiz-adv-x="802" d="M215 0 L8 0 L297 754 L511 754 L794 0 Q723 -50 723 -89 Q723 -107 735.5 -119 Q748 -131 767 -131 Q794 -131 827 -114 L801 -216 Q781 -224 762.5 -228 Q744 -232 720 -232 Q669 -232 635.5 -204.5 Q602 -177 602 -134 Q602 -98 625 -66.5 Q648 -35 698 0 L585 0 L537 131 L267 131 L215 0 Z M321 280 L484 280 L403 521 L321 280 Z " />
<glyph glyph-name="Aring" unicode="&#xc5;" horiz-adv-x="802" d="M406 1044 Q475 1044 516 1012.5 Q557 981 557 927 Q557 873 516 841.5 Q475 810 406 810 L398 810 Q327 810 286.5 841.5 Q246 873 246 928 Q246 981 287.5 1012.5 Q329 1044 398 1044 L406 1044 Z M401 970 Q375 970 359.5 958.5 Q344 947 344 928 Q344 908 359 896 Q374 884 401 884 Q428 884 444 895 Q460 906 460 927 Q460 947 444.5 958.5 Q429 970 401 970 Z M215 0 L8 0 L297 754 L511 754 L794 0 L585 0 L537 131 L267 131 L215 0 Z M321 280 L484 280 L403 521 L321 280 Z " />
<glyph glyph-name="Aringacute" unicode="&#x1fa;" horiz-adv-x="802" d="M160 1025 L324 1180 L429 1085 L237 954 L160 1025 Z M410 1008 Q480 1008 521 976.5 Q562 945 562 890 Q562 837 521 805.5 Q480 774 410 774 L402 774 Q332 774 291.5 805.5 Q251 837 251 892 Q251 944 292.5 976 Q334 1008 402 1008 L410 1008 Z M406 933 Q380 933 364 921.5 Q348 910 348 892 Q348 871 363.5 859 Q379 847 406 847 Q433 847 448.5 858.5 Q464 870 464 890 Q464 911 449 922 Q434 933 406 933 Z M215 0 L8 0 L297 754 L511 754 L794 0 L585 0 L537 131 L267 131 L215 0 Z M321 280 L484 280 L403 521 L321 280 Z " />
<glyph glyph-name="Atilde" unicode="&#xc3;" horiz-adv-x="802" d="M181 833 Q181 885 195 920 Q211 954 241 973.5 Q271 993 307 993 Q326 993 348 988.5 Q370 984 410 970 Q458 954 481 954 Q499 954 508.5 963 Q518 972 524 994 L623 994 Q619 957 614.5 938 Q610 919 602 903 Q567 833 483 833 Q440 833 390 852 Q352 866 339.5 869.5 Q327 873 313 873 Q296 873 289 865.5 Q282 858 275 833 L181 833 Z M215 0 L8 0 L297 754 L511 754 L794 0 L585 0 L537 131 L267 131 L215 0 Z M321 280 L484 280 L403 521 L321 280 Z " />
<glyph glyph-name="AE" unicode="&#xc6;" horiz-adv-x="1044" d="M215 0 L8 0 L298 754 L759 754 L820 588 L573 588 L619 462 L866 462 L929 296 L680 296 L729 166 L976 166 L1036 0 L582 0 L533 132 L261 132 L215 0 Z M315 280 L481 280 L400 505 L315 280 Z " />
<glyph glyph-name="AEacute" unicode="&#x1fc;" horiz-adv-x="1044" d="M410 885 L573 1040 L678 945 L486 814 L410 885 Z M215 0 L8 0 L298 754 L759 754 L820 588 L573 588 L619 462 L866 462 L929 296 L680 296 L729 166 L976 166 L1036 0 L582 0 L533 132 L261 132 L215 0 Z M315 280 L481 280 L400 505 L315 280 Z " />
<glyph glyph-name="B" unicode="B" horiz-adv-x="698" d="M370 754 Q473 754 527.5 703 Q582 652 582 557 Q582 500 562.5 463.5 Q543 427 499 402 Q541 394 563.5 384 Q586 374 605 355 Q628 331 640.5 294 Q653 257 653 214 Q653 114 583.5 57 Q514 0 393 0 L79 0 L79 754 L370 754 Z M311 457 Q356 457 379 476 Q402 495 402 530 Q402 603 311 603 L275 603 L275 457 L311 457 Z M318 153 Q391 153 423 171.5 Q455 190 455 232 Q455 253 445 271 Q435 289 418 297 Q400 306 380.5 308.5 Q361 311 314 311 L275 311 L275 153 L318 153 Z " />
<glyph glyph-name="C" unicode="C" horiz-adv-x="667" d="M621 497 Q553 580 452 580 Q394 580 348 553.5 Q302 527 276 479.5 Q250 432 250 372 Q250 275 316 219 Q379 169 452 169 Q548 169 621 249 L621 17 Q553 -7 520.5 -13.5 Q488 -20 446 -20 Q362 -20 282 15 Q202 50 145 111 Q96 163 70.5 229 Q45 295 45 371 Q45 480 98 571.5 Q151 663 242.5 716.5 Q334 770 444 770 Q488 770 527.5 761 Q567 752 621 731 L621 497 Z " />
<glyph glyph-name="Cacute" unicode="&#x106;" horiz-adv-x="667" d="M328 885 L490 1040 L596 945 L403 814 L328 885 Z M621 497 Q553 580 452 580 Q394 580 348 553.5 Q302 527 276 479.5 Q250 432 250 372 Q250 275 316 219 Q379 169 452 169 Q548 169 621 249 L621 17 Q553 -7 520.5 -13.5 Q488 -20 446 -20 Q362 -20 282 15 Q202 50 145 111 Q96 163 70.5 229 Q45 295 45 371 Q45 480 98 571.5 Q151 663 242.5 716.5 Q334 770 444 770 Q488 770 527.5 761 Q567 752 621 731 L621 497 Z " />
<glyph glyph-name="Ccaron" unicode="&#x10c;" horiz-adv-x="667" d="M179 949 L233 1035 L409 947 L584 1035 L638 949 L409 814 L179 949 Z M621 497 Q553 580 452 580 Q394 580 348 553.5 Q302 527 276 479.5 Q250 432 250 372 Q250 275 316 219 Q379 169 452 169 Q548 169 621 249 L621 17 Q553 -7 520.5 -13.5 Q488 -20 446 -20 Q362 -20 282 15 Q202 50 145 111 Q96 163 70.5 229 Q45 295 45 371 Q45 480 98 571.5 Q151 663 242.5 716.5 Q334 770 444 770 Q488 770 527.5 761 Q567 752 621 731 L621 497 Z " />
<glyph glyph-name="Ccedilla" unicode="&#xc7;" horiz-adv-x="667" d="M621 497 Q553 580 452 580 Q394 580 348 553.5 Q302 527 276 479.5 Q250 432 250 372 Q250 275 316 219 Q379 169 452 169 Q548 169 621 249 L621 17 Q553 -7 520.5 -13.5 Q488 -20 446 -20 Q362 -20 282 15 Q202 50 145 111 Q96 163 70.5 229 Q45 295 45 371 Q45 480 98 571.5 Q151 663 242.5 716.5 Q334 770 444 770 Q488 770 527.5 761 Q567 752 621 731 L621 497 Z M264 -221 L397 -52 L508 -130 L353 -283 L264 -221 Z " />
<glyph glyph-name="Ccircumflex" unicode="&#x108;" horiz-adv-x="667" d="M638 899 L584 814 L409 902 L233 814 L179 899 L409 1035 L638 899 Z M621 497 Q553 580 452 580 Q394 580 348 553.5 Q302 527 276 479.5 Q250 432 250 372 Q250 275 316 219 Q379 169 452 169 Q548 169 621 249 L621 17 Q553 -7 520.5 -13.5 Q488 -20 446 -20 Q362 -20 282 15 Q202 50 145 111 Q96 163 70.5 229 Q45 295 45 371 Q45 480 98 571.5 Q151 663 242.5 716.5 Q334 770 444 770 Q488 770 527.5 761 Q567 752 621 731 L621 497 Z " />
<glyph glyph-name="Cdotaccent" unicode="&#x10a;" horiz-adv-x="667" d="M408 1020 Q449 1020 477.5 991.5 Q506 963 506 923 Q506 883 477.5 854 Q449 825 409 825 Q368 825 339.5 854 Q311 883 311 924 Q311 963 339.5 991.5 Q368 1020 408 1020 Z M621 497 Q553 580 452 580 Q394 580 348 553.5 Q302 527 276 479.5 Q250 432 250 372 Q250 275 316 219 Q379 169 452 169 Q548 169 621 249 L621 17 Q553 -7 520.5 -13.5 Q488 -20 446 -20 Q362 -20 282 15 Q202 50 145 111 Q96 163 70.5 229 Q45 295 45 371 Q45 480 98 571.5 Q151 663 242.5 716.5 Q334 770 444 770 Q488 770 527.5 761 Q567 752 621 731 L621 497 Z " />
<glyph glyph-name="D" unicode="D" horiz-adv-x="785" d="M368 754 Q466 754 551.5 702 Q637 650 688 563.5 Q739 477 739 377 Q739 277 688 190.5 Q637 104 551.5 52 Q466 0 368 0 L79 0 L79 754 L368 754 Z M320 166 Q375 166 413 181 Q451 196 480 229 Q506 258 520 296.5 Q534 335 534 377 Q534 419 520 457.5 Q506 496 480 524 Q451 557 412.5 572.5 Q374 588 320 588 L275 588 L275 166 L320 166 Z " />
<glyph glyph-name="Eth" unicode="&#xd0;" horiz-adv-x="785" d="M11 324 L11 452 L79 452 L79 754 L368 754 Q466 754 552 702 Q638 650 689 563.5 Q740 477 740 377 Q740 277 689 190.5 Q638 104 552 52 Q466 0 368 0 L79 0 L79 324 L11 324 Z M320 166 Q375 166 413.5 181 Q452 196 481 229 Q507 258 521.5 296.5 Q536 335 536 377 Q536 419 521.5 457 Q507 495 481 524 Q452 557 413 572.5 Q374 588 320 588 L275 588 L275 452 L403 452 L403 324 L275 324 L275 166 L320 166 Z " />
<glyph glyph-name="Dcaron" unicode="&#x10e;" horiz-adv-x="785" d="M125 949 L179 1035 L355 947 L531 1035 L585 949 L355 814 L125 949 Z M368 754 Q466 754 551.5 702 Q637 650 688 563.5 Q739 477 739 377 Q739 277 688 190.5 Q637 104 551.5 52 Q466 0 368 0 L79 0 L79 754 L368 754 Z M320 166 Q375 166 413 181 Q451 196 480 229 Q506 258 520 296.5 Q534 335 534 377 Q534 419 520 457.5 Q506 496 480 524 Q451 557 412.5 572.5 Q374 588 320 588 L275 588 L275 166 L320 166 Z " />
<glyph glyph-name="Dcroat" unicode="&#x110;" horiz-adv-x="785" d="M11 324 L11 452 L79 452 L79 754 L368 754 Q466 754 552 702 Q638 650 689 563.5 Q740 477 740 377 Q740 277 689 190.5 Q638 104 552 52 Q466 0 368 0 L79 0 L79 324 L11 324 Z M320 166 Q375 166 413.5 181 Q452 196 481 229 Q507 258 521.5 296.5 Q536 335 536 377 Q536 419 521.5 457 Q507 495 481 524 Q452 557 413 572.5 Q374 588 320 588 L275 588 L275 452 L403 452 L403 324 L275 324 L275 166 L320 166 Z " />
<glyph glyph-name="E" unicode="E" horiz-adv-x="553" d="M275 462 L495 462 L495 296 L275 296 L275 166 L507 166 L507 0 L79 0 L79 754 L507 754 L507 588 L275 588 L275 462 Z " />
<glyph glyph-name="Eacute" unicode="&#xc9;" horiz-adv-x="553" d="M202 885 L366 1040 L471 945 L279 814 L202 885 Z M275 462 L495 462 L495 296 L275 296 L275 166 L507 166 L507 0 L79 0 L79 754 L507 754 L507 588 L275 588 L275 462 Z " />
<glyph glyph-name="Ebreve" unicode="&#x114;" horiz-adv-x="553" d="M205 999 Q220 932 294 932 Q367 932 382 999 L510 999 Q505 917 448 871 Q391 825 294 825 Q197 825 139.5 871 Q82 917 78 999 L205 999 Z M275 462 L495 462 L495 296 L275 296 L275 166 L507 166 L507 0 L79 0 L79 754 L507 754 L507 588 L275 588 L275 462 Z " />
<glyph glyph-name="Ecaron" unicode="&#x11a;" horiz-adv-x="553" d="M63 949 L118 1035 L294 947 L469 1035 L523 949 L294 814 L63 949 Z M275 462 L495 462 L495 296 L275 296 L275 166 L507 166 L507 0 L79 0 L79 754 L507 754 L507 588 L275 588 L275 462 Z " />
<glyph glyph-name="Ecircumflex" unicode="&#xca;" horiz-adv-x="553" d="M523 899 L469 814 L294 902 L118 814 L63 899 L294 1035 L523 899 Z M275 462 L495 462 L495 296 L275 296 L275 166 L507 166 L507 0 L79 0 L79 754 L507 754 L507 588 L275 588 L275 462 Z " />
<glyph glyph-name="Edieresis" unicode="&#xcb;" horiz-adv-x="553" d="M162 1020 Q203 1020 231.5 991.5 Q260 963 260 923 Q260 883 231.5 854 Q203 825 163 825 Q121 825 92.5 854 Q64 883 64 924 Q64 963 93 991.5 Q122 1020 162 1020 Z M425 1020 Q466 1020 494.5 991.5 Q523 963 523 923 Q523 883 494.5 854 Q466 825 426 825 Q385 825 356.5 854 Q328 883 328 924 Q328 963 356.5 991.5 Q385 1020 425 1020 Z M275 462 L495 462 L495 296 L275 296 L275 166 L508 166 L508 0 L79 0 L79 754 L508 754 L508 588 L275 588 L275 462 Z " />
<glyph glyph-name="Edotaccent" unicode="&#x116;" horiz-adv-x="553" d="M293 1020 Q334 1020 362.5 991.5 Q391 963 391 923 Q391 883 362.5 854 Q334 825 294 825 Q252 825 223.5 854 Q195 883 195 924 Q195 963 224 991.5 Q253 1020 293 1020 Z M275 462 L495 462 L495 296 L275 296 L275 166 L507 166 L507 0 L79 0 L79 754 L507 754 L507 588 L275 588 L275 462 Z " />
<glyph glyph-name="Egrave" unicode="&#xc8;" horiz-adv-x="553" d="M403 885 L327 814 L134 945 L240 1040 L403 885 Z M275 462 L495 462 L495 296 L275 296 L275 166 L507 166 L507 0 L79 0 L79 754 L507 754 L507 588 L275 588 L275 462 Z " />
<glyph glyph-name="Emacron" unicode="&#x112;" horiz-adv-x="553" d="M503 855 L85 855 L85 966 L503 966 L503 855 Z M275 462 L495 462 L495 296 L275 296 L275 166 L507 166 L507 0 L79 0 L79 754 L507 754 L507 588 L275 588 L275 462 Z " />
<glyph glyph-name="Eogonek" unicode="&#x118;" horiz-adv-x="553" d="M275 462 L495 462 L495 296 L275 296 L275 166 L507 166 L507 0 Q436 -49 436 -89 Q436 -107 448.5 -119 Q461 -131 480 -131 Q506 -131 539 -114 L513 -216 Q477 -232 433 -232 Q382 -232 348.5 -204.5 Q315 -177 315 -134 Q315 -98 337.5 -66.5 Q360 -35 410 0 L79 0 L79 754 L507 754 L507 588 L275 588 L275 462 Z " />
<glyph glyph-name="F" unicode="F" horiz-adv-x="548" d="M275 462 L489 462 L489 296 L275 296 L275 0 L79 0 L79 754 L511 754 L511 588 L275 588 L275 462 Z " />
<glyph glyph-name="G" unicode="G" horiz-adv-x="879" d="M834 418 Q832 334 823.5 282.5 Q815 231 794 186 Q747 83 657.5 28 Q568 -27 447 -27 Q329 -27 238 23.5 Q147 74 96 165 Q45 256 45 373 Q45 492 96.5 584 Q148 676 241 726.5 Q334 777 454 777 Q575 777 657.5 725.5 Q740 674 793 565 L607 488 Q582 549 542 578.5 Q502 608 445 608 Q390 608 345.5 577 Q301 546 275.5 492.5 Q250 439 250 372 Q250 320 268 271.5 Q286 223 318 189 Q367 134 451 134 Q491 134 524 148.5 Q557 163 579 190 Q590 205 596 221.5 Q602 238 606 266 L445 266 L445 418 L834 418 Z " />
<glyph glyph-name="Gbreve" unicode="&#x11e;" horiz-adv-x="879" d="M351 999 Q359 965 381 948.5 Q403 932 440 932 Q513 932 528 999 L655 999 Q651 917 593.5 871 Q536 825 440 825 Q343 825 285.5 871 Q228 917 224 999 L351 999 Z M834 418 Q832 334 823.5 282.5 Q815 231 794 186 Q747 83 657.5 28 Q568 -27 447 -27 Q329 -27 238 23.5 Q147 74 96 165 Q45 256 45 373 Q45 492 96.5 584 Q148 676 241 726.5 Q334 777 454 777 Q575 777 657.5 725.5 Q740 674 793 565 L607 488 Q582 549 542 578.5 Q502 608 445 608 Q390 608 345.5 577 Q301 546 275.5 492.5 Q250 439 250 372 Q250 320 268 271.5 Q286 223 318 189 Q367 134 451 134 Q491 134 524 148.5 Q557 163 579 190 Q590 205 596 221.5 Q602 238 606 266 L445 266 L445 418 L834 418 Z " />
<glyph glyph-name="Gcaron" unicode="&#x1e6;" horiz-adv-x="879" d="M214 949 L268 1035 L443 947 L619 1035 L673 949 L443 814 L214 949 Z M834 418 Q832 334 823.5 282.5 Q815 231 794 186 Q747 83 657.5 28 Q568 -27 447 -27 Q329 -27 238 23.5 Q147 74 96 165 Q45 256 45 373 Q45 492 96.5 584 Q148 676 241 726.5 Q334 777 454 777 Q575 777 657.5 725.5 Q740 674 793 565 L607 488 Q582 549 542 578.5 Q502 608 445 608 Q390 608 345.5 577 Q301 546 275.5 492.5 Q250 439 250 372 Q250 320 268 271.5 Q286 223 318 189 Q367 134 451 134 Q491 134 524 148.5 Q557 163 579 190 Q590 205 596 221.5 Q602 238 606 266 L445 266 L445 418 L834 418 Z " />
<glyph glyph-name="Gcircumflex" unicode="&#x11c;" horiz-adv-x="879" d="M669 899 L616 814 L440 902 L263 814 L209 899 L440 1035 L669 899 Z M834 418 Q832 334 823.5 282.5 Q815 231 794 186 Q747 83 657.5 28 Q568 -27 447 -27 Q329 -27 238 23.5 Q147 74 96 165 Q45 256 45 373 Q45 492 96.5 584 Q148 676 241 726.5 Q334 777 454 777 Q575 777 657.5 725.5 Q740 674 793 565 L607 488 Q582 549 542 578.5 Q502 608 445 608 Q390 608 345.5 577 Q301 546 275.5 492.5 Q250 439 250 372 Q250 320 268 271.5 Q286 223 318 189 Q367 134 451 134 Q491 134 524 148.5 Q557 163 579 190 Q590 205 596 221.5 Q602 238 606 266 L445 266 L445 418 L834 418 Z " />
<glyph glyph-name="uni0122" unicode="&#x122;" horiz-adv-x="879" d="M834 418 Q832 334 823.5 282.5 Q815 231 794 186 Q747 83 657.5 28 Q568 -27 447 -27 Q329 -27 238 23.5 Q147 74 96 165 Q45 256 45 373 Q45 492 96.5 584 Q148 676 241 726.5 Q334 777 454 777 Q575 777 657.5 725.5 Q740 674 793 565 L607 488 Q582 549 542 578.5 Q502 608 445 608 Q390 608 345.5 577 Q301 546 275.5 492.5 Q250 439 250 372 Q250 320 268 271.5 Q286 223 318 189 Q367 134 451 134 Q491 134 524 148.5 Q557 163 579 190 Q590 205 596 221.5 Q602 238 606 266 L445 266 L445 418 L834 418 Z M429 -257 L305 -257 L380 -68 L532 -68 L429 -257 Z " />
<glyph glyph-name="Gdotaccent" unicode="&#x120;" horiz-adv-x="879" d="M438 1020 Q479 1020 508 991.5 Q537 963 537 923 Q537 883 508.5 854 Q480 825 440 825 Q398 825 369.5 854 Q341 883 341 924 Q341 963 369.5 991.5 Q398 1020 438 1020 Z M834 418 Q832 334 823.5 282.5 Q815 231 794 186 Q747 83 657.5 28 Q568 -27 447 -27 Q329 -27 238 23.5 Q147 74 96 165 Q45 256 45 373 Q45 492 96.5 584 Q148 676 241 726.5 Q334 777 454 777 Q575 777 657.5 725.5 Q740 674 793 565 L607 488 Q582 549 542 578.5 Q502 608 445 608 Q390 608 345.5 577 Q301 546 275.5 492.5 Q250 439 250 372 Q250 320 268 271.5 Q286 223 318 189 Q367 134 451 134 Q491 134 524 148.5 Q557 163 579 190 Q590 205 596 221.5 Q602 238 606 266 L445 266 L445 418 L834 418 Z " />
<glyph glyph-name="H" unicode="H" horiz-adv-x="833" d="M558 754 L754 754 L754 0 L558 0 L558 310 L275 310 L275 0 L79 0 L79 754 L275 754 L275 462 L558 462 L558 754 Z " />
<glyph glyph-name="Hbar" unicode="&#x126;" horiz-adv-x="833" d="M754 657 L822 657 L822 542 L754 542 L754 0 L558 0 L558 310 L275 310 L275 0 L79 0 L79 542 L11 542 L11 657 L79 657 L79 754 L275 754 L275 657 L558 657 L558 754 L754 754 L754 657 Z M275 462 L558 462 L558 542 L275 542 L275 462 Z " />
<glyph glyph-name="Hcircumflex" unicode="&#x124;" horiz-adv-x="833" d="M646 899 L592 814 L416 902 L241 814 L186 899 L416 1035 L646 899 Z M558 754 L754 754 L754 0 L558 0 L558 310 L275 310 L275 0 L79 0 L79 754 L275 754 L275 462 L558 462 L558 754 Z " />
<glyph glyph-name="I" unicode="I" horiz-adv-x="354" d="M79 0 L79 754 L275 754 L275 0 L79 0 Z " />
<glyph glyph-name="IJ" unicode="&#x132;" horiz-adv-x="876" d="M79 0 L79 754 L275 754 L275 0 L79 0 Z M797 233 Q797 169 784.5 132 Q772 95 739 59 Q704 21 655.5 0.5 Q607 -20 551 -20 Q489 -20 441.5 7 Q394 34 355 92 L483 221 Q487 188 504 168 Q521 148 546 148 Q567 148 580 160 Q593 172 598 195 Q600 211 600.5 226.5 Q601 242 601 278 L601 754 L797 754 L797 233 Z " />
<glyph glyph-name="Iacute" unicode="&#xcd;" horiz-adv-x="354" d="M92 885 L255 1040 L360 945 L168 814 L92 885 Z M79 0 L79 754 L275 754 L275 0 L79 0 Z " />
<glyph glyph-name="Ibreve" unicode="&#x12c;" horiz-adv-x="354" d="M88 999 Q103 932 177 932 Q214 932 236 948.5 Q258 965 266 999 L393 999 Q388 917 331 871 Q274 825 177 825 Q81 825 23.5 871.5 Q-34 918 -38 999 L88 999 Z M79 0 L79 754 L275 754 L275 0 L79 0 Z " />
<glyph glyph-name="Icircumflex" unicode="&#xce;" horiz-adv-x="354" d="M391 899 L338 814 L176 902 L16 814 L-38 899 L176 1035 L391 899 Z M79 0 L79 754 L275 754 L275 0 L79 0 Z " />
<glyph glyph-name="Idieresis" unicode="&#xcf;" horiz-adv-x="354" d="M60 1020 Q101 1020 129.5 991.5 Q158 963 158 923 Q158 883 129.5 854 Q101 825 61 825 Q20 825 -8.5 854 Q-37 883 -37 924 Q-37 963 -8.5 991.5 Q20 1020 60 1020 Z M294 1020 Q335 1020 363.5 991.5 Q392 963 392 923 Q392 883 363.5 854 Q335 825 295 825 Q254 825 225.5 854 Q197 883 197 924 Q197 963 225.5 991.5 Q254 1020 294 1020 Z M79 0 L79 754 L275 754 L275 0 L79 0 Z " />
<glyph glyph-name="Idot" unicode="&#x130;" horiz-adv-x="354" d="M176 1020 Q217 1020 246 991.5 Q275 963 275 923 Q275 883 246.5 854 Q218 825 177 825 Q136 825 107.5 854 Q79 883 79 924 Q79 963 107.5 991.5 Q136 1020 176 1020 Z M79 0 L79 754 L275 754 L275 0 L79 0 Z " />
<glyph glyph-name="Igrave" unicode="&#xcc;" horiz-adv-x="354" d="M262 885 L186 814 L-6 945 L99 1040 L262 885 Z M79 0 L79 754 L275 754 L275 0 L79 0 Z " />
<glyph glyph-name="Imacron" unicode="&#x12a;" horiz-adv-x="354" d="M371 855 L-17 855 L-17 966 L371 966 L371 855 Z M79 0 L79 754 L275 754 L275 0 L79 0 Z " />
<glyph glyph-name="Iogonek" unicode="&#x12e;" horiz-adv-x="354" d="M275 754 L275 0 Q235 -16 213.5 -39 Q192 -62 192 -88 Q192 -107 204.5 -119 Q217 -131 236 -131 Q251 -131 264.5 -127.5 Q278 -124 297 -114 L271 -216 Q251 -224 232.5 -228 Q214 -232 190 -232 Q138 -232 105 -204 Q72 -176 72 -133 Q72 -56 168 0 L79 0 L79 754 L275 754 Z " />
<glyph glyph-name="Itilde" unicode="&#x128;" horiz-adv-x="354" d="M-44 833 Q-44 862 -40.5 882 Q-37 902 -28 920 Q-14 954 16 973.5 Q46 993 82 993 Q101 993 123 988.5 Q145 984 186 970 Q233 954 257 954 Q274 954 284.5 963 Q295 972 301 994 L398 994 Q393 953 389 935.5 Q385 918 377 903 Q361 869 330.5 851 Q300 833 259 833 Q215 833 165 852 Q127 866 114.5 869.5 Q102 873 88 873 Q72 873 64.5 865 Q57 857 51 833 L-44 833 Z M79 0 L79 754 L275 754 L275 0 L79 0 Z " />
<glyph glyph-name="J" unicode="J" horiz-adv-x="529" d="M451 233 Q451 169 438.5 132 Q426 95 393 59 Q358 21 309.5 0.5 Q261 -20 206 -20 Q143 -20 95 7.5 Q47 35 9 92 L137 221 Q141 188 158 168 Q175 148 200 148 Q221 148 234 160 Q247 172 252 195 Q254 211 254.5 226.5 Q255 242 255 278 L255 754 L451 754 L451 233 Z " />
<glyph glyph-name="Jcircumflex" unicode="&#x134;" horiz-adv-x="529" d="M574 899 L520 814 L345 902 L168 814 L114 899 L345 1035 L574 899 Z M450 233 Q450 169 437.5 132 Q425 95 392 59 Q357 21 308.5 0.5 Q260 -20 205 -20 Q142 -20 94 7.5 Q46 35 8 92 L136 221 Q140 188 157 168 Q174 148 199 148 Q220 148 233 160 Q246 172 251 195 Q253 211 253.5 226.5 Q254 242 254 278 L254 754 L450 754 L450 233 Z " />
<glyph glyph-name="K" unicode="K" horiz-adv-x="791" d="M755 754 L457 397 L783 0 L529 0 L275 327 L275 0 L79 0 L79 754 L275 754 L275 443 L513 754 L755 754 Z " />
<glyph glyph-name="uni0136" unicode="&#x136;" horiz-adv-x="791" d="M755 754 L457 397 L783 0 L529 0 L275 327 L275 0 L79 0 L79 754 L275 754 L275 443 L513 754 L755 754 Z M385 -257 L261 -257 L336 -68 L488 -68 L385 -257 Z " />
<glyph glyph-name="L" unicode="L" horiz-adv-x="531" d="M510 166 L510 0 L79 0 L79 754 L275 754 L275 166 L510 166 Z " />
<glyph glyph-name="Lacute" unicode="&#x139;" horiz-adv-x="531" d="M102 885 L264 1040 L370 945 L177 814 L102 885 Z M510 166 L510 0 L79 0 L79 754 L275 754 L275 166 L510 166 Z " />
<glyph glyph-name="Lcaron" unicode="&#x13d;" horiz-adv-x="531" d="M510 166 L510 0 L79 0 L79 754 L275 754 L275 166 L510 166 Z M444 558 L320 558 L394 754 L548 754 L444 558 Z " />
<glyph glyph-name="uni013B" unicode="&#x13b;" horiz-adv-x="531" d="M510 166 L510 0 L79 0 L79 754 L275 754 L275 166 L510 166 Z M278 -257 L154 -257 L228 -68 L381 -68 L278 -257 Z " />
<glyph glyph-name="Ldot" unicode="&#x13f;" horiz-adv-x="531" d="M524 166 L524 0 L94 0 L94 754 L289 754 L289 166 L524 166 Z M449 494 Q498 494 532 460 Q566 426 566 377 Q566 328 532 294 Q498 260 450 260 Q400 260 366 294.5 Q332 329 332 379 Q332 426 366.5 460 Q401 494 449 494 Z " />
<glyph glyph-name="Lslash" unicode="&#x141;" horiz-adv-x="542" d="M415 588 L415 443 L284 354 L284 166 L521 166 L521 0 L88 0 L88 260 L11 202 L11 347 L88 405 L88 754 L284 754 L284 498 L415 588 Z " />
<glyph glyph-name="M" unicode="M" horiz-adv-x="1034" d="M366 754 L519 351 L680 754 L876 754 L989 0 L793 0 L738 434 L556 0 L478 0 L304 434 L240 0 L45 0 L173 754 L366 754 Z " />
<glyph glyph-name="N" unicode="N" horiz-adv-x="910" d="M275 754 L635 293 L635 754 L831 754 L831 0 L635 0 L275 461 L275 0 L79 0 L79 754 L275 754 Z " />
<glyph glyph-name="Nacute" unicode="&#x143;" horiz-adv-x="910" d="M374 885 L537 1040 L642 945 L450 814 L374 885 Z M275 754 L635 293 L635 754 L831 754 L831 0 L635 0 L275 461 L275 0 L79 0 L79 754 L275 754 Z " />
<glyph glyph-name="Ncaron" unicode="&#x147;" horiz-adv-x="910" d="M225 949 L279 1035 L455 947 L631 1035 L685 949 L455 814 L225 949 Z M275 754 L635 293 L635 754 L831 754 L831 0 L635 0 L275 461 L275 0 L79 0 L79 754 L275 754 Z " />
<glyph glyph-name="uni0145" unicode="&#x145;" horiz-adv-x="910" d="M275 754 L635 293 L635 754 L831 754 L831 0 L635 0 L275 461 L275 0 L79 0 L79 754 L275 754 Z M445 -257 L321 -257 L395 -68 L548 -68 L445 -257 Z " />
<glyph glyph-name="Eng" unicode="&#x14a;" horiz-adv-x="833" d="M275 659 Q323 724 371 750 Q419 776 493 776 Q618 776 690 692 Q726 651 740 604.5 Q754 558 754 479 L754 124 Q754 54 738.5 11 Q723 -32 684 -69 Q643 -107 586.5 -128.5 Q530 -150 469 -150 Q434 -150 409.5 -144.5 Q385 -139 350 -123 L350 49 Q382 35 401 30 Q420 25 444 25 Q475 25 501 35.5 Q527 46 541 63 Q551 76 554.5 101 Q558 126 558 177 L558 409 Q558 468 555 488 Q552 508 541 528 Q526 555 494.5 570.5 Q463 586 425 586 Q390 586 358 572.5 Q326 559 305 536 Q289 517 282 493.5 Q275 470 275 432 L275 0 L79 0 L79 754 L275 754 L275 659 Z " />
<glyph glyph-name="Ntilde" unicode="&#xd1;" horiz-adv-x="910" d="M242 833 Q242 862 245.5 882 Q249 902 258 920 Q272 954 302 973.5 Q332 993 368 993 Q387 993 409 988.5 Q431 984 471 970 Q519 954 542 954 Q560 954 569.5 963 Q579 972 586 994 L684 994 Q680 957 675.5 938 Q671 919 663 903 Q647 869 616.5 851 Q586 833 545 833 Q501 833 451 852 Q413 866 400.5 869.5 Q388 873 374 873 Q357 873 350 865.5 Q343 858 337 833 L242 833 Z M275 754 L635 293 L635 754 L831 754 L831 0 L635 0 L275 461 L275 0 L79 0 L79 754 L275 754 Z " />
<glyph glyph-name="O" unicode="O" horiz-adv-x="924" d="M462 776 Q650 776 771 650 Q823 595 851 524 Q879 453 879 375 Q879 285 842.5 205 Q806 125 738 68 Q623 -27 459 -27 Q342 -27 247.5 26 Q153 79 99 172.5 Q45 266 45 382 Q45 467 82 546 Q119 625 186 681 Q240 727 311.5 751.5 Q383 776 462 776 Z M462 586 Q405 586 356 558 Q307 530 278.5 481.5 Q250 433 250 377 Q250 318 278.5 269 Q307 220 355.5 191.5 Q404 163 462 163 Q520 163 569 191.5 Q618 220 646.5 268.5 Q675 317 675 375 Q675 433 646.5 481 Q618 529 569 557.5 Q520 586 462 586 Z " />
<glyph glyph-name="Oacute" unicode="&#xd3;" horiz-adv-x="924" d="M373 885 L537 1040 L642 945 L450 814 L373 885 Z M462 776 Q650 776 771 650 Q823 595 851 524 Q879 453 879 375 Q879 285 842.5 205 Q806 125 738 68 Q623 -27 459 -27 Q342 -27 247.5 26 Q153 79 99 172.5 Q45 266 45 382 Q45 467 82 546 Q119 625 186 681 Q240 727 311.5 751.5 Q383 776 462 776 Z M462 586 Q405 586 356 558 Q307 530 278.5 481.5 Q250 433 250 377 Q250 318 278.5 269 Q307 220 355.5 191.5 Q404 163 462 163 Q520 163 569 191.5 Q618 220 646.5 268.5 Q675 317 675 375 Q675 433 646.5 481 Q618 529 569 557.5 Q520 586 462 586 Z " />
<glyph glyph-name="Obreve" unicode="&#x14e;" horiz-adv-x="924" d="M374 999 Q389 932 462 932 Q535 932 550 999 L678 999 Q673 917 616 871 Q559 825 462 825 Q365 825 307.5 871 Q250 917 246 999 L374 999 Z M462 776 Q650 776 771 650 Q823 595 851 524 Q879 453 879 375 Q879 285 842.5 205 Q806 125 738 68 Q623 -27 459 -27 Q342 -27 247.5 26 Q153 79 99 172.5 Q45 266 45 382 Q45 467 82 546 Q119 625 186 681 Q240 727 311.5 751.5 Q383 776 462 776 Z M462 586 Q405 586 356 558 Q307 530 278.5 481.5 Q250 433 250 377 Q250 318 278.5 269 Q307 220 355.5 191.5 Q404 163 462 163 Q520 163 569 191.5 Q618 220 646.5 268.5 Q675 317 675 375 Q675 433 646.5 481 Q618 529 569 557.5 Q520 586 462 586 Z " />
<glyph glyph-name="Ocircumflex" unicode="&#xd4;" horiz-adv-x="924" d="M693 899 L638 814 L462 902 L286 814 L233 899 L462 1035 L693 899 Z M462 776 Q650 776 771 650 Q823 595 851 524 Q879 453 879 375 Q879 285 842.5 205 Q806 125 738 68 Q623 -27 459 -27 Q342 -27 247.5 26 Q153 79 99 172.5 Q45 266 45 382 Q45 467 82 546 Q119 625 186 681 Q240 727 311.5 751.5 Q383 776 462 776 Z M462 586 Q405 586 356 558 Q307 530 278.5 481.5 Q250 433 250 377 Q250 318 278.5 269 Q307 220 355.5 191.5 Q404 163 462 163 Q520 163 569 191.5 Q618 220 646.5 268.5 Q675 317 675 375 Q675 433 646.5 481 Q618 529 569 557.5 Q520 586 462 586 Z " />
<glyph glyph-name="Odieresis" unicode="&#xd6;" horiz-adv-x="924" d="M325 1020 Q366 1020 395 991.5 Q424 963 424 923 Q424 883 395.5 854 Q367 825 327 825 Q285 825 256.5 854 Q228 883 228 924 Q228 963 256.5 991.5 Q285 1020 325 1020 Z M597 1020 Q638 1020 666.5 991.5 Q695 963 695 923 Q695 883 666.5 854 Q638 825 598 825 Q556 825 527.5 854 Q499 883 499 924 Q499 963 528 991.5 Q557 1020 597 1020 Z M462 776 Q650 776 771 650 Q823 595 851 524 Q879 453 879 375 Q879 285 842.5 205 Q806 125 738 68 Q623 -27 459 -27 Q342 -27 247.5 26 Q153 79 99 172.5 Q45 266 45 382 Q45 467 82 546 Q119 625 186 681 Q240 727 311.5 751.5 Q383 776 462 776 Z M462 586 Q405 586 356 558 Q307 530 278.5 481.5 Q250 433 250 377 Q250 318 278.5 269 Q307 220 355.5 191.5 Q404 163 462 163 Q520 163 569 191.5 Q618 220 646.5 268.5 Q675 317 675 375 Q675 433 646.5 481 Q618 529 569 557.5 Q520 586 462 586 Z " />
<glyph glyph-name="Ograve" unicode="&#xd2;" horiz-adv-x="924" d="M558 885 L483 814 L290 945 L395 1040 L558 885 Z M462 776 Q650 776 771 650 Q823 595 851 524 Q879 453 879 375 Q879 285 842.5 205 Q806 125 738 68 Q623 -27 459 -27 Q342 -27 247.5 26 Q153 79 99 172.5 Q45 266 45 382 Q45 467 82 546 Q119 625 186 681 Q240 727 311.5 751.5 Q383 776 462 776 Z M462 586 Q405 586 356 558 Q307 530 278.5 481.5 Q250 433 250 377 Q250 318 278.5 269 Q307 220 355.5 191.5 Q404 163 462 163 Q520 163 569 191.5 Q618 220 646.5 268.5 Q675 317 675 375 Q675 433 646.5 481 Q618 529 569 557.5 Q520 586 462 586 Z " />
<glyph glyph-name="Ohorn" unicode="&#x1a0;" horiz-adv-x="924" d="M798 616 Q842 554 860.5 500 Q879 446 879 376 Q879 262 824.5 170 Q770 78 675 25.5 Q580 -27 462 -27 Q345 -27 249.5 25.5 Q154 78 99.5 169.5 Q45 261 45 374 Q45 487 99.5 579 Q154 671 249.5 723.5 Q345 776 462 776 Q552 776 620.5 750.5 Q689 725 754 667 L757 663 L814 808 L951 808 L847 616 L798 616 Z M462 586 Q405 586 356 558 Q307 530 278.5 481.5 Q250 433 250 377 Q250 318 278.5 269 Q307 220 355.5 191.5 Q404 163 462 163 Q520 163 569 191.5 Q618 220 646.5 268.5 Q675 317 675 375 Q675 433 646.5 481 Q618 529 569 557.5 Q520 586 462 586 Z " />
<glyph glyph-name="Ohungarumlaut" unicode="&#x150;" horiz-adv-x="924" d="M278 885 L416 1040 L505 945 L347 814 L278 885 Z M532 885 L670 1040 L759 945 L600 814 L532 885 Z M462 776 Q650 776 771 650 Q823 595 851 524 Q879 453 879 375 Q879 285 842.5 205 Q806 125 738 68 Q623 -27 459 -27 Q342 -27 247.5 26 Q153 79 99 172.5 Q45 266 45 382 Q45 467 82 546 Q119 625 186 681 Q240 727 311.5 751.5 Q383 776 462 776 Z M462 586 Q405 586 356 558 Q307 530 278.5 481.5 Q250 433 250 377 Q250 318 278.5 269 Q307 220 355.5 191.5 Q404 163 462 163 Q520 163 569 191.5 Q618 220 646.5 268.5 Q675 317 675 375 Q675 433 646.5 481 Q618 529 569 557.5 Q520 586 462 586 Z " />
<glyph glyph-name="Omacron" unicode="&#x14c;" horiz-adv-x="924" d="M671 855 L253 855 L253 966 L671 966 L671 855 Z M462 776 Q650 776 771 650 Q823 595 851 524 Q879 453 879 375 Q879 285 842.5 205 Q806 125 738 68 Q623 -27 459 -27 Q342 -27 247.5 26 Q153 79 99 172.5 Q45 266 45 382 Q45 467 82 546 Q119 625 186 681 Q240 727 311.5 751.5 Q383 776 462 776 Z M462 586 Q405 586 356 558 Q307 530 278.5 481.5 Q250 433 250 377 Q250 318 278.5 269 Q307 220 355.5 191.5 Q404 163 462 163 Q520 163 569 191.5 Q618 220 646.5 268.5 Q675 317 675 375 Q675 433 646.5 481 Q618 529 569 557.5 Q520 586 462 586 Z " />
<glyph glyph-name="Oslash" unicode="&#xd8;" horiz-adv-x="924" d="M801 617 Q843 555 861.5 498.5 Q880 442 880 377 Q880 264 825.5 171.5 Q771 79 676 26 Q581 -27 464 -27 Q391 -27 329 -7.5 Q267 12 203 55 L108 -34 L31 47 L123 137 Q81 198 63 252 Q45 306 45 370 Q45 485 99 577.5 Q153 670 247.5 722.5 Q342 775 460 775 Q562 775 651 739 Q669 732 683 723 Q697 714 720 695 L815 788 L892 706 L801 617 Z M566 556 Q520 585 460 585 Q405 585 356.5 556.5 Q308 528 279 480 Q250 432 250 377 Q250 320 276 278 L566 556 Z M351 191 Q387 175 410 169 Q433 163 460 163 Q518 163 568 191 Q618 219 647 267 Q676 315 676 371 Q676 397 669.5 421 Q663 445 649 476 L351 191 Z " />
<glyph glyph-name="Oslashacute" unicode="&#x1fe;" horiz-adv-x="924" d="M328 885 L490 1040 L596 945 L403 814 L328 885 Z M801 617 Q843 555 861.5 498.5 Q880 442 880 377 Q880 264 825.5 171.5 Q771 79 676 26 Q581 -27 464 -27 Q391 -27 329 -7.5 Q267 12 203 55 L108 -34 L31 47 L123 137 Q81 198 63 252 Q45 306 45 370 Q45 485 99 577.5 Q153 670 247.5 722.5 Q342 775 460 775 Q562 775 651 739 Q669 732 683 723 Q697 714 720 695 L815 788 L892 706 L801 617 Z M566 556 Q520 585 460 585 Q405 585 356.5 556.5 Q308 528 279 480 Q250 432 250 377 Q250 320 276 278 L566 556 Z M351 191 Q387 175 410 169 Q433 163 460 163 Q518 163 568 191 Q618 219 647 267 Q676 315 676 371 Q676 397 669.5 421 Q663 445 649 476 L351 191 Z " />
<glyph glyph-name="Otilde" unicode="&#xd5;" horiz-adv-x="924" d="M249 833 Q250 863 253 882.5 Q256 902 264 920 Q279 954 309 973.5 Q339 993 375 993 Q394 993 415.5 988.5 Q437 984 479 970 Q526 954 549 954 Q567 954 577 963 Q587 972 593 994 L692 994 Q688 957 683 938 Q678 919 670 903 Q635 833 551 833 Q508 833 458 852 Q420 866 407.5 869.5 Q395 873 382 873 Q364 873 356.5 865 Q349 857 344 833 L249 833 Z M462 776 Q650 776 771 650 Q823 595 851 524 Q879 453 879 375 Q879 285 842.5 205 Q806 125 738 68 Q623 -27 459 -27 Q342 -27 247.5 26 Q153 79 99 172.5 Q45 266 45 382 Q45 467 82 546 Q119 625 186 681 Q240 727 311.5 751.5 Q383 776 462 776 Z M462 586 Q405 586 356 558 Q307 530 278.5 481.5 Q250 433 250 377 Q250 318 278.5 269 Q307 220 355.5 191.5 Q404 163 462 163 Q520 163 569 191.5 Q618 220 646.5 268.5 Q675 317 675 375 Q675 433 646.5 481 Q618 529 569 557.5 Q520 586 462 586 Z " />
<glyph glyph-name="OE" unicode="&#x152;" horiz-adv-x="1146" d="M873 462 L1086 462 L1086 296 L873 296 L873 166 L1101 166 L1101 0 L677 0 L677 79 Q623 26 566.5 1 Q510 -24 441 -24 Q335 -24 244 31 Q153 86 99 178 Q45 270 45 377 Q45 485 99 577.5 Q153 670 245 724.5 Q337 779 444 779 Q515 779 570 755.5 Q625 732 677 679 L677 754 L1101 754 L1101 588 L873 588 L873 462 Z M460 589 Q404 589 355.5 560.5 Q307 532 278.5 484.5 Q250 437 250 381 Q250 322 278 273 Q306 224 354 195.5 Q402 167 460 167 Q517 167 565.5 195 Q614 223 642 271.5 Q670 320 670 377 Q670 434 641.5 483 Q613 532 565 560.5 Q517 589 460 589 Z " />
<glyph glyph-name="P" unicode="P" horiz-adv-x="677" d="M79 0 L79 754 L390 754 Q456 754 499 739.5 Q542 725 579 690 Q652 620 652 504 Q652 448 636.5 401 Q621 354 591 321 Q560 285 512.5 268 Q465 251 397 251 L275 251 L275 0 L79 0 Z M339 408 Q395 408 421 430.5 Q447 453 447 502 Q447 597 340 597 L275 597 L275 408 L339 408 Z " />
<glyph glyph-name="Thorn" unicode="&#xde;" horiz-adv-x="677" d="M79 0 L79 754 L275 754 L275 647 L390 647 Q457 647 500 633 Q543 619 579 584 Q652 515 652 398 Q652 342 636.5 295 Q621 248 591 215 Q560 179 512 162 Q464 145 397 145 L275 145 L275 0 L79 0 Z M339 302 Q395 302 421 324.5 Q447 347 447 395 Q447 444 420.5 467 Q394 490 340 490 L275 490 L275 302 L339 302 Z " />
<glyph glyph-name="Q" unicode="Q" horiz-adv-x="924" d="M668 23 Q621 -4 577.5 -15 Q534 -26 472 -26 Q255 -26 140 115 Q94 172 69.5 239.5 Q45 307 45 376 Q45 458 79 535.5 Q113 613 174 670 Q288 775 461 775 Q581 775 676.5 723.5 Q772 672 825.5 581 Q879 490 879 375 Q879 300 856.5 238 Q834 176 781 108 L909 -21 L729 -49 L668 23 Z M638 261 Q675 314 675 374 Q675 430 646 479 Q617 528 568 556.5 Q519 585 462 585 Q404 585 355.5 556.5 Q307 528 278.5 479 Q250 430 250 371 Q250 313 277.5 265.5 Q305 218 353 191 Q401 164 461 164 Q478 164 490.5 166 Q503 168 522 173 L402 294 L586 316 L638 261 Z " />
<glyph glyph-name="R" unicode="R" horiz-adv-x="709" d="M461 0 L275 289 L275 0 L79 0 L79 754 L383 754 Q446 754 490.5 738 Q535 722 568 687 Q599 655 616 611 Q633 567 633 521 Q633 471 614.5 426.5 Q596 382 564 354 Q545 337 524 327 Q503 317 468 308 L705 0 L461 0 Z M311 416 Q366 416 394 436 Q410 447 421 468.5 Q432 490 432 510 Q432 530 421.5 550.5 Q411 571 394 583 Q366 603 311 603 L275 603 L275 416 L311 416 Z " />
<glyph glyph-name="Racute" unicode="&#x154;" horiz-adv-x="709" d="M227 885 L391 1040 L496 945 L304 814 L227 885 Z M461 0 L275 289 L275 0 L79 0 L79 754 L383 754 Q446 754 490.5 738 Q535 722 568 687 Q599 655 616 611 Q633 567 633 521 Q633 471 614.5 426.5 Q596 382 564 354 Q545 337 524 327 Q503 317 468 308 L705 0 L461 0 Z M311 416 Q366 416 394 436 Q410 447 421 468.5 Q432 490 432 510 Q432 530 421.5 550.5 Q411 571 394 583 Q366 603 311 603 L275 603 L275 416 L311 416 Z " />
<glyph glyph-name="Rcaron" unicode="&#x158;" horiz-adv-x="709" d="M102 949 L156 1035 L332 947 L507 1035 L562 949 L332 814 L102 949 Z M461 0 L275 289 L275 0 L79 0 L79 754 L383 754 Q446 754 490.5 738 Q535 722 568 687 Q599 655 616 611 Q633 567 633 521 Q633 471 614.5 426.5 Q596 382 564 354 Q545 337 524 327 Q503 317 468 308 L705 0 L461 0 Z M311 416 Q366 416 394 436 Q410 447 421 468.5 Q432 490 432 510 Q432 530 421.5 550.5 Q411 571 394 583 Q366 603 311 603 L275 603 L275 416 L311 416 Z " />
<glyph glyph-name="uni0156" unicode="&#x156;" horiz-adv-x="709" d="M461 0 L275 289 L275 0 L79 0 L79 754 L383 754 Q446 754 490.5 738 Q535 722 568 687 Q599 655 616 611 Q633 567 633 521 Q633 471 614.5 426.5 Q596 382 564 354 Q545 337 524 327 Q503 317 468 308 L705 0 L461 0 Z M311 416 Q366 416 394 436 Q410 447 421 468.5 Q432 490 432 510 Q432 530 421.5 550.5 Q411 571 394 583 Q366 603 311 603 L275 603 L275 416 L311 416 Z M351 -257 L227 -257 L302 -68 L455 -68 L351 -257 Z " />
<glyph glyph-name="S" unicode="S" horiz-adv-x="645" d="M493 558 Q460 584 429 596.5 Q398 609 364 609 Q328 609 304 590.5 Q280 572 280 544 Q280 533 285 523 Q290 513 298 506 Q314 493 332 486 Q350 479 416 459 Q514 430 557.5 380.5 Q601 331 601 247 Q601 118 524 52 Q484 18 427.5 -0.5 Q371 -19 306 -19 Q239 -19 172 2.5 Q105 24 45 66 L129 224 Q175 184 216.5 165.5 Q258 147 302 147 Q345 147 371 167 Q397 187 397 220 Q397 251 372.5 269 Q348 287 279 307 Q217 326 186.5 338.5 Q156 351 136 368 Q76 418 76 518 Q76 593 108.5 650.5 Q141 708 199 740 Q257 772 332 772 Q391 772 452.5 756 Q514 740 571 711 L493 558 Z " />
<glyph glyph-name="Sacute" unicode="&#x15a;" horiz-adv-x="645" d="M242 885 L405 1040 L510 945 L318 814 L242 885 Z M493 558 Q460 584 429 596.5 Q398 609 364 609 Q328 609 304 590.5 Q280 572 280 544 Q280 533 285 523 Q290 513 298 506 Q314 493 332 486 Q350 479 416 459 Q514 430 557.5 380.5 Q601 331 601 247 Q601 118 524 52 Q484 18 427.5 -0.5 Q371 -19 306 -19 Q239 -19 172 2.5 Q105 24 45 66 L129 224 Q175 184 216.5 165.5 Q258 147 302 147 Q345 147 371 167 Q397 187 397 220 Q397 251 372.5 269 Q348 287 279 307 Q217 326 186.5 338.5 Q156 351 136 368 Q76 418 76 518 Q76 593 108.5 650.5 Q141 708 199 740 Q257 772 332 772 Q391 772 452.5 756 Q514 740 571 711 L493 558 Z " />
<glyph glyph-name="Scaron" unicode="&#x160;" horiz-adv-x="645" d="M101 949 L155 1035 L330 947 L506 1035 L560 949 L330 814 L101 949 Z M493 558 Q460 584 429 596.5 Q398 609 364 609 Q328 609 304 590.5 Q280 572 280 544 Q280 533 285 523 Q290 513 298 506 Q314 493 332 486 Q350 479 416 459 Q514 430 557.5 380.5 Q601 331 601 247 Q601 118 524 52 Q484 18 427.5 -0.5 Q371 -19 306 -19 Q239 -19 172 2.5 Q105 24 45 66 L129 224 Q175 184 216.5 165.5 Q258 147 302 147 Q345 147 371 167 Q397 187 397 220 Q397 251 372.5 269 Q348 287 279 307 Q217 326 186.5 338.5 Q156 351 136 368 Q76 418 76 518 Q76 593 108.5 650.5 Q141 708 199 740 Q257 772 332 772 Q391 772 452.5 756 Q514 740 571 711 L493 558 Z " />
<glyph glyph-name="Scedilla" unicode="&#x15e;" horiz-adv-x="645" d="M493 558 Q460 584 429 596.5 Q398 609 364 609 Q328 609 304 590.5 Q280 572 280 544 Q280 533 285 523 Q290 513 298 506 Q314 493 332 486 Q350 479 416 459 Q514 430 557.5 380.5 Q601 331 601 247 Q601 118 524 52 Q484 18 427.5 -0.5 Q371 -19 306 -19 Q239 -19 172 2.5 Q105 24 45 66 L129 224 Q175 184 216.5 165.5 Q258 147 302 147 Q345 147 371 167 Q397 187 397 220 Q397 251 372.5 269 Q348 287 279 307 Q217 326 186.5 338.5 Q156 351 136 368 Q76 418 76 518 Q76 593 108.5 650.5 Q141 708 199 740 Q257 772 332 772 Q391 772 452.5 756 Q514 740 571 711 L493 558 Z M148 -221 L280 -52 L392 -130 L236 -283 L148 -221 Z " />
<glyph glyph-name="Scircumflex" unicode="&#x15c;" horiz-adv-x="645" d="M568 899 L514 814 L338 902 L162 814 L108 899 L338 1035 L568 899 Z M493 558 Q460 584 429 596.5 Q398 609 364 609 Q328 609 304 590.5 Q280 572 280 544 Q280 533 285 523 Q290 513 298 506 Q314 493 332 486 Q350 479 416 459 Q514 430 557.5 380.5 Q601 331 601 247 Q601 118 524 52 Q484 18 427.5 -0.5 Q371 -19 306 -19 Q239 -19 172 2.5 Q105 24 45 66 L129 224 Q175 184 216.5 165.5 Q258 147 302 147 Q345 147 371 167 Q397 187 397 220 Q397 251 372.5 269 Q348 287 279 307 Q217 326 186.5 338.5 Q156 351 136 368 Q76 418 76 518 Q76 593 108.5 650.5 Q141 708 199 740 Q257 772 332 772 Q391 772 452.5 756 Q514 740 571 711 L493 558 Z " />
<glyph glyph-name="uni0218" unicode="&#x218;" horiz-adv-x="645" d="M493 558 Q460 584 429 596.5 Q398 609 364 609 Q328 609 304 590.5 Q280 572 280 544 Q280 533 285 523 Q290 513 298 506 Q314 493 332 486 Q350 479 416 459 Q514 430 557.5 380.5 Q601 331 601 247 Q601 118 524 52 Q484 18 427.5 -0.5 Q371 -19 306 -19 Q239 -19 172 2.5 Q105 24 45 66 L129 224 Q175 184 216.5 165.5 Q258 147 302 147 Q345 147 371 167 Q397 187 397 220 Q397 251 372.5 269 Q348 287 279 307 Q217 326 186.5 338.5 Q156 351 136 368 Q76 418 76 518 Q76 593 108.5 650.5 Q141 708 199 740 Q257 772 332 772 Q391 772 452.5 756 Q514 740 571 711 L493 558 Z M290 -257 L166 -257 L241 -68 L393 -68 L290 -257 Z " />
<glyph glyph-name="uni1E9E" unicode="&#x1e9e;" horiz-adv-x="750" d="M564 440 Q638 408 678 357.5 Q718 307 718 238 Q718 111 647 50 Q608 16 559.5 2 Q511 -12 443 -12 Q383 -12 320 9 L320 183 Q367 154 441 154 Q475 154 497.5 171 Q520 188 520 217 Q520 267 470 295.5 Q420 324 331 342 L452 598 Q408 609 371 609 Q313 609 285 577 Q257 545 257 471 L257 0 L61 0 L61 477 Q61 558 72.5 603 Q84 648 112 684 Q148 731 210.5 752 Q273 773 360 773 Q442 773 534.5 753.5 Q627 734 695 701 L564 440 Z " />
<glyph glyph-name="uni018F" unicode="&#x18f;" horiz-adv-x="903" d="M653 416 Q652 461 625.5 497.5 Q599 534 553.5 554.5 Q508 575 453 575 Q388 575 342 550 Q296 525 261 470 L89 556 Q152 663 239.5 714 Q327 765 447 765 Q566 765 660 715 Q754 665 806.5 577 Q859 489 859 377 Q859 269 805.5 180 Q752 91 659 40 Q566 -11 452 -11 Q337 -11 247.5 40 Q158 91 108 184 Q81 235 68 284.5 Q55 334 47 416 L653 416 Z M262 277 Q277 240 292 217 Q315 186 360.5 166 Q406 146 453 146 Q500 146 543.5 165.5 Q587 185 610 216 Q619 227 625 239.5 Q631 252 641 277 L262 277 Z " />
<glyph glyph-name="T" unicode="T" horiz-adv-x="532" d="M167 0 L167 588 L8 588 L8 754 L525 754 L525 588 L363 588 L363 0 L167 0 Z " />
<glyph glyph-name="Tbar" unicode="&#x166;" horiz-adv-x="532" d="M363 348 L363 0 L167 0 L167 348 L41 348 L41 476 L167 476 L167 588 L8 588 L8 754 L525 754 L525 588 L363 588 L363 476 L493 476 L493 348 L363 348 Z " />
<glyph glyph-name="Tcaron" unicode="&#x164;" horiz-adv-x="532" d="M37 949 L90 1035 L267 947 L443 1035 L497 949 L267 814 L37 949 Z M167 0 L167 588 L8 588 L8 754 L525 754 L525 588 L363 588 L363 0 L167 0 Z " />
<glyph glyph-name="uni0162" unicode="&#x162;" horiz-adv-x="532" d="M167 0 L167 588 L8 588 L8 754 L525 754 L525 588 L363 588 L363 0 L167 0 Z M249 -257 L124 -257 L199 -68 L353 -68 L249 -257 Z " />
<glyph glyph-name="U" unicode="U" horiz-adv-x="815" d="M275 346 Q275 281 278.5 258 Q282 235 296 211 Q313 184 341.5 169 Q370 154 406 154 Q443 154 473.5 170.5 Q504 187 520 215 Q533 237 536.5 261.5 Q540 286 540 346 L540 754 L736 754 L736 319 Q736 236 719.5 184.5 Q703 133 662 87 Q568 -19 402 -19 Q316 -19 244 11 Q172 41 133 94 Q104 133 91.5 184.5 Q79 236 79 319 L79 754 L275 754 L275 346 Z " />
<glyph glyph-name="Uacute" unicode="&#xda;" horiz-adv-x="815" d="M327 885 L489 1040 L594 945 L402 814 L327 885 Z M275 346 Q275 281 278.5 258 Q282 235 296 211 Q313 184 341.5 169 Q370 154 406 154 Q443 154 473.5 170.5 Q504 187 520 215 Q533 237 536.5 261.5 Q540 286 540 346 L540 754 L736 754 L736 319 Q736 236 719.5 184.5 Q703 133 662 87 Q568 -19 402 -19 Q316 -19 244 11 Q172 41 133 94 Q104 133 91.5 184.5 Q79 236 79 319 L79 754 L275 754 L275 346 Z " />
<glyph glyph-name="Ubreve" unicode="&#x16c;" horiz-adv-x="815" d="M319 999 Q327 965 348.5 948.5 Q370 932 408 932 Q481 932 496 999 L623 999 Q618 917 561.5 871 Q505 825 408 825 Q311 825 253.5 871 Q196 917 192 999 L319 999 Z M275 346 Q275 281 278.5 258 Q282 235 296 211 Q313 184 341.5 169 Q370 154 406 154 Q443 154 473.5 170.5 Q504 187 520 215 Q533 237 536.5 261.5 Q540 286 540 346 L540 754 L736 754 L736 319 Q736 236 719.5 184.5 Q703 133 662 87 Q568 -19 402 -19 Q316 -19 244 11 Q172 41 133 94 Q104 133 91.5 184.5 Q79 236 79 319 L79 754 L275 754 L275 346 Z " />
<glyph glyph-name="Ucircumflex" unicode="&#xdb;" horiz-adv-x="815" d="M637 899 L583 814 L408 902 L232 814 L177 899 L408 1035 L637 899 Z M275 346 Q275 281 278.5 258 Q282 235 296 211 Q313 184 341.5 169 Q370 154 406 154 Q443 154 473.5 170.5 Q504 187 520 215 Q533 237 536.5 261.5 Q540 286 540 346 L540 754 L736 754 L736 319 Q736 236 719.5 184.5 Q703 133 662 87 Q568 -19 402 -19 Q316 -19 244 11 Q172 41 133 94 Q104 133 91.5 184.5 Q79 236 79 319 L79 754 L275 754 L275 346 Z " />
<glyph glyph-name="Udieresis" unicode="&#xdc;" horiz-adv-x="815" d="M271 1020 Q312 1020 341 991.5 Q370 963 370 923 Q370 883 341 854 Q312 825 272 825 Q231 825 202.5 854 Q174 883 174 924 Q174 963 202.5 991.5 Q231 1020 271 1020 Z M542 1020 Q583 1020 612 991.5 Q641 963 641 923 Q641 883 612.5 854 Q584 825 544 825 Q502 825 473.5 854 Q445 883 445 924 Q445 963 473.5 991.5 Q502 1020 542 1020 Z M275 346 Q275 281 278.5 258 Q282 235 296 211 Q313 184 341.5 169 Q370 154 406 154 Q443 154 473.5 170.5 Q504 187 520 215 Q533 237 536.5 261.5 Q540 286 540 346 L540 754 L736 754 L736 319 Q736 236 719.5 184.5 Q703 133 662 87 Q568 -19 402 -19 Q316 -19 244 11 Q172 41 133 94 Q104 133 91.5 184.5 Q79 236 79 319 L79 754 L275 754 L275 346 Z " />
<glyph glyph-name="Ugrave" unicode="&#xd9;" horiz-adv-x="815" d="M489 885 L412 814 L220 945 L325 1040 L489 885 Z M275 346 Q275 281 278.5 258 Q282 235 296 211 Q313 184 341.5 169 Q370 154 406 154 Q443 154 473.5 170.5 Q504 187 520 215 Q533 237 536.5 261.5 Q540 286 540 346 L540 754 L736 754 L736 319 Q736 236 719.5 184.5 Q703 133 662 87 Q568 -19 402 -19 Q316 -19 244 11 Q172 41 133 94 Q104 133 91.5 184.5 Q79 236 79 319 L79 754 L275 754 L275 346 Z " />
<glyph glyph-name="Uhorn" unicode="&#x1af;" horiz-adv-x="815" d="M890 612 L766 612 L841 808 L994 808 L890 612 Z M275 346 Q275 281 278.5 258 Q282 235 296 211 Q313 184 341.5 169 Q370 154 406 154 Q443 154 473.5 170.5 Q504 187 520 215 Q533 237 536.5 261.5 Q540 286 540 346 L540 754 L736 754 L736 319 Q736 236 719.5 184.5 Q703 133 662 87 Q568 -19 402 -19 Q316 -19 244 11 Q172 41 133 94 Q104 133 91.5 184.5 Q79 236 79 319 L79 754 L275 754 L275 346 Z " />
<glyph glyph-name="Uhungarumlaut" unicode="&#x170;" horiz-adv-x="815" d="M224 885 L362 1040 L451 945 L292 814 L224 885 Z M477 885 L616 1040 L705 945 L546 814 L477 885 Z M275 346 Q275 281 278.5 258 Q282 235 296 211 Q313 184 341.5 169 Q370 154 406 154 Q443 154 473.5 170.5 Q504 187 520 215 Q533 237 536.5 261.5 Q540 286 540 346 L540 754 L736 754 L736 319 Q736 236 719.5 184.5 Q703 133 662 87 Q568 -19 402 -19 Q316 -19 244 11 Q172 41 133 94 Q104 133 91.5 184.5 Q79 236 79 319 L79 754 L275 754 L275 346 Z " />
<glyph glyph-name="Umacron" unicode="&#x16a;" horiz-adv-x="815" d="M617 855 L199 855 L199 966 L617 966 L617 855 Z M275 346 Q275 281 278.5 258 Q282 235 296 211 Q313 184 341.5 169 Q370 154 406 154 Q443 154 473.5 170.5 Q504 187 520 215 Q533 237 536.5 261.5 Q540 286 540 346 L540 754 L736 754 L736 319 Q736 236 719.5 184.5 Q703 133 662 87 Q568 -19 402 -19 Q316 -19 244 11 Q172 41 133 94 Q104 133 91.5 184.5 Q79 236 79 319 L79 754 L275 754 L275 346 Z " />
<glyph glyph-name="Uogonek" unicode="&#x172;" horiz-adv-x="815" d="M275 346 Q275 281 278.5 258 Q282 235 296 211 Q313 184 341.5 169 Q370 154 406 154 Q443 154 473.5 170.5 Q504 187 520 215 Q533 237 536.5 261.5 Q540 286 540 346 L540 754 L736 754 L736 319 Q735 239 720.5 185.5 Q706 132 672.5 92.5 Q639 53 579 16 Q547 -4 534 -23 Q521 -42 521 -69 Q521 -90 533 -103 Q545 -116 565 -116 Q580 -116 593.5 -112 Q607 -108 625 -98 L599 -200 Q564 -217 519 -217 Q468 -217 434.5 -189.5 Q401 -162 401 -121 Q401 -93 413.5 -68.5 Q426 -44 453 -18 L426 -19 L398 -19 Q315 -19 244 11.5 Q173 42 133 94 Q104 133 91.5 184.5 Q79 236 79 319 L79 754 L275 754 L275 346 Z " />
<glyph glyph-name="Uring" unicode="&#x16e;" horiz-adv-x="815" d="M411 1044 Q481 1044 522 1012.5 Q563 981 563 927 Q563 873 522 841.5 Q481 810 411 810 L403 810 Q333 810 292.5 841.5 Q252 873 252 928 Q252 980 293.5 1012 Q335 1044 403 1044 L411 1044 Z M407 970 Q381 970 365 958.5 Q349 947 349 928 Q349 908 364.5 896 Q380 884 407 884 Q434 884 450 895 Q466 906 466 927 Q466 947 450.5 958.5 Q435 970 407 970 Z M275 346 Q275 281 278.5 258 Q282 235 296 211 Q313 184 341.5 169 Q370 154 406 154 Q443 154 473.5 170.5 Q504 187 520 215 Q533 237 536.5 261.5 Q540 286 540 346 L540 754 L736 754 L736 319 Q736 236 719.5 184.5 Q703 133 662 87 Q568 -19 402 -19 Q316 -19 244 11 Q172 41 133 94 Q104 133 91.5 184.5 Q79 236 79 319 L79 754 L275 754 L275 346 Z " />
<glyph glyph-name="Utilde" unicode="&#x168;" horiz-adv-x="815" d="M186 833 Q188 864 191 883 Q194 902 202 920 Q216 954 246 973.5 Q276 993 313 993 Q332 993 353.5 988.5 Q375 984 417 970 Q464 954 487 954 Q505 954 515 963 Q525 972 531 994 L629 994 Q625 957 620.5 938 Q616 919 608 903 Q573 833 489 833 Q447 833 395 852 Q358 866 345.5 869.5 Q333 873 320 873 Q303 873 295 865 Q287 857 281 833 L186 833 Z M275 346 Q275 281 278.5 258 Q282 235 296 211 Q313 184 341.5 169 Q370 154 406 154 Q443 154 473.5 170.5 Q504 187 520 215 Q533 237 536.5 261.5 Q540 286 540 346 L540 754 L736 754 L736 319 Q736 236 719.5 184.5 Q703 133 662 87 Q568 -19 402 -19 Q316 -19 244 11 Q172 41 133 94 Q104 133 91.5 184.5 Q79 236 79 319 L79 754 L275 754 L275 346 Z " />
<glyph glyph-name="V" unicode="V" horiz-adv-x="790" d="M577 754 L790 754 L469 0 L316 0 L0 754 L214 754 L394 295 L577 754 Z " />
<glyph glyph-name="W" unicode="W" horiz-adv-x="1146" d="M495 754 L651 754 L799 267 L941 754 L1146 754 L905 0 L705 0 L568 436 L424 0 L225 0 L0 754 L205 754 L336 267 L495 754 Z " />
<glyph glyph-name="Wacute" unicode="&#x1e82;" horiz-adv-x="1146" d="M438 885 L602 1040 L707 945 L515 814 L438 885 Z M495 754 L651 754 L799 267 L941 754 L1146 754 L905 0 L705 0 L568 436 L424 0 L225 0 L0 754 L205 754 L336 267 L495 754 Z " />
<glyph glyph-name="Wcircumflex" unicode="&#x174;" horiz-adv-x="1146" d="M802 899 L749 814 L573 902 L397 814 L342 899 L573 1035 L802 899 Z M495 754 L651 754 L799 267 L941 754 L1146 754 L905 0 L705 0 L568 436 L424 0 L225 0 L0 754 L205 754 L336 267 L495 754 Z " />
<glyph glyph-name="Wdieresis" unicode="&#x1e84;" horiz-adv-x="1146" d="M436 1020 Q477 1020 505.5 991.5 Q534 963 534 923 Q534 883 505.5 854 Q477 825 437 825 Q396 825 367.5 854 Q339 883 339 924 Q339 963 367.5 991.5 Q396 1020 436 1020 Z M707 1020 Q748 1020 777 991.5 Q806 963 806 923 Q806 883 777.5 854 Q749 825 709 825 Q667 825 638.5 854 Q610 883 610 924 Q610 963 638.5 991.5 Q667 1020 707 1020 Z M495 754 L651 754 L799 267 L941 754 L1146 754 L905 0 L705 0 L568 436 L424 0 L225 0 L0 754 L205 754 L336 267 L495 754 Z " />
<glyph glyph-name="Wgrave" unicode="&#x1e80;" horiz-adv-x="1146" d="M707 885 L631 814 L438 945 L544 1040 L707 885 Z M495 754 L651 754 L799 267 L941 754 L1146 754 L905 0 L705 0 L568 436 L424 0 L225 0 L0 754 L205 754 L336 267 L495 754 Z " />
<glyph glyph-name="X" unicode="X" horiz-adv-x="803" d="M295 754 L407 558 L523 754 L764 754 L519 402 L803 0 L566 0 L406 245 L236 0 L0 0 L295 402 L53 754 L295 754 Z " />
<glyph glyph-name="Y" unicode="Y" horiz-adv-x="723" d="M220 754 L363 548 L499 754 L737 754 L454 362 L454 0 L259 0 L259 362 L-14 754 L220 754 Z " />
<glyph glyph-name="Yacute" unicode="&#xdd;" horiz-adv-x="723" d="M288 885 L451 1040 L556 945 L364 814 L288 885 Z M220 754 L363 548 L499 754 L737 754 L454 362 L454 0 L259 0 L259 362 L-14 754 L220 754 Z " />
<glyph glyph-name="Ycircumflex" unicode="&#x176;" horiz-adv-x="723" d="M592 899 L538 814 L362 902 L186 814 L132 899 L362 1035 L592 899 Z M220 754 L363 548 L499 754 L737 754 L454 362 L454 0 L259 0 L259 362 L-14 754 L220 754 Z " />
<glyph glyph-name="Ydieresis" unicode="&#x178;" horiz-adv-x="723" d="M226 1020 Q267 1020 295.5 991.5 Q324 963 324 923 Q324 883 295.5 854 Q267 825 227 825 Q186 825 157.5 854 Q129 883 129 924 Q129 963 157.5 991.5 Q186 1020 226 1020 Z M497 1020 Q538 1020 567 991.5 Q596 963 596 923 Q596 883 567 854 Q538 825 498 825 Q457 825 428.5 854 Q400 883 400 924 Q400 963 428.5 991.5 Q457 1020 497 1020 Z M220 754 L363 548 L499 754 L737 754 L454 362 L454 0 L259 0 L259 362 L-14 754 L220 754 Z " />
<glyph glyph-name="Ygrave" unicode="&#x1ef2;" horiz-adv-x="723" d="M496 885 L419 814 L227 945 L332 1040 L496 885 Z M220 754 L363 548 L499 754 L737 754 L454 362 L454 0 L259 0 L259 362 L-14 754 L220 754 Z " />
<glyph glyph-name="Z" unicode="Z" horiz-adv-x="713" d="M660 0 L15 0 L371 588 L75 588 L75 754 L698 754 L344 166 L660 166 L660 0 Z " />
<glyph glyph-name="Zacute" unicode="&#x179;" horiz-adv-x="713" d="M283 885 L446 1040 L550 945 L358 814 L283 885 Z M660 0 L15 0 L371 588 L75 588 L75 754 L698 754 L344 166 L660 166 L660 0 Z " />
<glyph glyph-name="Zcaron" unicode="&#x17d;" horiz-adv-x="713" d="M133 949 L188 1035 L379 947 L570 1035 L624 949 L379 814 L133 949 Z M660 0 L15 0 L371 588 L75 588 L75 754 L698 754 L344 166 L660 166 L660 0 Z " />
<glyph glyph-name="Zdotaccent" unicode="&#x17b;" horiz-adv-x="713" d="M379 1020 Q420 1020 448.5 991.5 Q477 963 477 923 Q477 883 448.5 854 Q420 825 380 825 Q338 825 309.5 854 Q281 883 281 924 Q281 963 310 991.5 Q339 1020 379 1020 Z M660 0 L15 0 L371 588 L75 588 L75 754 L698 754 L344 166 L660 166 L660 0 Z " />
<glyph glyph-name="uni01C4" unicode="&#x1c4;" horiz-adv-x="1498" d="M919 949 L973 1035 L1164 947 L1355 1035 L1409 949 L1164 814 L919 949 Z M368 754 Q466 754 551.5 702 Q637 650 688 563.5 Q739 477 739 377 Q739 277 688 190.5 Q637 104 551.5 52 Q466 0 368 0 L79 0 L79 754 L368 754 Z M1445 0 L800 0 L1156 588 L860 588 L860 754 L1484 754 L1129 166 L1445 166 L1445 0 Z M320 166 Q375 166 413 181 Q451 196 480 229 Q506 258 520 296.5 Q534 335 534 377 Q534 419 520 457.5 Q506 496 480 524 Q451 557 412.5 572.5 Q374 588 320 588 L275 588 L275 166 L320 166 Z " />
<glyph glyph-name="uni01C5" unicode="&#x1c5;" horiz-adv-x="1374" d="M1085 730 L1229 841 L1310 754 L1085 588 L864 754 L941 841 L1085 730 Z M368 754 Q466 754 551.5 702 Q637 650 688 563.5 Q739 477 739 377 Q739 277 688 190.5 Q637 104 551.5 52 Q466 0 368 0 L79 0 L79 754 L368 754 Z M320 166 Q375 166 413 181 Q451 196 480 229 Q506 258 520 296.5 Q534 335 534 377 Q534 419 520 457.5 Q506 496 480 524 Q451 557 412.5 572.5 Q374 588 320 588 L275 588 L275 166 L320 166 Z M1327 0 L807 0 L1049 362 L840 362 L840 512 L1350 512 L1111 150 L1327 150 L1327 0 Z " />
<glyph glyph-name="uni01C7" unicode="&#x1c7;" horiz-adv-x="1060" d="M510 166 L510 0 L79 0 L79 754 L275 754 L275 166 L510 166 Z M981 233 Q981 169 968.5 132 Q956 95 923 59 Q888 21 839.5 0.5 Q791 -20 736 -20 Q673 -20 625.5 7 Q578 34 539 92 L667 221 Q671 188 688 168 Q705 148 730 148 Q751 148 764 160 Q777 172 782 195 Q784 211 784.5 226.5 Q785 242 785 278 L785 754 L981 754 L981 233 Z " />
<glyph glyph-name="uni01C8" unicode="&#x1c8;" horiz-adv-x="841" d="M510 166 L510 0 L79 0 L79 754 L275 754 L275 166 L510 166 Z M690 810 Q732 810 761.5 780.5 Q791 751 791 709 Q791 666 761.5 636.5 Q732 607 690 607 Q647 607 617.5 637 Q588 667 588 710 Q588 751 618 780.5 Q648 810 690 810 Z M516 -112 Q535 -128 561 -128 Q599 -128 599 -63 L599 512 L780 512 L780 -77 Q780 -137 768 -174 Q756 -211 730 -235 Q686 -276 616 -276 Q552 -276 516 -255 L516 -112 Z " />
<glyph glyph-name="uni01CA" unicode="&#x1ca;" horiz-adv-x="1440" d="M275 754 L635 293 L635 754 L831 754 L831 0 L635 0 L275 461 L275 0 L79 0 L79 754 L275 754 Z M1361 233 Q1361 169 1348.5 132 Q1336 95 1303 59 Q1267 21 1219 0.5 Q1171 -20 1115 -20 Q1053 -20 1005.5 7 Q958 34 919 92 L1046 221 Q1051 188 1068 168 Q1085 148 1110 148 Q1131 148 1144 160 Q1157 172 1162 195 Q1164 211 1164.5 226.5 Q1165 242 1165 278 L1165 754 L1361 754 L1361 233 Z " />
<glyph glyph-name="uni01CB" unicode="&#x1cb;" horiz-adv-x="1230" d="M275 754 L635 293 L635 754 L831 754 L831 0 L635 0 L275 461 L275 0 L79 0 L79 754 L275 754 Z M1079 810 Q1121 810 1150.5 780.5 Q1180 751 1180 709 Q1180 666 1150.5 636.5 Q1121 607 1079 607 Q1036 607 1006.5 637 Q977 667 977 710 Q977 751 1007 780.5 Q1037 810 1079 810 Z M905 -112 Q924 -128 950 -128 Q988 -128 988 -63 L988 512 L1169 512 L1169 -77 Q1169 -137 1157 -174 Q1145 -211 1119 -235 Q1075 -276 1005 -276 Q941 -276 905 -255 L905 -112 Z " />
<glyph glyph-name="uni01CD" unicode="&#x1cd;" horiz-adv-x="802" d="M172 949 L226 1035 L401 947 L577 1035 L632 949 L401 814 L172 949 Z M215 0 L8 0 L297 754 L511 754 L794 0 L585 0 L537 131 L267 131 L215 0 Z M321 280 L484 280 L403 521 L321 280 Z " />
<glyph glyph-name="uni01CF" unicode="&#x1cf;" horiz-adv-x="354" d="M-53 949 L1 1035 L177 947 L353 1035 L407 949 L177 814 L-53 949 Z M79 0 L79 754 L275 754 L275 0 L79 0 Z " />
<glyph glyph-name="uni01D1" unicode="&#x1d1;" horiz-adv-x="924" d="M232 949 L286 1035 L462 947 L638 1035 L693 949 L462 814 L232 949 Z M462 776 Q650 776 771 650 Q823 595 851 524 Q879 453 879 375 Q879 285 842.5 205 Q806 125 738 68 Q623 -27 459 -27 Q342 -27 247.5 26 Q153 79 99 172.5 Q45 266 45 382 Q45 467 82 546 Q119 625 186 681 Q240 727 311.5 751.5 Q383 776 462 776 Z M462 586 Q405 586 356 558 Q307 530 278.5 481.5 Q250 433 250 377 Q250 318 278.5 269 Q307 220 355.5 191.5 Q404 163 462 163 Q520 163 569 191.5 Q618 220 646.5 268.5 Q675 317 675 375 Q675 433 646.5 481 Q618 529 569 557.5 Q520 586 462 586 Z " />
<glyph glyph-name="uni01D3" unicode="&#x1d3;" horiz-adv-x="815" d="M177 949 L232 1035 L408 947 L583 1035 L637 949 L408 814 L177 949 Z M275 346 Q275 281 278.5 258 Q282 235 296 211 Q313 184 341.5 169 Q370 154 406 154 Q443 154 473.5 170.5 Q504 187 520 215 Q533 237 536.5 261.5 Q540 286 540 346 L540 754 L736 754 L736 319 Q736 236 719.5 184.5 Q703 133 662 87 Q568 -19 402 -19 Q316 -19 244 11 Q172 41 133 94 Q104 133 91.5 184.5 Q79 236 79 319 L79 754 L275 754 L275 346 Z " />
<glyph glyph-name="uni01F4" unicode="&#x1f4;" horiz-adv-x="879" d="M350 885 L514 1040 L619 945 L427 814 L350 885 Z M834 418 Q832 334 823.5 282.5 Q815 231 794 186 Q747 83 657.5 28 Q568 -27 447 -27 Q329 -27 238 23.5 Q147 74 96 165 Q45 256 45 373 Q45 492 96.5 584 Q148 676 241 726.5 Q334 777 454 777 Q575 777 657.5 725.5 Q740 674 793 565 L607 488 Q582 549 542 578.5 Q502 608 445 608 Q390 608 345.5 577 Q301 546 275.5 492.5 Q250 439 250 372 Q250 320 268 271.5 Q286 223 318 189 Q367 134 451 134 Q491 134 524 148.5 Q557 163 579 190 Q590 205 596 221.5 Q602 238 606 266 L445 266 L445 418 L834 418 Z " />
<glyph glyph-name="uni0200" unicode="&#x200;" horiz-adv-x="802" d="M340 885 L272 814 L113 945 L202 1040 L340 885 Z M594 885 L525 814 L367 945 L457 1040 L594 885 Z M215 0 L8 0 L297 754 L511 754 L794 0 L585 0 L537 131 L267 131 L215 0 Z M321 280 L484 280 L403 521 L321 280 Z " />
<glyph glyph-name="uni021A" unicode="&#x21a;" horiz-adv-x="532" d="M167 0 L167 588 L8 588 L8 754 L525 754 L525 588 L363 588 L363 0 L167 0 Z M249 -257 L124 -257 L199 -68 L353 -68 L249 -257 Z " />
<glyph glyph-name="uni0226" unicode="&#x226;" horiz-adv-x="802" d="M401 1020 Q442 1020 470.5 991.5 Q499 963 499 923 Q499 883 470.5 854 Q442 825 402 825 Q361 825 332.5 854 Q304 883 304 924 Q304 963 332.5 991.5 Q361 1020 401 1020 Z M215 0 L8 0 L297 754 L511 754 L794 0 L585 0 L537 131 L267 131 L215 0 Z M321 280 L484 280 L403 521 L321 280 Z " />
<glyph glyph-name="uni1E1E" unicode="&#x1e1e;" horiz-adv-x="548" d="M294 1020 Q335 1020 363.5 991.5 Q392 963 392 923 Q392 883 363.5 854 Q335 825 295 825 Q254 825 225.5 854 Q197 883 197 924 Q197 963 225.5 991.5 Q254 1020 294 1020 Z M275 462 L489 462 L489 296 L275 296 L275 0 L79 0 L79 754 L511 754 L511 588 L275 588 L275 462 Z " />
<glyph glyph-name="uni1EA0" unicode="&#x1ea0;" horiz-adv-x="802" d="M215 0 L8 0 L297 754 L511 754 L794 0 L585 0 L537 131 L267 131 L215 0 Z M321 280 L484 280 L403 521 L321 280 Z M401 -34 Q442 -34 470.5 -62.5 Q499 -91 499 -131 Q499 -171 470.5 -200 Q442 -229 402 -229 Q361 -229 332.5 -200 Q304 -171 304 -130 Q304 -91 332.5 -62.5 Q361 -34 401 -34 Z " />
<glyph glyph-name="uni1EA2" unicode="&#x1ea2;" horiz-adv-x="802" d="M362 932 L375 933 Q414 937 429.5 939 Q445 941 451 945 Q462 951 462 964 Q462 979 450.5 987.5 Q439 996 419 996 Q405 996 390 991.5 Q375 987 345 974 L319 1038 Q364 1055 387 1060.5 Q410 1066 438 1066 Q492 1066 526 1037 Q560 1008 560 963 Q560 936 544.5 914 Q529 892 503 884 Q490 879 481 878 Q472 877 437 877 L437 834 L362 834 L362 932 Z M215 0 L8 0 L297 754 L511 754 L794 0 L585 0 L537 131 L267 131 L215 0 Z M321 280 L484 280 L403 521 L321 280 Z " />
<glyph glyph-name="uni1EA4" unicode="&#x1ea4;" horiz-adv-x="802" d="M765 1034 L598 920 L632 899 L577 814 L401 902 L226 814 L172 899 L401 1035 L501 977 L660 1129 L765 1034 Z M215 0 L8 0 L297 754 L511 754 L794 0 L585 0 L537 131 L267 131 L215 0 Z M321 280 L484 280 L403 521 L321 280 Z " />
<glyph glyph-name="uni1EA6" unicode="&#x1ea6;" horiz-adv-x="802" d="M711 1015 L634 944 L442 1075 L547 1170 L711 1015 Z M632 899 L577 814 L401 902 L226 814 L172 899 L401 1035 L632 899 Z M215 0 L8 0 L297 754 L511 754 L794 0 L585 0 L537 131 L267 131 L215 0 Z M321 280 L484 280 L403 521 L321 280 Z " />
<glyph glyph-name="uni1EA8" unicode="&#x1ea8;" horiz-adv-x="802" d="M541 1027 Q605 1032 621 1036 Q642 1039 642 1059 Q642 1074 630.5 1082 Q619 1090 599 1090 Q584 1090 569 1086 Q554 1082 524 1069 L498 1133 Q543 1150 566 1155.5 Q589 1161 618 1161 Q671 1161 705.5 1132 Q740 1103 740 1058 Q740 1031 724.5 1009 Q709 987 683 979 Q669 974 659.5 973 Q650 972 617 972 L617 929 L581 929 L631 899 L576 814 L400 902 L225 814 L171 899 L400 1035 L541 953 L541 1027 Z M215 0 L8 0 L297 754 L511 754 L794 0 L585 0 L537 131 L267 131 L215 0 Z M321 280 L484 280 L403 521 L321 280 Z " />
<glyph glyph-name="uni1EAA" unicode="&#x1eaa;" horiz-adv-x="802" d="M181 1049 Q181 1101 195 1136 Q211 1170 241 1189.5 Q271 1209 307 1209 Q326 1209 348 1204 Q370 1199 410 1185 Q459 1170 481 1170 Q499 1170 508.5 1179 Q518 1188 524 1210 L623 1210 Q619 1173 614.5 1154 Q610 1135 602 1119 Q568 1049 483 1049 Q440 1049 390 1068 Q352 1082 339.5 1085.5 Q327 1089 313 1089 Q296 1089 289 1081.5 Q282 1074 275 1049 L181 1049 Z M632 899 L577 814 L401 902 L226 814 L172 899 L401 1035 L632 899 Z M215 0 L8 0 L297 754 L511 754 L794 0 L585 0 L537 131 L267 131 L215 0 Z M321 280 L484 280 L403 521 L321 280 Z " />
<glyph glyph-name="uni1EAC" unicode="&#x1eac;" horiz-adv-x="802" d="M632 899 L577 814 L401 902 L226 814 L172 899 L401 1035 L632 899 Z M215 0 L8 0 L297 754 L511 754 L794 0 L585 0 L537 131 L267 131 L215 0 Z M321 280 L484 280 L403 521 L321 280 Z M401 -34 Q442 -34 470.5 -62.5 Q499 -91 499 -131 Q499 -171 470.5 -200 Q442 -229 402 -229 Q361 -229 332.5 -200 Q304 -171 304 -130 Q304 -91 332.5 -62.5 Q361 -34 401 -34 Z " />
<glyph glyph-name="uni1EAE" unicode="&#x1eae;" horiz-adv-x="802" d="M328 1035 L492 1191 L596 1096 L403 965 L328 1035 Z M313 999 Q328 932 401 932 Q439 932 460.5 948.5 Q482 965 490 999 L617 999 Q613 917 555.5 871 Q498 825 401 825 Q304 825 247 871 Q190 917 185 999 L313 999 Z M215 0 L8 0 L297 754 L511 754 L794 0 L585 0 L537 131 L267 131 L215 0 Z M321 280 L484 280 L403 521 L321 280 Z " />
<glyph glyph-name="uni1EB0" unicode="&#x1eb0;" horiz-adv-x="802" d="M476 1029 L399 958 L207 1089 L312 1185 L476 1029 Z M313 999 Q328 932 401 932 Q439 932 460.5 948.5 Q482 965 490 999 L617 999 Q613 917 555.5 871 Q498 825 401 825 Q304 825 247 871 Q190 917 185 999 L313 999 Z M215 0 L8 0 L297 754 L511 754 L794 0 L585 0 L537 131 L267 131 L215 0 Z M321 280 L484 280 L403 521 L321 280 Z " />
<glyph glyph-name="uni1EB2" unicode="&#x1eb2;" horiz-adv-x="802" d="M362 1074 L375 1075 Q414 1078 429.5 1080 Q445 1082 451 1086 Q462 1092 462 1105 Q462 1120 450.5 1128.5 Q439 1137 419 1137 Q405 1137 390 1132.5 Q375 1128 345 1115 L319 1180 Q364 1197 387 1202 Q410 1207 438 1207 Q492 1207 526 1178 Q560 1149 560 1104 Q560 1077 544.5 1055 Q529 1033 503 1025 Q490 1020 481 1019 Q472 1018 437 1018 L437 975 L362 975 L362 1074 Z M313 999 Q328 932 401 932 Q439 932 460.5 948.5 Q482 965 490 999 L617 999 Q613 917 555.5 871 Q498 825 401 825 Q304 825 247 871 Q190 917 185 999 L313 999 Z M215 0 L8 0 L297 754 L511 754 L794 0 L585 0 L537 131 L267 131 L215 0 Z M321 280 L484 280 L403 521 L321 280 Z " />
<glyph glyph-name="uni1EB4" unicode="&#x1eb4;" horiz-adv-x="802" d="M181 1026 Q181 1078 195 1113 Q211 1147 241 1167 Q271 1187 307 1187 Q325 1187 347 1182 Q369 1177 410 1163 Q458 1147 481 1147 Q499 1147 508.5 1156 Q518 1165 524 1188 L623 1188 Q619 1151 614.5 1132 Q610 1113 602 1096 Q567 1026 483 1026 Q444 1026 390 1045 Q350 1060 338 1063.5 Q326 1067 313 1067 Q296 1067 289 1059 Q282 1051 275 1026 L181 1026 Z M313 999 Q328 932 401 932 Q439 932 460.5 948.5 Q482 965 490 999 L617 999 Q613 917 555.5 871 Q498 825 401 825 Q304 825 247 871 Q190 917 185 999 L313 999 Z M215 0 L8 0 L297 754 L511 754 L794 0 L585 0 L537 131 L267 131 L215 0 Z M321 280 L484 280 L403 521 L321 280 Z " />
<glyph glyph-name="uni1EB6" unicode="&#x1eb6;" horiz-adv-x="802" d="M313 999 Q328 932 401 932 Q439 932 460.5 948.5 Q482 965 490 999 L617 999 Q613 917 555.5 871 Q498 825 401 825 Q304 825 247 871 Q190 917 185 999 L313 999 Z M215 0 L8 0 L297 754 L511 754 L794 0 L585 0 L537 131 L267 131 L215 0 Z M321 280 L484 280 L403 521 L321 280 Z M401 -34 Q442 -34 470.5 -62.5 Q499 -91 499 -131 Q499 -171 470.5 -200 Q442 -229 402 -229 Q361 -229 332.5 -200 Q304 -171 304 -130 Q304 -91 332.5 -62.5 Q361 -34 401 -34 Z " />
<glyph glyph-name="uni1EB8" unicode="&#x1eb8;" horiz-adv-x="553" d="M275 462 L495 462 L495 296 L275 296 L275 166 L507 166 L507 0 L79 0 L79 754 L507 754 L507 588 L275 588 L275 462 Z M276 -34 Q317 -34 345.5 -62.5 Q374 -91 374 -131 Q374 -171 345.5 -200 Q317 -229 277 -229 Q235 -229 207 -200.5 Q179 -172 179 -130 Q179 -91 207.5 -62.5 Q236 -34 276 -34 Z " />
<glyph glyph-name="uni1EBA" unicode="&#x1eba;" horiz-adv-x="553" d="M257 932 L270 933 Q309 937 324.5 939 Q340 941 346 945 Q357 951 357 964 Q357 979 345.5 987.5 Q334 996 314 996 Q300 996 285 991.5 Q270 987 240 974 L214 1038 Q258 1055 281 1060.5 Q304 1066 333 1066 Q387 1066 421 1037 Q455 1008 455 963 Q455 936 439.5 914 Q424 892 398 884 Q385 879 376 878 Q367 877 332 877 L332 834 L257 834 L257 932 Z M275 462 L495 462 L495 296 L275 296 L275 166 L507 166 L507 0 L79 0 L79 754 L507 754 L507 588 L275 588 L275 462 Z " />
<glyph glyph-name="uni1EBC" unicode="&#x1ebc;" horiz-adv-x="553" d="M78 833 Q78 862 81.5 882 Q85 902 94 920 Q108 954 138 973.5 Q168 993 205 993 Q223 993 245 988.5 Q267 984 308 970 Q356 954 379 954 Q396 954 406.5 963 Q417 972 423 994 L520 994 Q515 953 511 935.5 Q507 918 499 903 Q483 869 452.5 851 Q422 833 381 833 Q337 833 287 852 Q249 866 236.5 869.5 Q224 873 210 873 Q194 873 186.5 865 Q179 857 173 833 L78 833 Z M275 462 L495 462 L495 296 L275 296 L275 166 L507 166 L507 0 L79 0 L79 754 L507 754 L507 588 L275 588 L275 462 Z " />
<glyph glyph-name="uni1EBE" unicode="&#x1ebe;" horiz-adv-x="553" d="M666 1031 L496 915 L523 899 L469 814 L294 902 L118 814 L63 899 L294 1035 L399 973 L560 1127 L666 1031 Z M275 462 L495 462 L495 296 L275 296 L275 166 L507 166 L507 0 L79 0 L79 754 L507 754 L507 588 L275 588 L275 462 Z " />
<glyph glyph-name="uni1EC0" unicode="&#x1ec0;" horiz-adv-x="553" d="M607 1015 L531 944 L339 1075 L443 1170 L607 1015 Z M528 899 L473 814 L298 902 L122 814 L68 899 L298 1035 L528 899 Z M275 462 L495 462 L495 296 L275 296 L275 166 L508 166 L508 0 L79 0 L79 754 L508 754 L508 588 L275 588 L275 462 Z " />
<glyph glyph-name="uni1EC2" unicode="&#x1ec2;" horiz-adv-x="553" d="M452 1025 Q491 1029 506.5 1031 Q522 1033 528 1036 Q534 1041 536.5 1045 Q539 1049 539 1057 Q539 1072 527.5 1080 Q516 1088 496 1088 Q482 1088 467 1083.5 Q452 1079 420 1066 L395 1130 Q439 1148 462 1153 Q485 1158 514 1158 Q568 1158 602.5 1129 Q637 1100 637 1055 Q637 1015 609 991.5 Q581 968 534 968 L514 968 L514 925 L478 925 L522 899 L468 814 L293 902 L116 814 L62 899 L293 1035 L438 949 L438 1024 L452 1025 Z M275 462 L495 462 L495 296 L275 296 L275 166 L507 166 L507 0 L79 0 L79 754 L507 754 L507 588 L275 588 L275 462 Z " />
<glyph glyph-name="uni1EC4" unicode="&#x1ec4;" horiz-adv-x="553" d="M55 1041 Q55 1092 71 1128 Q85 1162 115 1181.5 Q145 1201 182 1201 Q201 1201 222.5 1196 Q244 1191 286 1177 Q334 1162 356 1162 Q374 1162 384 1171 Q394 1180 400 1202 L497 1202 Q493 1163 489 1145 Q485 1127 477 1111 Q460 1076 429.5 1058.5 Q399 1041 358 1041 Q316 1041 264 1060 Q227 1074 214.5 1077.5 Q202 1081 188 1081 Q171 1081 163.5 1073 Q156 1065 150 1041 L55 1041 Z M523 899 L469 814 L294 902 L118 814 L63 899 L294 1035 L523 899 Z M275 462 L495 462 L495 296 L275 296 L275 166 L507 166 L507 0 L79 0 L79 754 L507 754 L507 588 L275 588 L275 462 Z " />
<glyph glyph-name="uni1EC6" unicode="&#x1ec6;" horiz-adv-x="553" d="M523 899 L469 814 L294 902 L118 814 L63 899 L294 1035 L523 899 Z M275 462 L495 462 L495 296 L275 296 L275 166 L507 166 L507 0 L79 0 L79 754 L507 754 L507 588 L275 588 L275 462 Z M276 -34 Q317 -34 345.5 -62.5 Q374 -91 374 -131 Q374 -171 345.5 -200 Q317 -229 277 -229 Q235 -229 207 -200.5 Q179 -172 179 -130 Q179 -91 207.5 -62.5 Q236 -34 276 -34 Z " />
<glyph glyph-name="uni1EC8" unicode="&#x1ec8;" horiz-adv-x="354" d="M137 932 L150 933 Q189 937 204.5 939 Q220 941 226 945 Q237 951 237 964 Q237 979 225.5 987.5 Q214 996 194 996 Q180 996 165 991.5 Q150 987 120 974 L94 1038 Q139 1055 162 1060.5 Q185 1066 214 1066 Q267 1066 301.5 1037 Q336 1008 336 963 Q336 936 320 914 Q304 892 278 884 Q265 879 256 878 Q247 877 212 877 L212 834 L137 834 L137 932 Z M79 0 L79 754 L275 754 L275 0 L79 0 Z " />
<glyph glyph-name="uni1ECA" unicode="&#x1eca;" horiz-adv-x="354" d="M79 0 L79 754 L275 754 L275 0 L79 0 Z M176 -34 Q217 -34 246 -62.5 Q275 -91 275 -131 Q275 -172 246.5 -200.5 Q218 -229 177 -229 Q136 -229 107.5 -200 Q79 -171 79 -130 Q79 -91 107.5 -62.5 Q136 -34 176 -34 Z " />
<glyph glyph-name="uni1ECC" unicode="&#x1ecc;" horiz-adv-x="924" d="M462 776 Q650 776 771 650 Q823 595 851 524 Q879 453 879 375 Q879 285 842.5 205 Q806 125 738 68 Q623 -27 459 -27 Q342 -27 247.5 26 Q153 79 99 172.5 Q45 266 45 382 Q45 467 82 546 Q119 625 186 681 Q240 727 311.5 751.5 Q383 776 462 776 Z M462 586 Q405 586 356 558 Q307 530 278.5 481.5 Q250 433 250 377 Q250 318 278.5 269 Q307 220 355.5 191.5 Q404 163 462 163 Q520 163 569 191.5 Q618 220 646.5 268.5 Q675 317 675 375 Q675 433 646.5 481 Q618 529 569 557.5 Q520 586 462 586 Z M461 -67 Q502 -67 530.5 -95.5 Q559 -124 559 -164 Q559 -204 530.5 -233 Q502 -262 462 -262 Q421 -262 392.5 -233 Q364 -204 364 -163 Q364 -124 392.5 -95.5 Q421 -67 461 -67 Z " />
<glyph glyph-name="uni1ECE" unicode="&#x1ece;" horiz-adv-x="924" d="M421 932 L435 933 Q474 937 489.5 939 Q505 941 511 945 Q522 951 522 964 Q522 979 510.5 987.5 Q499 996 479 996 Q465 996 450 991.5 Q435 987 405 974 L379 1038 Q423 1055 446 1060.5 Q469 1066 498 1066 Q552 1066 586 1037 Q620 1008 620 963 Q620 936 604.5 914 Q589 892 563 884 Q550 879 541 878 Q532 877 497 877 L497 834 L421 834 L421 932 Z M462 776 Q650 776 771 650 Q823 595 851 524 Q879 453 879 375 Q879 285 842.5 205 Q806 125 738 68 Q623 -27 459 -27 Q342 -27 247.5 26 Q153 79 99 172.5 Q45 266 45 382 Q45 467 82 546 Q119 625 186 681 Q240 727 311.5 751.5 Q383 776 462 776 Z M462 586 Q405 586 356 558 Q307 530 278.5 481.5 Q250 433 250 377 Q250 318 278.5 269 Q307 220 355.5 191.5 Q404 163 462 163 Q520 163 569 191.5 Q618 220 646.5 268.5 Q675 317 675 375 Q675 433 646.5 481 Q618 529 569 557.5 Q520 586 462 586 Z " />
<glyph glyph-name="uni1ED0" unicode="&#x1ed0;" horiz-adv-x="924" d="M734 1128 L840 1033 L667 914 L693 899 L638 814 L462 902 L286 814 L233 899 L462 1035 L571 972 L734 1128 Z M459 776 Q557 776 633.5 745 Q710 714 771 650 Q823 595 851 524 Q879 453 879 375 Q879 262 824.5 170 Q770 78 675 25.5 Q580 -27 462 -27 Q370 -27 291.5 5 Q213 37 154 98 Q103 153 74 224.5 Q45 296 45 367 Q45 483 99 576.5 Q153 670 247.5 723 Q342 776 459 776 Z M462 586 Q405 586 356 558 Q307 530 278.5 481.5 Q250 433 250 377 Q250 318 278.5 269 Q307 220 355.5 191.5 Q404 163 462 163 Q520 163 569 191.5 Q618 220 646.5 268.5 Q675 317 675 375 Q675 433 646.5 481 Q618 529 569 557.5 Q520 586 462 586 Z " />
<glyph glyph-name="uni1ED2" unicode="&#x1ed2;" horiz-adv-x="924" d="M776 1010 L699 939 L507 1070 L612 1166 L776 1010 Z M697 896 L643 809 L467 898 L290 809 L237 896 L467 1032 L697 896 Z M459 776 Q557 776 633.5 745 Q710 714 771 650 Q823 595 851 524 Q879 453 879 375 Q879 262 824.5 170 Q770 78 675 25.5 Q580 -27 462 -27 Q370 -27 291.5 5 Q213 37 154 98 Q103 153 74 224.5 Q45 296 45 367 Q45 483 99 576.5 Q153 670 247.5 723 Q342 776 459 776 Z M462 586 Q405 586 356 558 Q307 530 278.5 481.5 Q250 433 250 377 Q250 318 278.5 269 Q307 220 355.5 191.5 Q404 163 462 163 Q520 163 569 191.5 Q618 220 646.5 268.5 Q675 317 675 375 Q675 433 646.5 481 Q618 529 569 557.5 Q520 586 462 586 Z " />
<glyph glyph-name="uni1ED4" unicode="&#x1ed4;" horiz-adv-x="924" d="M628 1027 Q667 1031 682.5 1033 Q698 1035 704 1038 Q715 1045 715 1058 Q715 1073 703.5 1081 Q692 1089 672 1089 Q657 1089 642 1084.5 Q627 1080 598 1068 L572 1132 Q616 1149 639 1154 Q662 1159 692 1159 Q745 1159 779.5 1130 Q814 1101 814 1057 Q814 1029 798 1007.5 Q782 986 756 977 Q743 973 729.5 972 Q716 971 690 971 L690 928 L645 928 L692 901 L637 814 L461 903 L286 814 L232 901 L461 1036 L615 946 L615 1026 L628 1027 Z M459 776 Q557 776 633.5 745 Q710 714 771 650 Q823 595 851 524 Q879 453 879 375 Q879 262 824.5 170 Q770 78 675 25.5 Q580 -27 462 -27 Q370 -27 291.5 5 Q213 37 154 98 Q103 153 74 224.5 Q45 296 45 367 Q45 483 99 576.5 Q153 670 247.5 723 Q342 776 459 776 Z M462 586 Q405 586 356 558 Q307 530 278.5 481.5 Q250 433 250 377 Q250 318 278.5 269 Q307 220 355.5 191.5 Q404 163 462 163 Q520 163 569 191.5 Q618 220 646.5 268.5 Q675 317 675 375 Q675 433 646.5 481 Q618 529 569 557.5 Q520 586 462 586 Z " />
<glyph glyph-name="uni1ED6" unicode="&#x1ed6;" horiz-adv-x="924" d="M241 1048 Q242 1077 245.5 1097 Q249 1117 257 1135 Q272 1169 302 1188.5 Q332 1208 368 1208 Q386 1208 408 1203 Q430 1198 471 1184 Q523 1168 542 1168 Q560 1168 569.5 1177.5 Q579 1187 585 1209 L684 1209 Q680 1171 675 1152.5 Q670 1134 662 1118 Q629 1048 544 1048 Q501 1048 451 1067 Q413 1081 400.5 1084.5 Q388 1088 374 1088 Q357 1088 349.5 1080 Q342 1072 336 1048 L241 1048 Z M693 899 L638 814 L462 902 L286 814 L233 899 L462 1035 L693 899 Z M462 776 Q650 776 771 650 Q823 595 851 524 Q879 453 879 375 Q879 285 842.5 205 Q806 125 738 68 Q623 -27 459 -27 Q342 -27 247.5 26 Q153 79 99 172.5 Q45 266 45 382 Q45 467 82 546 Q119 625 186 681 Q240 727 311.5 751.5 Q383 776 462 776 Z M462 586 Q405 586 356 558 Q307 530 278.5 481.5 Q250 433 250 377 Q250 318 278.5 269 Q307 220 355.5 191.5 Q404 163 462 163 Q520 163 569 191.5 Q618 220 646.5 268.5 Q675 317 675 375 Q675 433 646.5 481 Q618 529 569 557.5 Q520 586 462 586 Z " />
<glyph glyph-name="uni1ED8" unicode="&#x1ed8;" horiz-adv-x="924" d="M693 899 L638 814 L462 902 L286 814 L233 899 L462 1035 L693 899 Z M462 776 Q650 776 771 650 Q823 595 851 524 Q879 453 879 375 Q879 285 842.5 205 Q806 125 738 68 Q623 -27 459 -27 Q342 -27 247.5 26 Q153 79 99 172.5 Q45 266 45 382 Q45 467 82 546 Q119 625 186 681 Q240 727 311.5 751.5 Q383 776 462 776 Z M462 586 Q405 586 356 558 Q307 530 278.5 481.5 Q250 433 250 377 Q250 318 278.5 269 Q307 220 355.5 191.5 Q404 163 462 163 Q520 163 569 191.5 Q618 220 646.5 268.5 Q675 317 675 375 Q675 433 646.5 481 Q618 529 569 557.5 Q520 586 462 586 Z M461 -67 Q502 -67 530.5 -95.5 Q559 -124 559 -164 Q559 -204 530.5 -233 Q502 -262 462 -262 Q421 -262 392.5 -233 Q364 -204 364 -163 Q364 -124 392.5 -95.5 Q421 -67 461 -67 Z " />
<glyph glyph-name="uni1EDA" unicode="&#x1eda;" horiz-adv-x="924" d="M389 885 L551 1040 L657 945 L464 814 L389 885 Z M798 616 Q842 554 860.5 500 Q879 446 879 376 Q879 262 824.5 170 Q770 78 675 25.5 Q580 -27 462 -27 Q345 -27 249.5 25.5 Q154 78 99.5 169.5 Q45 261 45 374 Q45 487 99.5 579 Q154 671 249.5 723.5 Q345 776 462 776 Q552 776 620.5 750.5 Q689 725 754 667 L757 663 L814 808 L951 808 L847 616 L798 616 Z M462 586 Q405 586 356 558 Q307 530 278.5 481.5 Q250 433 250 377 Q250 318 278.5 269 Q307 220 355.5 191.5 Q404 163 462 163 Q520 163 569 191.5 Q618 220 646.5 268.5 Q675 317 675 375 Q675 433 646.5 481 Q618 529 569 557.5 Q520 586 462 586 Z " />
<glyph glyph-name="uni1EDC" unicode="&#x1edc;" horiz-adv-x="924" d="M536 885 L460 814 L268 945 L373 1040 L536 885 Z M798 616 Q842 554 860.5 500 Q879 446 879 376 Q879 262 824.5 170 Q770 78 675 25.5 Q580 -27 462 -27 Q345 -27 249.5 25.5 Q154 78 99.5 169.5 Q45 261 45 374 Q45 487 99.5 579 Q154 671 249.5 723.5 Q345 776 462 776 Q552 776 620.5 750.5 Q689 725 754 667 L757 663 L814 808 L951 808 L847 616 L798 616 Z M462 586 Q405 586 356 558 Q307 530 278.5 481.5 Q250 433 250 377 Q250 318 278.5 269 Q307 220 355.5 191.5 Q404 163 462 163 Q520 163 569 191.5 Q618 220 646.5 268.5 Q675 317 675 375 Q675 433 646.5 481 Q618 529 569 557.5 Q520 586 462 586 Z " />
<glyph glyph-name="uni1EDE" unicode="&#x1ede;" horiz-adv-x="924" d="M421 932 L435 933 Q474 937 489.5 939 Q505 941 511 945 Q522 951 522 964 Q522 979 510.5 987.5 Q499 996 479 996 Q465 996 450 991.5 Q435 987 405 974 L379 1038 Q423 1055 446 1060.5 Q469 1066 498 1066 Q552 1066 586 1037 Q620 1008 620 963 Q620 936 604.5 914 Q589 892 563 884 Q550 879 541 878 Q532 877 497 877 L497 834 L421 834 L421 932 Z M798 616 Q842 554 860.5 500 Q879 446 879 376 Q879 262 824.5 170 Q770 78 675 25.5 Q580 -27 462 -27 Q345 -27 249.5 25.5 Q154 78 99.5 169.5 Q45 261 45 374 Q45 487 99.5 579 Q154 671 249.5 723.5 Q345 776 462 776 Q552 776 620.5 750.5 Q689 725 754 667 L757 663 L814 808 L951 808 L847 616 L798 616 Z M462 586 Q405 586 356 558 Q307 530 278.5 481.5 Q250 433 250 377 Q250 318 278.5 269 Q307 220 355.5 191.5 Q404 163 462 163 Q520 163 569 191.5 Q618 220 646.5 268.5 Q675 317 675 375 Q675 433 646.5 481 Q618 529 569 557.5 Q520 586 462 586 Z " />
<glyph glyph-name="uni1EE0" unicode="&#x1ee0;" horiz-adv-x="924" d="M241 833 Q242 862 245.5 882 Q249 902 257 920 Q272 954 302 973.5 Q332 993 368 993 Q387 993 409 988.5 Q431 984 471 970 Q519 954 542 954 Q560 954 569.5 963 Q579 972 585 994 L684 994 Q680 957 675 938 Q670 919 662 903 Q646 869 615.5 851 Q585 833 544 833 Q501 833 451 852 Q413 866 400.5 869.5 Q388 873 374 873 Q357 873 349.5 865.5 Q342 858 336 833 L241 833 Z M798 616 Q842 554 860.5 500 Q879 446 879 376 Q879 262 824.5 170 Q770 78 675 25.5 Q580 -27 462 -27 Q345 -27 249.5 25.5 Q154 78 99.5 169.5 Q45 261 45 374 Q45 487 99.5 579 Q154 671 249.5 723.5 Q345 776 462 776 Q552 776 620.5 750.5 Q689 725 754 667 L757 663 L814 808 L951 808 L847 616 L798 616 Z M462 586 Q405 586 356 558 Q307 530 278.5 481.5 Q250 433 250 377 Q250 318 278.5 269 Q307 220 355.5 191.5 Q404 163 462 163 Q520 163 569 191.5 Q618 220 646.5 268.5 Q675 317 675 375 Q675 433 646.5 481 Q618 529 569 557.5 Q520 586 462 586 Z " />
<glyph glyph-name="uni1EE2" unicode="&#x1ee2;" horiz-adv-x="924" d="M798 616 Q842 554 860.5 500 Q879 446 879 376 Q879 262 824.5 170 Q770 78 675 25.5 Q580 -27 462 -27 Q345 -27 249.5 25.5 Q154 78 99.5 169.5 Q45 261 45 374 Q45 487 99.5 579 Q154 671 249.5 723.5 Q345 776 462 776 Q552 776 620.5 750.5 Q689 725 754 667 L757 663 L814 808 L951 808 L847 616 L798 616 Z M462 586 Q405 586 356 558 Q307 530 278.5 481.5 Q250 433 250 377 Q250 318 278.5 269 Q307 220 355.5 191.5 Q404 163 462 163 Q520 163 569 191.5 Q618 220 646.5 268.5 Q675 317 675 375 Q675 433 646.5 481 Q618 529 569 557.5 Q520 586 462 586 Z M461 -60 Q502 -60 530.5 -88.5 Q559 -117 559 -157 Q559 -197 530.5 -226 Q502 -255 462 -255 Q421 -255 392.5 -226 Q364 -197 364 -156 Q364 -117 392.5 -88.5 Q421 -60 461 -60 Z " />
<glyph glyph-name="uni1EE4" unicode="&#x1ee4;" horiz-adv-x="815" d="M275 346 Q275 281 278.5 258 Q282 235 296 211 Q313 184 341.5 169 Q370 154 406 154 Q443 154 473.5 170.5 Q504 187 520 215 Q533 237 536.5 261.5 Q540 286 540 346 L540 754 L736 754 L736 319 Q736 236 719.5 184.5 Q703 133 662 87 Q568 -19 402 -19 Q316 -19 244 11 Q172 41 133 94 Q104 133 91.5 184.5 Q79 236 79 319 L79 754 L275 754 L275 346 Z M407 -69 Q448 -69 476.5 -97.5 Q505 -126 505 -166 Q505 -206 476.5 -235 Q448 -264 408 -264 Q367 -264 338.5 -235 Q310 -206 310 -165 Q310 -126 338.5 -97.5 Q367 -69 407 -69 Z " />
<glyph glyph-name="uni1EE6" unicode="&#x1ee6;" horiz-adv-x="815" d="M367 932 L381 933 Q420 937 435.5 939 Q451 941 457 945 Q468 951 468 964 Q468 979 456.5 987.5 Q445 996 425 996 Q411 996 395.5 991.5 Q380 987 350 974 L324 1038 Q369 1055 392 1060.5 Q415 1066 444 1066 Q497 1066 531.5 1037 Q566 1008 566 963 Q566 936 550.5 914 Q535 892 508 884 Q495 879 486 878 Q477 877 443 877 L443 834 L367 834 L367 932 Z M275 346 Q275 281 278.5 258 Q282 235 296 211 Q313 184 341.5 169 Q370 154 406 154 Q443 154 473.5 170.5 Q504 187 520 215 Q533 237 536.5 261.5 Q540 286 540 346 L540 754 L736 754 L736 319 Q736 236 719.5 184.5 Q703 133 662 87 Q568 -19 402 -19 Q316 -19 244 11 Q172 41 133 94 Q104 133 91.5 184.5 Q79 236 79 319 L79 754 L275 754 L275 346 Z " />
<glyph glyph-name="uni1EE8" unicode="&#x1ee8;" horiz-adv-x="815" d="M333 885 L497 1040 L602 945 L410 814 L333 885 Z M890 612 L766 612 L841 808 L994 808 L890 612 Z M275 346 Q275 281 278.5 258 Q282 235 296 211 Q313 184 341.5 169 Q370 154 406 154 Q443 154 473.5 170.5 Q504 187 520 215 Q533 237 536.5 261.5 Q540 286 540 346 L540 754 L736 754 L736 319 Q736 236 719.5 184.5 Q703 133 662 87 Q568 -19 402 -19 Q316 -19 244 11 Q172 41 133 94 Q104 133 91.5 184.5 Q79 236 79 319 L79 754 L275 754 L275 346 Z " />
<glyph glyph-name="uni1EEA" unicode="&#x1eea;" horiz-adv-x="815" d="M481 885 L406 814 L214 945 L318 1040 L481 885 Z M890 612 L766 612 L841 808 L994 808 L890 612 Z M275 346 Q275 281 278.5 258 Q282 235 296 211 Q313 184 341.5 169 Q370 154 406 154 Q443 154 473.5 170.5 Q504 187 520 215 Q533 237 536.5 261.5 Q540 286 540 346 L540 754 L736 754 L736 319 Q736 236 719.5 184.5 Q703 133 662 87 Q568 -19 402 -19 Q316 -19 244 11 Q172 41 133 94 Q104 133 91.5 184.5 Q79 236 79 319 L79 754 L275 754 L275 346 Z " />
<glyph glyph-name="uni1EEC" unicode="&#x1eec;" horiz-adv-x="815" d="M367 932 L381 933 Q420 937 435.5 939 Q451 941 457 945 Q468 951 468 964 Q468 979 456.5 987.5 Q445 996 425 996 Q411 996 395.5 991.5 Q380 987 350 974 L324 1038 Q369 1055 392 1060.5 Q415 1066 444 1066 Q497 1066 531.5 1037 Q566 1008 566 963 Q566 936 550.5 914 Q535 892 508 884 Q495 879 486 878 Q477 877 443 877 L443 834 L367 834 L367 932 Z M890 612 L766 612 L841 808 L994 808 L890 612 Z M275 346 Q275 281 278.5 258 Q282 235 296 211 Q313 184 341.5 169 Q370 154 406 154 Q443 154 473.5 170.5 Q504 187 520 215 Q533 237 536.5 261.5 Q540 286 540 346 L540 754 L736 754 L736 319 Q736 236 719.5 184.5 Q703 133 662 87 Q568 -19 402 -19 Q316 -19 244 11 Q172 41 133 94 Q104 133 91.5 184.5 Q79 236 79 319 L79 754 L275 754 L275 346 Z " />
<glyph glyph-name="uni1EEE" unicode="&#x1eee;" horiz-adv-x="815" d="M186 833 Q188 864 191 883 Q194 902 202 920 Q216 954 246 973.5 Q276 993 313 993 Q332 993 353.5 988.5 Q375 984 417 970 Q464 954 487 954 Q505 954 515 963 Q525 972 531 994 L629 994 Q625 957 620.5 938 Q616 919 608 903 Q573 833 489 833 Q447 833 395 852 Q358 866 345.5 869.5 Q333 873 320 873 Q303 873 295 865 Q287 857 281 833 L186 833 Z M890 612 L766 612 L841 808 L994 808 L890 612 Z M275 346 Q275 281 278.5 258 Q282 235 296 211 Q313 184 341.5 169 Q370 154 406 154 Q443 154 473.5 170.5 Q504 187 520 215 Q533 237 536.5 261.5 Q540 286 540 346 L540 754 L736 754 L736 319 Q736 236 719.5 184.5 Q703 133 662 87 Q568 -19 402 -19 Q316 -19 244 11 Q172 41 133 94 Q104 133 91.5 184.5 Q79 236 79 319 L79 754 L275 754 L275 346 Z " />
<glyph glyph-name="uni1EF0" unicode="&#x1ef0;" horiz-adv-x="815" d="M890 612 L766 612 L841 808 L994 808 L890 612 Z M275 346 Q275 281 278.5 258 Q282 235 296 211 Q313 184 341.5 169 Q370 154 406 154 Q443 154 473.5 170.5 Q504 187 520 215 Q533 237 536.5 261.5 Q540 286 540 346 L540 754 L736 754 L736 319 Q736 236 719.5 184.5 Q703 133 662 87 Q568 -19 402 -19 Q316 -19 244 11 Q172 41 133 94 Q104 133 91.5 184.5 Q79 236 79 319 L79 754 L275 754 L275 346 Z M407 -52 Q448 -52 476.5 -80.5 Q505 -109 505 -149 Q505 -189 476.5 -218 Q448 -247 408 -247 Q367 -247 338.5 -218 Q310 -189 310 -148 Q310 -109 338.5 -80.5 Q367 -52 407 -52 Z " />
<glyph glyph-name="uni1EF4" unicode="&#x1ef4;" horiz-adv-x="723" d="M220 754 L363 548 L499 754 L737 754 L454 362 L454 0 L259 0 L259 362 L-14 754 L220 754 Z M362 -34 Q403 -34 431.5 -62.5 Q460 -91 460 -131 Q460 -171 431.5 -200 Q403 -229 363 -229 Q321 -229 292.5 -200 Q264 -171 264 -130 Q264 -91 293 -62.5 Q322 -34 362 -34 Z " />
<glyph glyph-name="uni1EF6" unicode="&#x1ef6;" horiz-adv-x="723" d="M322 932 L336 933 Q375 937 390 939 Q405 941 411 945 Q423 951 423 964 Q423 979 411.5 987.5 Q400 996 380 996 Q365 996 350.5 991.5 Q336 987 305 974 L279 1038 Q324 1055 347 1060.5 Q370 1066 399 1066 Q452 1066 486.5 1037 Q521 1008 521 963 Q521 936 505 914 Q489 892 463 884 Q450 879 441 878 Q432 877 398 877 L398 834 L322 834 L322 932 Z M220 754 L363 548 L499 754 L737 754 L454 362 L454 0 L259 0 L259 362 L-14 754 L220 754 Z " />
<glyph glyph-name="uni1EF8" unicode="&#x1ef8;" horiz-adv-x="723" d="M141 833 Q141 883 156 920 Q171 954 201 973.5 Q231 993 268 993 Q287 993 308.5 988.5 Q330 984 371 970 Q419 954 442 954 Q460 954 469.5 963 Q479 972 485 994 L583 994 Q578 956 574 937 Q570 918 563 903 Q526 833 443 833 Q402 833 350 852 Q312 866 299.5 869.5 Q287 873 273 873 Q256 873 248.5 865 Q241 857 235 833 L141 833 Z M220 754 L363 548 L499 754 L737 754 L454 362 L454 0 L259 0 L259 362 L-14 754 L220 754 Z " />
<glyph glyph-name="a" unicode="a" horiz-adv-x="701" d="M640 0 L459 0 L459 56 Q429 18 391 0.5 Q353 -17 301 -17 Q229 -17 169.5 19.5 Q110 56 76 119 Q42 182 42 258 Q42 333 76 395 Q110 457 169 493 Q228 529 299 529 Q348 529 386.5 513 Q425 497 459 462 L459 512 L640 512 L640 0 Z M347 373 Q300 373 265.5 339 Q231 305 231 258 Q231 208 265 173.5 Q299 139 348 139 Q396 139 430 173.5 Q464 208 464 257 Q464 305 430 339 Q396 373 347 373 Z " />
<glyph glyph-name="aacute" unicode="&#xe1;" horiz-adv-x="701" d="M267 650 L410 824 L524 741 L351 588 L267 650 Z M640 0 L459 0 L459 56 Q429 18 391 0.5 Q353 -17 301 -17 Q229 -17 169.5 19.5 Q110 56 76 119 Q42 182 42 258 Q42 333 76 395 Q110 457 169 493 Q228 529 299 529 Q348 529 386.5 513 Q425 497 459 462 L459 512 L640 512 L640 0 Z M347 373 Q300 373 265.5 339 Q231 305 231 258 Q231 208 265 173.5 Q299 139 348 139 Q396 139 430 173.5 Q464 208 464 257 Q464 305 430 339 Q396 373 347 373 Z " />
<glyph glyph-name="abreve" unicode="&#x103;" horiz-adv-x="701" d="M276 784 Q284 737 300 719.5 Q316 702 350 702 Q394 702 412.5 718.5 Q431 735 441 784 L556 784 Q555 746 548.5 723.5 Q542 701 527 677 Q476 596 358 596 Q242 596 190 677 Q175 700 169 721.5 Q163 743 160 784 L276 784 Z M640 0 L459 0 L459 56 Q429 18 391 0.5 Q353 -17 301 -17 Q229 -17 169.5 19.5 Q110 56 76 119 Q42 182 42 258 Q42 333 76 395 Q110 457 169 493 Q228 529 299 529 Q348 529 386.5 513 Q425 497 459 462 L459 512 L640 512 L640 0 Z M347 373 Q300 373 265.5 339 Q231 305 231 258 Q231 208 265 173.5 Q299 139 348 139 Q396 139 430 173.5 Q464 208 464 257 Q464 305 430 339 Q396 373 347 373 Z " />
<glyph glyph-name="acircumflex" unicode="&#xe2;" horiz-adv-x="701" d="M581 675 L501 588 L357 698 L212 588 L136 675 L356 841 L581 675 Z M640 0 L459 0 L459 56 Q429 18 391 0.5 Q353 -17 301 -17 Q229 -17 169.5 19.5 Q110 56 76 119 Q42 182 42 258 Q42 333 76 395 Q110 457 169 493 Q228 529 299 529 Q348 529 386.5 513 Q425 497 459 462 L459 512 L640 512 L640 0 Z M347 373 Q300 373 265.5 339 Q231 305 231 258 Q231 208 265 173.5 Q299 139 348 139 Q396 139 430 173.5 Q464 208 464 257 Q464 305 430 339 Q396 373 347 373 Z " />
<glyph glyph-name="adieresis" unicode="&#xe4;" horiz-adv-x="701" d="M229 786 Q270 786 299 758 Q328 730 328 689 Q328 649 299.5 620 Q271 591 231 591 Q189 591 160.5 620 Q132 649 132 690 Q132 729 160.5 757.5 Q189 786 229 786 Z M486 786 Q527 786 555.5 758 Q584 730 584 689 Q584 649 555.5 620 Q527 591 487 591 Q446 591 417.5 620 Q389 649 389 690 Q389 729 417.5 757.5 Q446 786 486 786 Z M640 0 L459 0 L459 56 Q429 18 391 0.5 Q353 -17 301 -17 Q229 -17 169.5 19.5 Q110 56 76 119 Q42 182 42 258 Q42 333 76 395 Q110 457 169 493 Q228 529 299 529 Q348 529 386.5 513 Q425 497 459 462 L459 512 L640 512 L640 0 Z M347 373 Q300 373 265.5 339 Q231 305 231 258 Q231 208 265 173.5 Q299 139 348 139 Q396 139 430 173.5 Q464 208 464 257 Q464 305 430 339 Q396 373 347 373 Z " />
<glyph glyph-name="agrave" unicode="&#xe0;" horiz-adv-x="701" d="M450 650 L365 588 L192 741 L306 824 L450 650 Z M640 0 L459 0 L459 56 Q429 18 391 0.5 Q353 -17 301 -17 Q229 -17 169.5 19.5 Q110 56 76 119 Q42 182 42 258 Q42 333 76 395 Q110 457 169 493 Q228 529 299 529 Q348 529 386.5 513 Q425 497 459 462 L459 512 L640 512 L640 0 Z M347 373 Q300 373 265.5 339 Q231 305 231 258 Q231 208 265 173.5 Q299 139 348 139 Q396 139 430 173.5 Q464 208 464 257 Q464 305 430 339 Q396 373 347 373 Z " />
<glyph glyph-name="amacron" unicode="&#x101;" horiz-adv-x="701" d="M553 610 L157 610 L157 721 L553 721 L553 610 Z M640 0 L459 0 L459 56 Q429 18 391 0.5 Q353 -17 301 -17 Q229 -17 169.5 19.5 Q110 56 76 119 Q42 182 42 258 Q42 333 76 395 Q110 457 169 493 Q228 529 299 529 Q348 529 386.5 513 Q425 497 459 462 L459 512 L640 512 L640 0 Z M347 373 Q300 373 265.5 339 Q231 305 231 258 Q231 208 265 173.5 Q299 139 348 139 Q396 139 430 173.5 Q464 208 464 257 Q464 305 430 339 Q396 373 347 373 Z " />
<glyph glyph-name="aogonek" unicode="&#x105;" horiz-adv-x="701" d="M640 0 Q605 -23 590 -41 Q575 -59 575 -78 Q575 -96 587.5 -108.5 Q600 -121 619 -121 Q631 -121 644 -116.5 Q657 -112 676 -101 L652 -198 Q617 -218 572 -218 Q530 -218 500.5 -191.5 Q471 -165 471 -128 Q471 -53 557 0 L459 0 L459 56 Q429 18 391 0.5 Q353 -17 301 -17 Q229 -17 169.5 19.5 Q110 56 76 119 Q42 182 42 258 Q42 333 76 395 Q110 457 169 493 Q228 529 299 529 Q348 529 386.5 513 Q425 497 459 462 L459 512 L640 512 L640 0 Z M347 373 Q300 373 265.5 339 Q231 305 231 258 Q231 208 265 173.5 Q299 139 347 139 Q395 139 429.5 173.5 Q464 208 464 257 Q464 304 429.5 338.5 Q395 373 347 373 Z " />
<glyph glyph-name="aring" unicode="&#xe5;" horiz-adv-x="701" d="M362 826 Q431 826 472 794.5 Q513 763 513 709 Q513 655 472 623.5 Q431 592 362 592 L355 592 Q284 592 243.5 623.5 Q203 655 203 710 Q203 763 244.5 794.5 Q286 826 355 826 L362 826 Z M357 754 Q331 754 314.5 742 Q298 730 298 710 Q298 688 314 675.5 Q330 663 357 663 Q386 663 402 675 Q418 687 418 709 Q418 730 401.5 742 Q385 754 357 754 Z M640 0 L459 0 L459 56 Q429 18 391 0.5 Q353 -17 301 -17 Q229 -17 169.5 19.5 Q110 56 76 119 Q42 182 42 258 Q42 333 76 395 Q110 457 169 493 Q228 529 299 529 Q348 529 386.5 513 Q425 497 459 462 L459 512 L640 512 L640 0 Z M347 373 Q300 373 265.5 339 Q231 305 231 258 Q231 208 265 173.5 Q299 139 348 139 Q396 139 430 173.5 Q464 208 464 257 Q464 305 430 339 Q396 373 347 373 Z " />
<glyph glyph-name="aringacute" unicode="&#x1fb;" horiz-adv-x="701" d="M180 880 L323 1055 L437 973 L264 819 L180 880 Z M362 826 Q431 826 472 794.5 Q513 763 513 709 Q513 655 472 623.5 Q431 592 362 592 L355 592 Q284 592 243.5 623.5 Q203 655 203 710 Q203 763 244.5 794.5 Q286 826 355 826 L362 826 Z M357 754 Q331 754 314.5 742 Q298 730 298 710 Q298 688 314 675.5 Q330 663 357 663 Q386 663 402 675 Q418 687 418 709 Q418 730 401.5 742 Q385 754 357 754 Z M640 0 L459 0 L459 56 Q429 18 391 0.5 Q353 -17 301 -17 Q229 -17 169.5 19.5 Q110 56 76 119 Q42 182 42 258 Q42 333 76 395 Q110 457 169 493 Q228 529 299 529 Q348 529 386.5 513 Q425 497 459 462 L459 512 L640 512 L640 0 Z M347 373 Q300 373 265.5 339 Q231 305 231 258 Q231 208 265 173.5 Q299 139 348 139 Q396 139 430 173.5 Q464 208 464 257 Q464 305 430 339 Q396 373 347 373 Z " />
<glyph glyph-name="atilde" unicode="&#xe3;" horiz-adv-x="701" d="M165 593 Q165 616 166 625.5 Q167 635 171 650 Q181 696 209 723 Q237 750 275 750 Q293 750 309.5 745.5 Q326 741 375 723 Q419 706 441 706 Q457 706 464 714.5 Q471 723 478 750 L567 750 Q558 666 531 629.5 Q504 593 453 593 Q411 593 354 616 Q316 630 307 632.5 Q298 635 286 635 Q270 635 263 626.5 Q256 618 251 593 L165 593 Z M640 0 L459 0 L459 56 Q429 18 391 0.5 Q353 -17 301 -17 Q229 -17 169.5 19.5 Q110 56 76 119 Q42 182 42 258 Q42 333 76 395 Q110 457 169 493 Q228 529 299 529 Q348 529 386.5 513 Q425 497 459 462 L459 512 L640 512 L640 0 Z M347 373 Q300 373 265.5 339 Q231 305 231 258 Q231 208 265 173.5 Q299 139 348 139 Q396 139 430 173.5 Q464 208 464 257 Q464 305 430 339 Q396 373 347 373 Z " />
<glyph glyph-name="ae" unicode="&#xe6;" horiz-adv-x="981" d="M556 227 Q558 172 588.5 141.5 Q619 111 672 111 Q704 111 724.5 122 Q745 133 756 158 L931 158 Q907 75 837.5 29 Q768 -17 667 -17 Q591 -17 539.5 8 Q488 33 464 82 Q382 -15 254 -15 Q191 -15 143 5.5 Q95 26 68.5 63.5 Q42 101 42 150 Q42 191 61 226.5 Q80 262 114 285 Q138 302 175 311 Q212 320 255 320 Q291 320 318.5 314.5 Q346 309 386 294 Q386 323 382 338.5 Q378 354 366 366 Q338 399 263 399 Q233 399 204 393.5 Q175 388 122 371 L122 506 Q161 517 201.5 523.5 Q242 530 273 530 Q311 530 349.5 520.5 Q388 511 414 495 Q427 487 438 474.5 Q449 462 464 440 Q495 484 545.5 507 Q596 530 660 530 Q744 530 810.5 494.5 Q877 459 909 397 Q925 364 932 324.5 Q939 285 939 227 L556 227 Z M771 332 Q759 373 732 394.5 Q705 416 666 416 Q626 416 600.5 395.5 Q575 375 560 332 L771 332 Z M297 218 Q262 218 240.5 203.5 Q219 189 219 164 Q219 138 241.5 122 Q264 106 301 106 Q339 106 365 122.5 Q391 139 391 164 Q391 187 364 202.5 Q337 218 297 218 Z " />
<glyph glyph-name="aeacute" unicode="&#x1fd;" horiz-adv-x="981" d="M385 650 L528 824 L643 741 L469 588 L385 650 Z M556 227 Q558 172 588.5 141.5 Q619 111 672 111 Q704 111 724.5 122 Q745 133 756 158 L931 158 Q907 75 837.5 29 Q768 -17 667 -17 Q591 -17 539.5 8 Q488 33 464 82 Q382 -15 254 -15 Q191 -15 143 5.5 Q95 26 68.5 63.5 Q42 101 42 150 Q42 191 61 226.5 Q80 262 114 285 Q138 302 175 311 Q212 320 255 320 Q291 320 318.5 314.5 Q346 309 386 294 Q386 323 382 338.5 Q378 354 366 366 Q338 399 263 399 Q233 399 204 393.5 Q175 388 122 371 L122 506 Q161 517 201.5 523.5 Q242 530 273 530 Q311 530 349.5 520.5 Q388 511 414 495 Q427 487 438 474.5 Q449 462 464 440 Q495 484 545.5 507 Q596 530 660 530 Q744 530 810.5 494.5 Q877 459 909 397 Q925 364 932 324.5 Q939 285 939 227 L556 227 Z M771 332 Q759 373 732 394.5 Q705 416 666 416 Q626 416 600.5 395.5 Q575 375 560 332 L771 332 Z M297 218 Q262 218 240.5 203.5 Q219 189 219 164 Q219 138 241.5 122 Q264 106 301 106 Q339 106 365 122.5 Q391 139 391 164 Q391 187 364 202.5 Q337 218 297 218 Z " />
<glyph glyph-name="b" unicode="b" horiz-adv-x="701" d="M243 462 Q277 497 315 513 Q353 529 402 529 Q474 529 533 493 Q592 457 626 395 Q660 333 660 258 Q660 182 626 119 Q592 56 532.5 19.5 Q473 -17 401 -17 Q349 -17 311 0.5 Q273 18 243 56 L243 0 L62 0 L62 828 L243 828 L243 462 Z M355 373 Q306 373 271.5 339 Q237 305 237 257 Q237 208 271.5 173.5 Q306 139 355 139 Q402 139 436.5 173 Q471 207 471 254 Q471 304 437 338.5 Q403 373 355 373 Z " />
<glyph glyph-name="c" unicode="c" horiz-adv-x="489" d="M449 346 Q423 364 401.5 371.5 Q380 379 355 379 Q301 379 266 344 Q231 309 231 254 Q231 201 266.5 166 Q302 131 355 131 Q381 131 403.5 139 Q426 147 449 165 L449 11 Q414 -4 385 -10.5 Q356 -17 322 -17 Q245 -17 180.5 18.5 Q116 54 79 116 Q42 178 42 252 Q42 330 79 393 Q116 456 181.5 492 Q247 528 327 528 Q362 528 390 521.5 Q418 515 449 499 L449 346 Z " />
<glyph glyph-name="cacute" unicode="&#x107;" horiz-adv-x="489" d="M215 650 L357 824 L472 741 L298 588 L215 650 Z M449 346 Q423 364 401.5 371.5 Q380 379 355 379 Q301 379 266 344 Q231 309 231 254 Q231 201 266.5 166 Q302 131 355 131 Q381 131 403.5 139 Q426 147 449 165 L449 11 Q414 -4 385 -10.5 Q356 -17 322 -17 Q245 -17 180.5 18.5 Q116 54 79 116 Q42 178 42 252 Q42 330 79 393 Q116 456 181.5 492 Q247 528 327 528 Q362 528 390 521.5 Q418 515 449 499 L449 346 Z " />
<glyph glyph-name="ccaron" unicode="&#x10d;" horiz-adv-x="489" d="M296 730 L433 841 L513 754 L296 588 L82 754 L159 841 L296 730 Z M449 346 Q423 364 401.5 371.5 Q380 379 355 379 Q301 379 266 344 Q231 309 231 254 Q231 201 266.5 166 Q302 131 355 131 Q381 131 403.5 139 Q426 147 449 165 L449 11 Q414 -4 385 -10.5 Q356 -17 322 -17 Q245 -17 180.5 18.5 Q116 54 79 116 Q42 178 42 252 Q42 330 79 393 Q116 456 181.5 492 Q247 528 327 528 Q362 528 390 521.5 Q418 515 449 499 L449 346 Z " />
<glyph glyph-name="ccedilla" unicode="&#xe7;" horiz-adv-x="489" d="M449 346 Q423 364 401.5 371.5 Q380 379 355 379 Q301 379 266 344 Q231 309 231 254 Q231 201 266.5 166 Q302 131 355 131 Q381 131 403.5 139 Q426 147 449 165 L449 11 Q414 -4 385 -10.5 Q356 -17 322 -17 Q245 -17 180.5 18.5 Q116 54 79 116 Q42 178 42 252 Q42 330 79 393 Q116 456 181.5 492 Q247 528 327 528 Q362 528 390 521.5 Q418 515 449 499 L449 346 Z M157 -219 L289 -58 L393 -124 L240 -270 L157 -219 Z " />
<glyph glyph-name="ccircumflex" unicode="&#x109;" horiz-adv-x="489" d="M511 675 L431 588 L287 698 L142 588 L66 675 L287 841 L511 675 Z M449 346 Q423 364 401.5 371.5 Q380 379 355 379 Q301 379 266 344 Q231 309 231 254 Q231 201 266.5 166 Q302 131 355 131 Q381 131 403.5 139 Q426 147 449 165 L449 11 Q414 -4 385 -10.5 Q356 -17 322 -17 Q245 -17 180.5 18.5 Q116 54 79 116 Q42 178 42 252 Q42 330 79 393 Q116 456 181.5 492 Q247 528 327 528 Q362 528 390 521.5 Q418 515 449 499 L449 346 Z " />
<glyph glyph-name="cdotaccent" unicode="&#x10b;" horiz-adv-x="489" d="M298 797 Q341 797 371 767 Q401 737 401 694 Q401 651 371 621 Q341 591 298 591 Q255 591 225 621.5 Q195 652 195 695 Q195 736 225.5 766.5 Q256 797 298 797 Z M449 346 Q423 364 401.5 371.5 Q380 379 355 379 Q301 379 266 344 Q231 309 231 254 Q231 201 266.5 166 Q302 131 355 131 Q381 131 403.5 139 Q426 147 449 165 L449 11 Q414 -4 385 -10.5 Q356 -17 322 -17 Q245 -17 180.5 18.5 Q116 54 79 116 Q42 178 42 252 Q42 330 79 393 Q116 456 181.5 492 Q247 528 327 528 Q362 528 390 521.5 Q418 515 449 499 L449 346 Z " />
<glyph glyph-name="d" unicode="d" horiz-adv-x="701" d="M640 0 L459 0 L459 56 Q429 18 391 0.5 Q353 -17 301 -17 Q229 -17 169.5 19.5 Q110 56 76 119 Q42 182 42 258 Q42 333 76 395 Q110 457 169 493 Q228 529 299 529 Q348 529 386.5 513 Q425 497 459 462 L459 828 L640 828 L640 0 Z M347 373 Q300 373 265.5 339 Q231 305 231 258 Q231 208 265 173.5 Q299 139 348 139 Q396 139 430 173.5 Q464 208 464 257 Q464 305 430 339 Q396 373 347 373 Z " />
<glyph glyph-name="eth" unicode="&#xf0;" horiz-adv-x="699" d="M426 686 Q541 587 599.5 481.5 Q658 376 658 268 Q658 184 619 119.5 Q580 55 510.5 19 Q441 -17 350 -17 Q261 -17 190.5 18 Q120 53 81 115.5 Q42 178 42 258 Q42 338 80 399 Q118 460 187.5 494.5 Q257 529 350 530 Q332 554 320.5 566.5 Q309 579 287 599 L189 536 L133 626 L201 670 Q181 684 133 709 L205 832 Q240 816 275 795.5 Q310 775 333 757 L447 828 L505 736 L426 686 Z M349 375 Q302 375 267.5 340.5 Q233 306 233 259 Q233 209 267 174.5 Q301 140 350 140 Q399 140 433 174.5 Q467 209 467 258 Q467 307 432.5 341 Q398 375 349 375 Z " />
<glyph glyph-name="dcaron" unicode="&#x10f;" horiz-adv-x="896" d="M640 0 L459 0 L459 56 Q429 18 391 0.5 Q353 -17 301 -17 Q229 -17 169.5 19.5 Q110 56 76 119 Q42 182 42 258 Q42 333 76 395 Q110 457 169 493 Q228 529 299 529 Q348 529 386.5 513 Q425 497 459 462 L459 828 L640 828 L640 0 Z M793 636 L685 636 L759 828 L897 828 L793 636 Z M347 373 Q300 373 265.5 339 Q231 305 231 258 Q231 208 265 173.5 Q299 139 348 139 Q396 139 430 173.5 Q464 208 464 257 Q464 305 430 339 Q396 373 347 373 Z " />
<glyph glyph-name="dslash" unicode="&#x111;" horiz-adv-x="701" d="M640 738 L699 738 L699 617 L640 617 L640 0 L459 0 L459 56 Q429 18 391 0.5 Q353 -17 301 -17 Q229 -17 169.5 19.5 Q110 56 76 119 Q42 182 42 258 Q42 333 76 395 Q110 457 168.5 493 Q227 529 298 529 Q348 529 387 513 Q426 497 459 462 L459 617 L315 617 L315 738 L459 738 L459 828 L640 828 L640 738 Z M347 373 Q300 373 265.5 339 Q231 305 231 258 Q231 208 265 173.5 Q299 139 348 139 Q396 139 430 173.5 Q464 208 464 257 Q464 305 430 339 Q396 373 347 373 Z " />
<glyph glyph-name="e" unicode="e" horiz-adv-x="646" d="M225 223 Q226 107 334 107 Q366 107 386.5 118 Q407 129 424 156 L598 156 Q588 123 578.5 103.5 Q569 84 553 66 Q518 25 460.5 2.5 Q403 -20 334 -20 Q246 -20 180 13.5 Q114 47 78 108.5 Q42 170 42 252 Q42 335 76.5 397.5 Q111 460 175.5 493.5 Q240 527 327 527 Q457 527 531.5 451 Q606 375 606 241 L606 223 L225 223 Z M437 328 Q428 367 400 388.5 Q372 410 331 410 Q290 410 263 388.5 Q236 367 229 328 L437 328 Z " />
<glyph glyph-name="eacute" unicode="&#xe9;" horiz-adv-x="646" d="M240 650 L383 824 L497 741 L324 588 L240 650 Z M225 223 Q226 107 334 107 Q366 107 386.5 118 Q407 129 424 156 L598 156 Q588 123 578.5 103.5 Q569 84 553 66 Q518 25 460.5 2.5 Q403 -20 334 -20 Q246 -20 180 13.5 Q114 47 78 108.5 Q42 170 42 252 Q42 335 76.5 397.5 Q111 460 175.5 493.5 Q240 527 327 527 Q457 527 531.5 451 Q606 375 606 241 L606 223 L225 223 Z M437 328 Q428 367 400 388.5 Q372 410 331 410 Q290 410 263 388.5 Q236 367 229 328 L437 328 Z " />
<glyph glyph-name="ebreve" unicode="&#x115;" horiz-adv-x="646" d="M521 784 Q520 746 514 724 Q508 702 493 677 Q441 596 323 596 Q207 596 155 677 Q140 702 134 724 Q128 746 127 784 L242 784 Q248 742 267.5 722.5 Q287 703 323 703 Q360 703 380 722.5 Q400 742 406 784 L521 784 Z M225 223 Q226 107 334 107 Q366 107 386.5 118 Q407 129 424 156 L598 156 Q588 123 578.5 103.5 Q569 84 553 66 Q518 25 460.5 2.5 Q403 -20 334 -20 Q246 -20 180 13.5 Q114 47 78 108.5 Q42 170 42 252 Q42 335 76.5 397.5 Q111 460 175.5 493.5 Q240 527 327 527 Q457 527 531.5 451 Q606 375 606 241 L606 223 L225 223 Z M437 328 Q428 367 400 388.5 Q372 410 331 410 Q290 410 263 388.5 Q236 367 229 328 L437 328 Z " />
<glyph glyph-name="ecaron" unicode="&#x11b;" horiz-adv-x="646" d="M325 730 L470 841 L550 754 L325 588 L105 754 L182 841 L325 730 Z M225 223 Q226 107 334 107 Q366 107 386.5 118 Q407 129 424 156 L598 156 Q588 123 578.5 103.5 Q569 84 553 66 Q518 25 460.5 2.5 Q403 -20 334 -20 Q246 -20 180 13.5 Q114 47 78 108.5 Q42 170 42 252 Q42 335 76.5 397.5 Q111 460 175.5 493.5 Q240 527 327 527 Q457 527 531.5 451 Q606 375 606 241 L606 223 L225 223 Z M437 328 Q428 367 400 388.5 Q372 410 331 410 Q290 410 263 388.5 Q236 367 229 328 L437 328 Z " />
<glyph glyph-name="ecircumflex" unicode="&#xea;" horiz-adv-x="646" d="M550 675 L470 588 L325 698 L182 588 L105 675 L325 841 L550 675 Z M225 223 Q226 107 334 107 Q366 107 386.5 118 Q407 129 424 156 L598 156 Q588 123 578.5 103.5 Q569 84 553 66 Q518 25 460.5 2.5 Q403 -20 334 -20 Q246 -20 180 13.5 Q114 47 78 108.5 Q42 170 42 252 Q42 335 76.5 397.5 Q111 460 175.5 493.5 Q240 527 327 527 Q457 527 531.5 451 Q606 375 606 241 L606 223 L225 223 Z M437 328 Q428 367 400 388.5 Q372 410 331 410 Q290 410 263 388.5 Q236 367 229 328 L437 328 Z " />
<glyph glyph-name="edieresis" unicode="&#xeb;" horiz-adv-x="646" d="M194 786 Q235 786 264 758 Q293 730 293 689 Q293 649 264.5 620 Q236 591 195 591 Q154 591 125.5 620 Q97 649 97 690 Q97 729 125.5 757.5 Q154 786 194 786 Z M451 786 Q492 786 520.5 758 Q549 730 549 689 Q549 649 520.5 620 Q492 591 452 591 Q411 591 382.5 620 Q354 649 354 690 Q354 729 382.5 757.5 Q411 786 451 786 Z M225 223 Q226 107 334 107 Q366 107 386.5 118 Q407 129 424 156 L598 156 Q588 123 578.5 103.5 Q569 84 553 66 Q518 25 460.5 2.5 Q403 -20 334 -20 Q246 -20 180 13.5 Q114 47 78 108.5 Q42 170 42 252 Q42 335 76.5 397.5 Q111 460 175.5 493.5 Q240 527 327 527 Q457 527 531.5 451 Q606 375 606 241 L606 223 L225 223 Z M437 328 Q428 367 400 388.5 Q372 410 331 410 Q290 410 263 388.5 Q236 367 229 328 L437 328 Z " />
<glyph glyph-name="edotaccent" unicode="&#x117;" horiz-adv-x="646" d="M323 797 Q366 797 396 767 Q426 737 426 694 Q426 651 396 621 Q366 591 323 591 Q280 591 250 621.5 Q220 652 220 695 Q220 736 250.5 766.5 Q281 797 323 797 Z M225 223 Q226 107 334 107 Q366 107 386.5 118 Q407 129 424 156 L598 156 Q588 123 578.5 103.5 Q569 84 553 66 Q518 25 460.5 2.5 Q403 -20 334 -20 Q246 -20 180 13.5 Q114 47 78 108.5 Q42 170 42 252 Q42 335 76.5 397.5 Q111 460 175.5 493.5 Q240 527 327 527 Q457 527 531.5 451 Q606 375 606 241 L606 223 L225 223 Z M437 328 Q428 367 400 388.5 Q372 410 331 410 Q290 410 263 388.5 Q236 367 229 328 L437 328 Z " />
<glyph glyph-name="egrave" unicode="&#xe8;" horiz-adv-x="646" d="M423 650 L338 588 L165 741 L279 824 L423 650 Z M225 223 Q226 107 334 107 Q366 107 386.5 118 Q407 129 424 156 L598 156 Q588 123 578.5 103.5 Q569 84 553 66 Q518 25 460.5 2.5 Q403 -20 334 -20 Q246 -20 180 13.5 Q114 47 78 108.5 Q42 170 42 252 Q42 335 76.5 397.5 Q111 460 175.5 493.5 Q240 527 327 527 Q457 527 531.5 451 Q606 375 606 241 L606 223 L225 223 Z M437 328 Q428 367 400 388.5 Q372 410 331 410 Q290 410 263 388.5 Q236 367 229 328 L437 328 Z " />
<glyph glyph-name="emacron" unicode="&#x113;" horiz-adv-x="646" d="M521 610 L125 610 L125 721 L521 721 L521 610 Z M225 223 Q226 107 334 107 Q366 107 386.5 118 Q407 129 424 156 L598 156 Q588 123 578.5 103.5 Q569 84 553 66 Q518 25 460.5 2.5 Q403 -20 334 -20 Q246 -20 180 13.5 Q114 47 78 108.5 Q42 170 42 252 Q42 335 76.5 397.5 Q111 460 175.5 493.5 Q240 527 327 527 Q457 527 531.5 451 Q606 375 606 241 L606 223 L225 223 Z M437 328 Q428 367 400 388.5 Q372 410 331 410 Q290 410 263 388.5 Q236 367 229 328 L437 328 Z " />
<glyph glyph-name="eogonek" unicode="&#x119;" horiz-adv-x="646" d="M225 223 Q226 107 334 107 Q366 107 386.5 118 Q407 129 424 156 L598 156 Q582 100 551.5 65.5 Q521 31 462 1 Q418 -19 401.5 -35.5 Q385 -52 385 -76 Q385 -95 398 -108 Q411 -121 429 -121 Q441 -121 451 -117.5 Q461 -114 486 -102 L462 -198 Q428 -218 382 -218 Q341 -218 311 -191.5 Q281 -165 281 -128 Q281 -98 295 -71.5 Q309 -45 339 -20 Q297 -20 268.5 -15.5 Q240 -11 210 0 Q131 30 86.5 96 Q42 162 42 251 Q42 335 76.5 397.5 Q111 460 175.5 493.5 Q240 527 327 527 Q457 527 531.5 451 Q606 375 606 241 L606 223 L225 223 Z M437 328 Q428 367 400 388.5 Q372 410 331 410 Q290 410 263 388.5 Q236 367 229 328 L437 328 Z " />
<glyph glyph-name="uni0259" unicode="&#x259;" horiz-adv-x="644" d="M418 288 Q417 313 415 327 Q413 341 407 355 Q396 380 373 395 Q350 410 324 410 Q291 410 269 395 Q247 380 233 348 L49 354 Q78 434 150 479.5 Q222 525 319 525 Q404 525 469.5 491.5 Q535 458 571.5 398 Q608 338 608 260 Q608 180 571.5 117.5 Q535 55 470 20 Q405 -15 323 -15 Q229 -15 161 29.5 Q93 74 59 158 Q45 194 41 218 Q37 242 37 288 L418 288 Z M225 197 Q232 151 257.5 125 Q283 99 322 99 Q361 99 386 125 Q411 151 416 197 L225 197 Z " />
<glyph glyph-name="f" unicode="f" horiz-adv-x="391" d="M77 0 L77 362 L12 362 L12 512 L77 512 L77 590 Q77 652 89.5 690.5 Q102 729 134 764 Q169 800 213.5 820 Q258 840 305 840 Q328 840 344.5 835.5 Q361 831 385 820 L385 663 Q364 673 350 677 Q336 681 322 681 Q304 681 287 671.5 Q270 662 264 647 Q260 638 259 623.5 Q258 609 258 576 L258 512 L385 512 L385 362 L258 362 L258 0 L77 0 Z " />
<glyph glyph-name="g" unicode="g" horiz-adv-x="697" d="M635 35 Q635 -46 620.5 -91 Q606 -136 566 -176 Q484 -259 338 -259 Q187 -259 103 -168 Q78 -142 65.5 -118.5 Q53 -95 47 -62 L251 -62 Q269 -114 337 -114 Q392 -114 423 -81.5 Q454 -49 454 9 L454 56 Q413 19 377.5 4.5 Q342 -10 293 -10 Q220 -10 163 23 Q106 56 74 115 Q42 174 42 249 Q42 327 76 390.5 Q110 454 169.5 490.5 Q229 527 302 527 Q351 527 386.5 511 Q422 495 454 459 L454 512 L635 512 L635 35 Z M347 374 Q300 374 265.5 340 Q231 306 231 259 Q231 210 265 175.5 Q299 141 347 141 Q395 141 429 175 Q463 209 463 258 Q463 306 429 340 Q395 374 347 374 Z " />
<glyph glyph-name="gbreve" unicode="&#x11f;" horiz-adv-x="697" d="M267 784 Q274 737 290 719.5 Q306 702 341 702 Q385 702 403 718.5 Q421 735 431 784 L547 784 Q545 745 539 723 Q533 701 518 677 Q466 596 349 596 Q233 596 180 677 Q165 701 159 723 Q153 745 151 784 L267 784 Z M635 35 Q635 -46 620.5 -91 Q606 -136 566 -176 Q484 -259 338 -259 Q187 -259 103 -168 Q78 -142 65.5 -118.5 Q53 -95 47 -62 L251 -62 Q269 -114 337 -114 Q392 -114 423 -81.5 Q454 -49 454 9 L454 56 Q413 19 377.5 4.5 Q342 -10 293 -10 Q220 -10 163 23 Q106 56 74 115 Q42 174 42 249 Q42 327 76 390.5 Q110 454 169.5 490.5 Q229 527 302 527 Q351 527 386.5 511 Q422 495 454 459 L454 512 L635 512 L635 35 Z M347 374 Q300 374 265.5 340 Q231 306 231 259 Q231 210 265 175.5 Q299 141 347 141 Q395 141 429 175 Q463 209 463 258 Q463 306 429 340 Q395 374 347 374 Z " />
<glyph glyph-name="gcaron" unicode="&#x1e7;" horiz-adv-x="697" d="M347 730 L492 841 L572 754 L347 588 L127 754 L203 841 L347 730 Z M635 35 Q635 -46 620.5 -91 Q606 -136 566 -176 Q484 -259 338 -259 Q187 -259 103 -168 Q78 -142 65.5 -118.5 Q53 -95 47 -62 L251 -62 Q269 -114 337 -114 Q392 -114 423 -81.5 Q454 -49 454 9 L454 56 Q413 19 377.5 4.5 Q342 -10 293 -10 Q220 -10 163 23 Q106 56 74 115 Q42 174 42 249 Q42 327 76 390.5 Q110 454 169.5 490.5 Q229 527 302 527 Q351 527 386.5 511 Q422 495 454 459 L454 512 L635 512 L635 35 Z M347 374 Q300 374 265.5 340 Q231 306 231 259 Q231 210 265 175.5 Q299 141 347 141 Q395 141 429 175 Q463 209 463 258 Q463 306 429 340 Q395 374 347 374 Z " />
<glyph glyph-name="gcircumflex" unicode="&#x11d;" horiz-adv-x="697" d="M572 675 L492 588 L347 698 L203 588 L127 675 L347 841 L572 675 Z M635 35 Q635 -46 620.5 -91 Q606 -136 566 -176 Q484 -259 338 -259 Q187 -259 103 -168 Q78 -142 65.5 -118.5 Q53 -95 47 -62 L251 -62 Q269 -114 337 -114 Q392 -114 423 -81.5 Q454 -49 454 9 L454 56 Q413 19 377.5 4.5 Q342 -10 293 -10 Q220 -10 163 23 Q106 56 74 115 Q42 174 42 249 Q42 327 76 390.5 Q110 454 169.5 490.5 Q229 527 302 527 Q351 527 386.5 511 Q422 495 454 459 L454 512 L635 512 L635 35 Z M347 374 Q300 374 265.5 340 Q231 306 231 259 Q231 210 265 175.5 Q299 141 347 141 Q395 141 429 175 Q463 209 463 258 Q463 306 429 340 Q395 374 347 374 Z " />
<glyph glyph-name="uni0123" unicode="&#x123;" horiz-adv-x="697" d="M360 788 L470 788 L395 599 L258 599 L360 788 Z M635 35 Q635 -46 620.5 -91 Q606 -136 566 -176 Q484 -259 338 -259 Q187 -259 103 -168 Q78 -142 65.5 -118.5 Q53 -95 47 -62 L251 -62 Q269 -114 337 -114 Q392 -114 423 -81.5 Q454 -49 454 9 L454 56 Q413 19 377.5 4.5 Q342 -10 293 -10 Q220 -10 163 23 Q106 56 74 115 Q42 174 42 249 Q42 327 76 390.5 Q110 454 169.5 490.5 Q229 527 302 527 Q351 527 386.5 511 Q422 495 454 459 L454 512 L635 512 L635 35 Z M347 374 Q300 374 265.5 340 Q231 306 231 259 Q231 210 265 175.5 Q299 141 347 141 Q395 141 429 175 Q463 209 463 258 Q463 306 429 340 Q395 374 347 374 Z " />
<glyph glyph-name="gdotaccent" unicode="&#x121;" horiz-adv-x="697" d="M349 797 Q392 797 422 767 Q452 737 452 694 Q452 651 422 621 Q392 591 349 591 Q306 591 276 621.5 Q246 652 246 695 Q246 736 276.5 766.5 Q307 797 349 797 Z M635 35 Q635 -46 620.5 -91 Q606 -136 566 -176 Q484 -259 338 -259 Q187 -259 103 -168 Q78 -142 65.5 -118.5 Q53 -95 47 -62 L251 -62 Q269 -114 337 -114 Q392 -114 423 -81.5 Q454 -49 454 9 L454 56 Q413 19 377.5 4.5 Q342 -10 293 -10 Q220 -10 163 23 Q106 56 74 115 Q42 174 42 249 Q42 327 76 390.5 Q110 454 169.5 490.5 Q229 527 302 527 Q351 527 386.5 511 Q422 495 454 459 L454 512 L635 512 L635 35 Z M347 374 Q300 374 265.5 340 Q231 306 231 259 Q231 210 265 175.5 Q299 141 347 141 Q395 141 429 175 Q463 209 463 258 Q463 306 429 340 Q395 374 347 374 Z " />
<glyph glyph-name="h" unicode="h" horiz-adv-x="663" d="M243 447 Q280 490 315.5 506.5 Q351 523 407 523 Q502 523 555 467 Q582 440 592 409 Q602 378 602 325 L602 0 L421 0 L421 259 Q421 299 419 312.5 Q417 326 410 340 Q402 358 382 369 Q362 380 338 380 Q316 380 296 370.5 Q276 361 262 346 Q252 332 247.5 315.5 Q243 299 243 275 L243 0 L62 0 L62 828 L243 828 L243 447 Z " />
<glyph glyph-name="hbar" unicode="&#x127;" horiz-adv-x="663" d="M242 617 L242 447 Q278 489 314.5 506 Q351 523 406 523 Q501 523 554 467 Q581 440 591 409 Q601 378 601 325 L601 0 L420 0 L420 259 Q420 299 418 312.5 Q416 326 409 340 Q401 358 380.5 369 Q360 380 337 380 Q315 380 295 370.5 Q275 361 261 346 Q251 333 246.5 316.5 Q242 300 242 275 L242 0 L61 0 L61 617 L1 617 L1 738 L61 738 L61 828 L242 828 L242 738 L385 738 L385 617 L242 617 Z " />
<glyph glyph-name="hcircumflex" unicode="&#x125;" horiz-adv-x="663" d="M459 945 L405 859 L229 947 L53 859 L-1 945 L229 1080 L459 945 Z M243 447 Q280 490 315.5 506.5 Q351 523 407 523 Q502 523 555 467 Q582 440 592 409 Q602 378 602 325 L602 0 L421 0 L421 259 Q421 299 419 312.5 Q417 326 410 340 Q402 358 382 369 Q362 380 338 380 Q316 380 296 370.5 Q276 361 262 346 Q252 332 247.5 315.5 Q243 299 243 275 L243 0 L62 0 L62 828 L243 828 L243 447 Z " />
<glyph glyph-name="i" unicode="i" horiz-adv-x="304" d="M153 810 Q195 810 224.5 780.5 Q254 751 254 709 Q254 666 224.5 636.5 Q195 607 153 607 Q110 607 80.5 637 Q51 667 51 710 Q51 751 81 780.5 Q111 810 153 810 Z M62 0 L62 512 L243 512 L243 0 L62 0 Z " />
<glyph glyph-name="dotlessi" unicode="&#x131;" horiz-adv-x="304" d="M62 0 L62 512 L243 512 L243 0 L62 0 Z " />
<glyph glyph-name="iacute" unicode="&#xed;" horiz-adv-x="304" d="M69 650 L211 824 L327 741 L153 588 L69 650 Z M62 0 L62 512 L243 512 L243 0 L62 0 Z " />
<glyph glyph-name="ibreve" unicode="&#x12d;" horiz-adv-x="304" d="M85 784 Q91 738 105 720.5 Q119 703 151 703 Q183 703 197.5 720.5 Q212 738 219 784 L334 784 Q331 742 325.5 718.5 Q320 695 307 673 Q285 636 246 616 Q207 596 154 596 Q98 596 61.5 615 Q25 634 -2 677 Q-17 702 -23 724 Q-29 746 -31 784 L85 784 Z M61 0 L61 512 L242 512 L242 0 L61 0 Z " />
<glyph glyph-name="icircumflex" unicode="&#xee;" horiz-adv-x="304" d="M353 675 L272 588 L153 698 L29 588 L-47 675 L153 841 L353 675 Z M62 0 L62 512 L243 512 L243 0 L62 0 Z " />
<glyph glyph-name="idieresis" unicode="&#xef;" horiz-adv-x="304" d="M35 786 Q76 786 104.5 758 Q133 730 133 689 Q133 649 104.5 620 Q76 591 36 591 Q-5 591 -33.5 620 Q-62 649 -62 690 Q-62 729 -33.5 757.5 Q-5 786 35 786 Z M269 786 Q310 786 338.5 758 Q367 730 367 689 Q367 649 338.5 620 Q310 591 270 591 Q229 591 200.5 620 Q172 649 172 690 Q172 729 200.5 757.5 Q229 786 269 786 Z M62 0 L62 512 L243 512 L243 0 L62 0 Z " />
<glyph glyph-name="igrave" unicode="&#xec;" horiz-adv-x="304" d="M236 650 L153 588 L-21 741 L94 824 L236 650 Z M62 0 L62 512 L243 512 L243 0 L62 0 Z " />
<glyph glyph-name="ij" unicode="&#x133;" horiz-adv-x="623" d="M153 810 Q195 810 224.5 780.5 Q254 751 254 709 Q254 666 224.5 636.5 Q195 607 153 607 Q110 607 80.5 637 Q51 667 51 710 Q51 751 81 780.5 Q111 810 153 810 Z M62 0 L62 512 L243 512 L243 0 L62 0 Z M472 810 Q514 810 543.5 780.5 Q573 751 573 709 Q573 666 543.5 636.5 Q514 607 472 607 Q429 607 399.5 637 Q370 667 370 710 Q370 751 400 780.5 Q430 810 472 810 Z M298 -112 Q317 -128 343 -128 Q381 -128 381 -63 L381 512 L562 512 L562 -77 Q562 -137 550 -174 Q538 -211 512 -235 Q468 -276 398 -276 Q334 -276 298 -255 L298 -112 Z " />
<glyph glyph-name="imacron" unicode="&#x12b;" horiz-adv-x="304" d="M320 610 L-16 610 L-16 721 L320 721 L320 610 Z M61 0 L61 512 L242 512 L242 0 L61 0 Z " />
<glyph glyph-name="iogonek" unicode="&#x12f;" horiz-adv-x="304" d="M153 810 Q195 810 224.5 780.5 Q254 751 254 709 Q254 666 224.5 636.5 Q195 607 153 607 Q110 607 80.5 637 Q51 667 51 710 Q51 751 81 780.5 Q111 810 153 810 Z M243 512 L243 0 Q211 -8 190 -31 Q169 -54 169 -81 Q169 -100 178.5 -110.5 Q188 -121 205 -121 Q217 -121 229.5 -116.5 Q242 -112 262 -101 L238 -198 Q221 -209 205.5 -213 Q190 -217 168 -217 Q122 -217 94 -191.5 Q66 -166 66 -124 Q66 -89 88.5 -56.5 Q111 -24 151 0 L62 0 L62 512 L243 512 Z " />
<glyph glyph-name="itilde" unicode="&#x129;" horiz-adv-x="304" d="M-49 593 Q-49 665 -19 707.5 Q11 750 61 750 Q79 750 95.5 745.5 Q112 741 162 723 Q204 706 227 706 Q243 706 250 714.5 Q257 723 264 750 L354 750 Q344 666 317.5 629.5 Q291 593 240 593 Q221 593 194 599 Q167 605 140 616 Q102 630 93 632.5 Q84 635 72 635 Q56 635 49 626.5 Q42 618 37 593 L-49 593 Z M62 0 L62 512 L243 512 L243 0 L62 0 Z " />
<glyph glyph-name="j" unicode="j" horiz-adv-x="304" d="M153 810 Q195 810 224.5 780.5 Q254 751 254 709 Q254 666 224.5 636.5 Q195 607 153 607 Q110 607 80.5 637 Q51 667 51 710 Q51 751 81 780.5 Q111 810 153 810 Z M-21 -112 Q-2 -128 24 -128 Q62 -128 62 -63 L62 512 L243 512 L243 -77 Q243 -137 231 -174 Q219 -211 193 -235 Q149 -276 79 -276 Q15 -276 -21 -255 L-21 -112 Z " />
<glyph glyph-name="uni0237" unicode="&#x237;" horiz-adv-x="304" d="M-21 -112 Q-2 -128 24 -128 Q62 -128 62 -63 L62 512 L243 512 L243 -77 Q243 -137 231 -174 Q219 -211 193 -235 Q149 -276 79 -276 Q15 -276 -21 -255 L-21 -112 Z " />
<glyph glyph-name="jcircumflex" unicode="&#x135;" horiz-adv-x="304" d="M375 675 L295 588 L150 698 L7 588 L-70 675 L150 841 L375 675 Z M-21 -112 Q-2 -128 24 -128 Q62 -128 62 -63 L62 512 L243 512 L243 -77 Q243 -137 231 -174 Q219 -211 193 -235 Q149 -276 79 -276 Q15 -276 -21 -255 L-21 -112 Z " />
<glyph glyph-name="k" unicode="k" horiz-adv-x="697" d="M433 512 L680 512 L424 276 L696 0 L442 0 L243 208 L243 0 L62 0 L62 828 L243 828 L243 328 L433 512 Z " />
<glyph glyph-name="uni0137" unicode="&#x137;" horiz-adv-x="697" d="M433 512 L680 512 L424 276 L696 0 L442 0 L243 208 L243 0 L62 0 L62 828 L243 828 L243 328 L433 512 Z M324 -252 L215 -252 L289 -63 L427 -63 L324 -252 Z " />
<glyph glyph-name="kgreenlandic" unicode="&#x138;" horiz-adv-x="697" d="M433 512 L680 512 L424 276 L696 0 L442 0 L243 208 L243 0 L62 0 L62 512 L243 512 L243 328 L433 512 Z " />
<glyph glyph-name="l" unicode="l" horiz-adv-x="304" d="M62 0 L62 828 L243 828 L243 0 L62 0 Z " />
<glyph glyph-name="lacute" unicode="&#x13a;" horiz-adv-x="304" d="M79 922 L242 1078 L347 982 L155 851 L79 922 Z M62 0 L62 814 L243 814 L243 0 L62 0 Z " />
<glyph glyph-name="lcaron" unicode="&#x13e;" horiz-adv-x="501" d="M62 0 L62 828 L243 828 L243 0 L62 0 Z M398 636 L288 636 L363 828 L501 828 L398 636 Z " />
<glyph glyph-name="uni013C" unicode="&#x13c;" horiz-adv-x="304" d="M61 0 L61 828 L242 828 L242 0 L61 0 Z M123 -252 L14 -252 L88 -63 L226 -63 L123 -252 Z " />
<glyph glyph-name="ldot" unicode="&#x140;" horiz-adv-x="538" d="M62 0 L62 828 L243 828 L243 0 L62 0 Z M421 494 Q470 494 504.5 460 Q539 426 539 377 Q539 328 505 294 Q471 260 423 260 Q373 260 339 294.5 Q305 329 305 379 Q305 426 339.5 460 Q374 494 421 494 Z " />
<glyph glyph-name="lslash" unicode="&#x142;" horiz-adv-x="376" d="M365 566 L365 420 L279 364 L279 0 L98 0 L98 277 L11 217 L11 362 L98 418 L98 828 L279 828 L279 506 L365 566 Z " />
<glyph glyph-name="m" unicode="m" horiz-adv-x="991" d="M243 449 Q283 488 320.5 504 Q358 520 409 520 Q468 520 509.5 497 Q551 474 582 425 Q644 521 756 521 Q801 521 840 502.5 Q879 484 901 452 Q929 411 929 332 L929 0 L748 0 L748 253 Q748 292 746.5 305.5 Q745 319 738 334 Q730 356 712.5 368 Q695 380 672 380 Q649 380 628.5 366.5 Q608 353 598 332 Q585 305 585 253 L585 0 L405 0 L405 253 Q405 291 403.5 305 Q402 319 397 334 Q389 356 369 369.5 Q349 383 327 383 Q306 383 285.5 370.5 Q265 358 255 340 Q248 327 245.5 307 Q243 287 243 253 L243 0 L62 0 L62 512 L243 512 L243 449 Z " />
<glyph glyph-name="n" unicode="n" horiz-adv-x="663" d="M243 447 Q280 490 315.5 506.5 Q351 523 407 523 Q502 523 555 467 Q582 440 592 409 Q602 378 602 325 L602 0 L421 0 L421 259 Q421 299 419 312.5 Q417 326 410 340 Q402 358 382 369 Q362 380 338 380 Q316 380 296 370.5 Q276 361 262 346 Q252 332 247.5 315.5 Q243 299 243 275 L243 0 L62 0 L62 512 L243 512 L243 447 Z " />
<glyph glyph-name="nacute" unicode="&#x144;" horiz-adv-x="663" d="M241 650 L384 824 L498 741 L325 588 L241 650 Z M243 447 Q280 490 315.5 506.5 Q351 523 407 523 Q502 523 555 467 Q582 440 592 409 Q602 378 602 325 L602 0 L421 0 L421 259 Q421 299 419 312.5 Q417 326 410 340 Q402 358 382 369 Q362 380 338 380 Q316 380 296 370.5 Q276 361 262 346 Q252 332 247.5 315.5 Q243 299 243 275 L243 0 L62 0 L62 512 L243 512 L243 447 Z " />
<glyph glyph-name="napostrophe" unicode="&#x149;" horiz-adv-x="880" d="M154 421 L37 421 L167 754 L337 754 L154 421 Z M459 447 Q495 490 531 506.5 Q567 523 623 523 Q716 523 771 467 Q798 440 808 409 Q818 378 818 325 L818 0 L637 0 L637 259 Q637 299 635 312.5 Q633 326 626 340 Q618 358 597.5 369 Q577 380 554 380 Q532 380 512 370.5 Q492 361 478 346 Q468 333 463.5 316.5 Q459 300 459 275 L459 0 L278 0 L278 512 L459 512 L459 447 Z " />
<glyph glyph-name="ncaron" unicode="&#x148;" horiz-adv-x="663" d="M331 730 L475 841 L555 754 L331 588 L110 754 L186 841 L331 730 Z M243 447 Q280 490 315.5 506.5 Q351 523 407 523 Q502 523 555 467 Q582 440 592 409 Q602 378 602 325 L602 0 L421 0 L421 259 Q421 299 419 312.5 Q417 326 410 340 Q402 358 382 369 Q362 380 338 380 Q316 380 296 370.5 Q276 361 262 346 Q252 332 247.5 315.5 Q243 299 243 275 L243 0 L62 0 L62 512 L243 512 L243 447 Z " />
<glyph glyph-name="uni0146" unicode="&#x146;" horiz-adv-x="663" d="M243 447 Q280 490 315.5 506.5 Q351 523 407 523 Q502 523 555 467 Q582 440 592 409 Q602 378 602 325 L602 0 L421 0 L421 259 Q421 299 419 312.5 Q417 326 410 340 Q402 358 382 369 Q362 380 338 380 Q316 380 296 370.5 Q276 361 262 346 Q252 332 247.5 315.5 Q243 299 243 275 L243 0 L62 0 L62 512 L243 512 L243 447 Z M307 -252 L198 -252 L272 -63 L410 -63 L307 -252 Z " />
<glyph glyph-name="eng" unicode="&#x14b;" horiz-adv-x="663" d="M243 447 Q280 490 315.5 506.5 Q351 523 407 523 Q502 523 555 467 Q582 440 592 409 Q602 378 602 325 L602 99 Q602 36 589.5 -2 Q577 -40 545 -75 Q511 -111 466 -130.5 Q421 -150 374 -150 Q349 -150 333 -146.5 Q317 -143 294 -132 L294 26 Q315 15 328.5 11.5 Q342 8 357 8 Q375 8 392 18 Q409 28 415 42 Q419 50 420 65 Q421 80 421 113 L421 259 Q421 299 419 312.5 Q417 326 410 340 Q402 358 382 369 Q362 380 338 380 Q316 380 295.5 371 Q275 362 262 346 Q252 332 247.5 315.5 Q243 299 243 275 L243 0 L62 0 L62 512 L243 512 L243 447 Z " />
<glyph glyph-name="ntilde" unicode="&#xf1;" horiz-adv-x="663" d="M131 603 Q131 667 162 708.5 Q193 750 241 750 Q259 750 275 745.5 Q291 741 341 723 Q386 706 408 706 Q423 706 430 714.5 Q437 723 444 750 L533 750 Q524 666 497.5 629.5 Q471 593 419 593 Q377 593 320 616 Q282 630 273 632.5 Q264 635 252 635 Q236 635 229 626.5 Q222 618 217 593 L131 593 L131 603 Z M243 447 Q280 490 315.5 506.5 Q351 523 407 523 Q502 523 555 467 Q582 440 592 409 Q602 378 602 325 L602 0 L421 0 L421 259 Q421 299 419 312.5 Q417 326 410 340 Q402 358 382 369 Q362 380 338 380 Q316 380 296 370.5 Q276 361 262 346 Q252 332 247.5 315.5 Q243 299 243 275 L243 0 L62 0 L62 512 L243 512 L243 447 Z " />
<glyph glyph-name="o" unicode="o" horiz-adv-x="699" d="M349 531 Q438 531 508.5 496 Q579 461 618.5 398.5 Q658 336 658 257 Q658 176 618.5 113.5 Q579 51 508 16 Q437 -19 347 -19 Q258 -19 188.5 16.5 Q119 52 80.5 115.5 Q42 179 42 261 Q42 317 66 369.5 Q90 422 134 460 Q172 493 229.5 512 Q287 531 349 531 Z M349 375 Q302 375 267.5 340.5 Q233 306 233 259 Q233 209 267 174.5 Q301 140 350 140 Q399 140 433 174.5 Q467 209 467 258 Q467 307 432.5 341 Q398 375 349 375 Z " />
<glyph glyph-name="oacute" unicode="&#xf3;" horiz-adv-x="699" d="M259 650 L401 824 L516 741 L342 588 L259 650 Z M349 531 Q438 531 508.5 496 Q579 461 618.5 398.5 Q658 336 658 257 Q658 176 618.5 113.5 Q579 51 508 16 Q437 -19 347 -19 Q258 -19 188.5 16.5 Q119 52 80.5 115.5 Q42 179 42 261 Q42 317 66 369.5 Q90 422 134 460 Q172 493 229.5 512 Q287 531 349 531 Z M349 375 Q302 375 267.5 340.5 Q233 306 233 259 Q233 209 267 174.5 Q301 140 350 140 Q399 140 433 174.5 Q467 209 467 258 Q467 307 432.5 341 Q398 375 349 375 Z " />
<glyph glyph-name="obreve" unicode="&#x14f;" horiz-adv-x="699" d="M547 784 Q546 746 540 724 Q534 702 519 677 Q467 596 350 596 Q234 596 181 677 Q166 702 160 724 Q154 746 153 784 L268 784 Q274 742 293.5 722.5 Q313 703 350 703 Q387 703 406.5 722.5 Q426 742 432 784 L547 784 Z M349 531 Q438 531 508.5 496 Q579 461 618.5 398.5 Q658 336 658 257 Q658 176 618.5 113.5 Q579 51 508 16 Q437 -19 347 -19 Q258 -19 188.5 16.5 Q119 52 80.5 115.5 Q42 179 42 261 Q42 317 66 369.5 Q90 422 134 460 Q172 493 229.5 512 Q287 531 349 531 Z M349 375 Q302 375 267.5 340.5 Q233 306 233 259 Q233 209 267 174.5 Q301 140 350 140 Q399 140 433 174.5 Q467 209 467 258 Q467 307 432.5 341 Q398 375 349 375 Z " />
<glyph glyph-name="ocircumflex" unicode="&#xf4;" horiz-adv-x="699" d="M573 675 L493 588 L348 698 L205 588 L128 675 L348 841 L573 675 Z M349 531 Q438 531 508.5 496 Q579 461 618.5 398.5 Q658 336 658 257 Q658 176 618.5 113.5 Q579 51 508 16 Q437 -19 347 -19 Q258 -19 188.5 16.5 Q119 52 80.5 115.5 Q42 179 42 261 Q42 317 66 369.5 Q90 422 134 460 Q172 493 229.5 512 Q287 531 349 531 Z M349 375 Q302 375 267.5 340.5 Q233 306 233 259 Q233 209 267 174.5 Q301 140 350 140 Q399 140 433 174.5 Q467 209 467 258 Q467 307 432.5 341 Q398 375 349 375 Z " />
<glyph glyph-name="odieresis" unicode="&#xf6;" horiz-adv-x="699" d="M221 786 Q262 786 291 758 Q320 730 320 689 Q320 649 291.5 620 Q263 591 223 591 Q181 591 152.5 620 Q124 649 124 690 Q124 729 152.5 757.5 Q181 786 221 786 Z M477 786 Q518 786 546.5 758 Q575 730 575 689 Q575 649 546.5 620 Q518 591 478 591 Q437 591 408.5 620 Q380 649 380 690 Q380 729 408.5 757.5 Q437 786 477 786 Z M349 531 Q438 531 508.5 496 Q579 461 618.5 398.5 Q658 336 658 257 Q658 176 618.5 113.5 Q579 51 508 16 Q437 -19 347 -19 Q258 -19 188.5 16.5 Q119 52 80.5 115.5 Q42 179 42 261 Q42 317 66 369.5 Q90 422 134 460 Q172 493 229.5 512 Q287 531 349 531 Z M349 375 Q302 375 267.5 340.5 Q233 306 233 259 Q233 209 267 174.5 Q301 140 350 140 Q399 140 433 174.5 Q467 209 467 258 Q467 307 432.5 341 Q398 375 349 375 Z " />
<glyph glyph-name="ograve" unicode="&#xf2;" horiz-adv-x="699" d="M441 650 L357 588 L183 741 L298 824 L441 650 Z M349 531 Q438 531 508.5 496 Q579 461 618.5 398.5 Q658 336 658 257 Q658 176 618.5 113.5 Q579 51 508 16 Q437 -19 347 -19 Q258 -19 188.5 16.5 Q119 52 80.5 115.5 Q42 179 42 261 Q42 317 66 369.5 Q90 422 134 460 Q172 493 229.5 512 Q287 531 349 531 Z M349 375 Q302 375 267.5 340.5 Q233 306 233 259 Q233 209 267 174.5 Q301 140 350 140 Q399 140 433 174.5 Q467 209 467 258 Q467 307 432.5 341 Q398 375 349 375 Z " />
<glyph glyph-name="ohorn" unicode="&#x1a1;" horiz-adv-x="699" d="M626 385 Q658 326 658 257 Q658 177 618.5 114 Q579 51 509 16 Q439 -19 350 -19 Q261 -19 190.5 16 Q120 51 81 114 Q42 177 42 257 Q42 336 81 398.5 Q120 461 190 496 Q260 531 348 531 Q420 531 480.5 508 Q541 485 582 444 L634 577 L772 577 L669 385 L626 385 Z M349 376 Q302 376 267.5 341.5 Q233 307 233 260 Q233 210 267 175 Q301 140 350 140 Q399 140 433 174.5 Q467 209 467 259 Q467 307 432.5 341.5 Q398 376 349 376 Z " />
<glyph glyph-name="ohungarumlaut" unicode="&#x151;" horiz-adv-x="699" d="M185 650 L314 824 L409 741 L254 588 L185 650 Z M389 650 L518 824 L612 741 L458 588 L389 650 Z M349 531 Q438 531 508.5 496 Q579 461 618.5 398.5 Q658 336 658 257 Q658 176 618.5 113.5 Q579 51 508 16 Q437 -19 347 -19 Q258 -19 188.5 16.5 Q119 52 80.5 115.5 Q42 179 42 261 Q42 317 66 369.5 Q90 422 134 460 Q172 493 229.5 512 Q287 531 349 531 Z M349 375 Q302 375 267.5 340.5 Q233 306 233 259 Q233 209 267 174.5 Q301 140 350 140 Q399 140 433 174.5 Q467 209 467 258 Q467 307 432.5 341 Q398 375 349 375 Z " />
<glyph glyph-name="omacron" unicode="&#x14d;" horiz-adv-x="699" d="M548 610 L153 610 L153 721 L548 721 L548 610 Z M349 531 Q438 531 508.5 496 Q579 461 618.5 398.5 Q658 336 658 257 Q658 176 618.5 113.5 Q579 51 508 16 Q437 -19 347 -19 Q258 -19 188.5 16.5 Q119 52 80.5 115.5 Q42 179 42 261 Q42 317 66 369.5 Q90 422 134 460 Q172 493 229.5 512 Q287 531 349 531 Z M349 375 Q302 375 267.5 340.5 Q233 306 233 259 Q233 209 267 174.5 Q301 140 350 140 Q399 140 433 174.5 Q467 209 467 258 Q467 307 432.5 341 Q398 375 349 375 Z " />
<glyph glyph-name="oslash" unicode="&#xf8;" horiz-adv-x="699" d="M90 99 Q42 173 42 259 Q42 319 69 374.5 Q96 430 144 468 Q181 498 236 514.5 Q291 531 355 531 Q412 531 456.5 518 Q501 505 551 473 L636 539 L689 472 L612 408 Q637 371 647 340 Q657 309 657 267 Q657 179 619 114.5 Q581 50 511 15.5 Q441 -19 346 -19 Q283 -19 235.5 -5 Q188 9 151 40 L68 -25 L15 41 L90 99 Z M416 354 Q399 366 386.5 370.5 Q374 375 355 375 Q303 375 267 341 Q231 307 231 259 Q231 246 233 236 Q235 226 242 210 L416 354 Z M288 158 Q303 148 316.5 144 Q330 140 348 140 Q398 140 433 174 Q468 208 468 255 Q468 273 460 298 L288 158 Z " />
<glyph glyph-name="oslashacute" unicode="&#x1ff;" horiz-adv-x="699" d="M223 650 L366 824 L480 741 L307 588 L223 650 Z M90 99 Q42 173 42 259 Q42 319 69 374.5 Q96 430 144 468 Q181 498 236 514.5 Q291 531 355 531 Q412 531 456.5 518 Q501 505 551 473 L636 539 L689 472 L612 408 Q637 371 647 340 Q657 309 657 267 Q657 179 619 114.5 Q581 50 511 15.5 Q441 -19 346 -19 Q283 -19 235.5 -5 Q188 9 151 40 L68 -25 L15 41 L90 99 Z M416 354 Q399 366 386.5 370.5 Q374 375 355 375 Q303 375 267 341 Q231 307 231 259 Q231 246 233 236 Q235 226 242 210 L416 354 Z M288 158 Q303 148 316.5 144 Q330 140 348 140 Q398 140 433 174 Q468 208 468 255 Q468 273 460 298 L288 158 Z " />
<glyph glyph-name="otilde" unicode="&#xf5;" horiz-adv-x="699" d="M157 609 Q158 669 189.5 709.5 Q221 750 267 750 Q284 750 300.5 745.5 Q317 741 366 723 Q411 706 433 706 Q448 706 455.5 714.5 Q463 723 470 750 L558 750 Q549 666 522.5 629.5 Q496 593 444 593 Q403 593 346 616 Q308 630 298.5 632.5 Q289 635 277 635 Q262 635 254.5 626.5 Q247 618 243 593 L157 593 L157 609 Z M349 531 Q438 531 508.5 496 Q579 461 618.5 398.5 Q658 336 658 257 Q658 176 618.5 113.5 Q579 51 508 16 Q437 -19 347 -19 Q258 -19 188.5 16.5 Q119 52 80.5 115.5 Q42 179 42 261 Q42 317 66 369.5 Q90 422 134 460 Q172 493 229.5 512 Q287 531 349 531 Z M349 375 Q302 375 267.5 340.5 Q233 306 233 259 Q233 209 267 174.5 Q301 140 350 140 Q399 140 433 174.5 Q467 209 467 258 Q467 307 432.5 341 Q398 375 349 375 Z " />
<glyph glyph-name="oe" unicode="&#x153;" horiz-adv-x="1058" d="M632 225 Q639 164 666 137 Q693 110 746 110 Q778 110 797.5 121 Q817 132 832 158 L1007 158 Q990 75 919.5 28 Q849 -19 741 -19 Q673 -19 626.5 2 Q580 23 545 70 Q493 17 450.5 -1 Q408 -19 336 -19 Q193 -19 115 62 Q80 100 61 149 Q42 198 42 253 Q42 335 79 398 Q116 461 183 496 Q250 531 338 531 Q404 531 450 513 Q496 495 545 450 Q579 490 626 508.5 Q673 527 741 527 Q826 527 888.5 493 Q951 459 984 395 Q1001 364 1008.5 324 Q1016 284 1017 225 L632 225 Z M849 329 Q836 369 809 390 Q782 411 744 411 Q703 411 675.5 390 Q648 369 637 329 L849 329 Z M341 371 Q295 371 263 337.5 Q231 304 231 257 Q231 207 263 172 Q295 137 340 137 Q386 137 419 171.5 Q452 206 452 254 Q452 303 420 337 Q388 371 341 371 Z " />
<glyph glyph-name="p" unicode="p" horiz-adv-x="701" d="M62 512 L243 512 L243 455 Q273 493 311 511 Q349 529 401 529 Q473 529 532.5 492.5 Q592 456 626 393 Q660 330 660 254 Q660 179 626 117 Q592 55 533 19 Q474 -17 402 -17 Q353 -17 315 -1 Q277 15 243 50 L243 -257 L62 -257 L62 512 Z M354 373 Q305 373 271 339 Q237 305 237 257 Q237 208 271.5 173.5 Q306 139 355 139 Q402 139 436.5 173 Q471 207 471 254 Q471 304 437 338.5 Q403 373 354 373 Z " />
<glyph glyph-name="thorn" unicode="&#xfe;" horiz-adv-x="701" d="M62 828 L243 828 L243 455 Q302 529 401 529 Q453 529 503.5 506 Q554 483 592 443 Q660 366 660 254 Q660 126 568 46 Q533 16 490.5 -0.5 Q448 -17 405 -17 Q309 -17 243 50 L243 -257 L62 -257 L62 828 Z M354 373 Q306 373 271.5 338.5 Q237 304 237 257 Q237 226 253.5 198.5 Q270 171 297 155 Q324 139 355 139 Q385 139 412 155 Q439 171 455 198 Q471 225 471 255 Q471 304 437 338.5 Q403 373 354 373 Z " />
<glyph glyph-name="q" unicode="q" horiz-adv-x="701" d="M459 50 Q425 15 387 -1 Q349 -17 299 -17 Q228 -17 169 19 Q110 55 76 117 Q42 179 42 254 Q42 330 76 393 Q110 456 169.5 492.5 Q229 529 301 529 Q353 529 391 511 Q429 493 459 455 L459 512 L640 512 L640 -257 L459 -257 L459 50 Z M347 373 Q300 373 265.5 339 Q231 305 231 258 Q231 208 265 173.5 Q299 139 348 139 Q396 139 430 173.5 Q464 208 464 257 Q464 305 430 339 Q396 373 347 373 Z " />
<glyph glyph-name="r" unicode="r" horiz-adv-x="464" d="M243 428 Q275 477 314 498 Q353 519 411 519 Q429 519 446 518 L446 345 Q424 355 408.5 359 Q393 363 370 363 Q243 363 243 219 L243 0 L62 0 L62 512 L243 512 L243 428 Z " />
<glyph glyph-name="racute" unicode="&#x155;" horiz-adv-x="464" d="M149 650 L292 824 L407 741 L233 588 L149 650 Z M243 428 Q275 477 314 498 Q353 519 411 519 Q429 519 446 518 L446 345 Q424 355 408.5 359 Q393 363 370 363 Q243 363 243 219 L243 0 L62 0 L62 512 L243 512 L243 428 Z " />
<glyph glyph-name="rcaron" unicode="&#x159;" horiz-adv-x="464" d="M238 730 L383 841 L463 754 L238 588 L18 754 L95 841 L238 730 Z M243 428 Q275 477 314 498 Q353 519 411 519 Q429 519 446 518 L446 345 Q424 355 408.5 359 Q393 363 370 363 Q243 363 243 219 L243 0 L62 0 L62 512 L243 512 L243 428 Z " />
<glyph glyph-name="uni0157" unicode="&#x157;" horiz-adv-x="464" d="M243 428 Q275 477 314 498 Q353 519 411 519 Q429 519 446 518 L446 345 Q424 355 408.5 359 Q393 363 370 363 Q243 363 243 219 L243 0 L62 0 L62 512 L243 512 L243 428 Z M140 -252 L31 -252 L105 -63 L243 -63 L140 -252 Z " />
<glyph glyph-name="s" unicode="s" horiz-adv-x="508" d="M402 380 Q352 405 304 405 Q280 405 264.5 394.5 Q249 384 249 368 Q249 357 255 350 Q261 343 278 337.5 Q295 332 330 324 Q406 309 442.5 272 Q479 235 479 173 Q479 115 449 71.5 Q419 28 363.5 4.5 Q308 -19 235 -19 Q128 -19 31 40 L96 167 Q133 143 171.5 129 Q210 115 241 115 Q265 115 281 126.5 Q297 138 297 156 Q297 174 281.5 183 Q266 192 220 202 Q139 219 104.5 251.5 Q70 284 70 345 Q70 431 131 480.5 Q192 530 298 530 Q345 530 383 522.5 Q421 515 463 497 L402 380 Z " />
<glyph glyph-name="sacute" unicode="&#x15b;" horiz-adv-x="508" d="M186 650 L329 824 L444 741 L270 588 L186 650 Z M402 380 Q352 405 304 405 Q280 405 264.5 394.5 Q249 384 249 368 Q249 357 255 350 Q261 343 278 337.5 Q295 332 330 324 Q406 309 442.5 272 Q479 235 479 173 Q479 115 449 71.5 Q419 28 363.5 4.5 Q308 -19 235 -19 Q128 -19 31 40 L96 167 Q133 143 171.5 129 Q210 115 241 115 Q265 115 281 126.5 Q297 138 297 156 Q297 174 281.5 183 Q266 192 220 202 Q139 219 104.5 251.5 Q70 284 70 345 Q70 431 131 480.5 Q192 530 298 530 Q345 530 383 522.5 Q421 515 463 497 L402 380 Z " />
<glyph glyph-name="scaron" unicode="&#x161;" horiz-adv-x="508" d="M276 730 L419 841 L499 754 L276 588 L54 754 L131 841 L276 730 Z M402 380 Q352 405 304 405 Q280 405 264.5 394.5 Q249 384 249 368 Q249 357 255 350 Q261 343 278 337.5 Q295 332 330 324 Q406 309 442.5 272 Q479 235 479 173 Q479 115 449 71.5 Q419 28 363.5 4.5 Q308 -19 235 -19 Q128 -19 31 40 L96 167 Q133 143 171.5 129 Q210 115 241 115 Q265 115 281 126.5 Q297 138 297 156 Q297 174 281.5 183 Q266 192 220 202 Q139 219 104.5 251.5 Q70 284 70 345 Q70 431 131 480.5 Q192 530 298 530 Q345 530 383 522.5 Q421 515 463 497 L402 380 Z " />
<glyph glyph-name="scedilla" unicode="&#x15f;" horiz-adv-x="508" d="M402 380 Q352 405 304 405 Q280 405 264.5 394.5 Q249 384 249 368 Q249 357 255 350 Q261 343 278 337.5 Q295 332 330 324 Q406 309 442.5 272 Q479 235 479 173 Q479 115 449 71.5 Q419 28 363.5 4.5 Q308 -19 235 -19 Q128 -19 31 40 L96 167 Q133 143 171.5 129 Q210 115 241 115 Q265 115 281 126.5 Q297 138 297 156 Q297 174 281.5 183 Q266 192 220 202 Q139 219 104.5 251.5 Q70 284 70 345 Q70 431 131 480.5 Q192 530 298 530 Q345 530 383 522.5 Q421 515 463 497 L402 380 Z M99 -219 L232 -58 L334 -124 L181 -270 L99 -219 Z " />
<glyph glyph-name="scircumflex" unicode="&#x15d;" horiz-adv-x="508" d="M499 675 L419 588 L276 698 L131 588 L54 675 L276 841 L499 675 Z M402 380 Q352 405 304 405 Q280 405 264.5 394.5 Q249 384 249 368 Q249 357 255 350 Q261 343 278 337.5 Q295 332 330 324 Q406 309 442.5 272 Q479 235 479 173 Q479 115 449 71.5 Q419 28 363.5 4.5 Q308 -19 235 -19 Q128 -19 31 40 L96 167 Q133 143 171.5 129 Q210 115 241 115 Q265 115 281 126.5 Q297 138 297 156 Q297 174 281.5 183 Q266 192 220 202 Q139 219 104.5 251.5 Q70 284 70 345 Q70 431 131 480.5 Q192 530 298 530 Q345 530 383 522.5 Q421 515 463 497 L402 380 Z " />
<glyph glyph-name="uni0219" unicode="&#x219;" horiz-adv-x="508" d="M402 380 Q352 405 304 405 Q280 405 264.5 394.5 Q249 384 249 368 Q249 357 255 350 Q261 343 278 337.5 Q295 332 330 324 Q406 309 442.5 272 Q479 235 479 173 Q479 115 449 71.5 Q419 28 363.5 4.5 Q308 -19 235 -19 Q128 -19 31 40 L96 167 Q133 143 171.5 129 Q210 115 241 115 Q265 115 281 126.5 Q297 138 297 156 Q297 174 281.5 183 Q266 192 220 202 Q139 219 104.5 251.5 Q70 284 70 345 Q70 431 131 480.5 Q192 530 298 530 Q345 530 383 522.5 Q421 515 463 497 L402 380 Z M221 -252 L113 -252 L188 -63 L325 -63 L221 -252 Z " />
<glyph glyph-name="germandbls" unicode="&#xdf;" horiz-adv-x="671" d="M62 605 Q62 725 128 783 Q161 813 211 828.5 Q261 844 320 844 Q395 844 452 816.5 Q509 789 539.5 738 Q570 687 570 619 Q570 572 549.5 536.5 Q529 501 481 464 Q517 447 534.5 436.5 Q552 426 567 411 Q597 385 613 342.5 Q629 300 629 249 Q629 187 606 131.5 Q583 76 545 44 Q470 -16 333 -16 Q313 -16 296 -15 L296 139 Q328 139 347 144.5 Q366 150 385 164 Q407 180 419 204.5 Q431 229 431 259 Q431 317 395 349.5 Q359 382 296 383 L296 529 Q347 529 371 548.5 Q395 568 395 610 Q395 646 375 667 Q355 688 320 688 Q294 688 276 676.5 Q258 665 251 645 Q245 629 244 616.5 Q243 604 243 547 L243 0 L62 0 L62 605 Z " />
<glyph glyph-name="longs" unicode="&#x17f;" horiz-adv-x="391" d="M77 362 L12 362 L12 512 L77 512 L77 590 Q77 652 89.5 690.5 Q102 729 134 764 Q169 800 213.5 820 Q258 840 305 840 Q328 840 344.5 835.5 Q361 831 385 820 L385 663 Q364 673 350 677 Q336 681 322 681 Q304 681 287 671.5 Q270 662 264 647 Q260 638 259 623.5 Q258 609 258 576 L258 0 L77 0 L77 362 Z " />
<glyph glyph-name="t" unicode="t" horiz-adv-x="419" d="M267 -17 Q170 -17 132 31 Q111 56 100 85.5 Q89 115 89 173 L89 366 L29 366 L29 512 L89 512 L89 666 L269 666 L269 512 L389 512 L389 366 L269 366 L269 166 Q269 123 315 123 Q332 123 350.5 128.5 Q369 134 382 142 L382 2 Q338 -17 267 -17 Z " />
<glyph glyph-name="tbar" unicode="&#x167;" horiz-adv-x="419" d="M269 366 L269 296 L376 296 L376 201 L269 201 L269 166 Q269 123 315 123 Q332 123 350.5 128.5 Q369 134 382 142 L382 2 Q338 -17 267 -17 Q173 -17 132 31 Q111 56 100 85.5 Q89 115 89 173 L89 201 L29 201 L29 296 L89 296 L89 366 L29 366 L29 512 L89 512 L89 666 L269 666 L269 512 L389 512 L389 366 L269 366 Z " />
<glyph glyph-name="tcaron" unicode="&#x165;" horiz-adv-x="528" d="M425 567 L317 567 L391 759 L529 759 L425 567 Z M267 -17 Q173 -17 132 31 Q111 56 100 85.5 Q89 115 89 173 L89 366 L29 366 L29 512 L89 512 L89 666 L269 666 L269 512 L389 512 L389 366 L269 366 L269 166 Q269 123 315 123 Q332 123 350.5 128.5 Q369 134 382 142 L382 2 Q338 -17 267 -17 Z " />
<glyph glyph-name="uni0163" unicode="&#x163;" horiz-adv-x="419" d="M267 -17 Q173 -17 132 31 Q111 56 100 85.5 Q89 115 89 173 L89 366 L29 366 L29 512 L89 512 L89 666 L269 666 L269 512 L389 512 L389 366 L269 366 L269 166 Q269 123 315 123 Q332 123 350.5 128.5 Q369 134 382 142 L382 2 Q338 -17 267 -17 Z M203 -252 L93 -252 L168 -63 L306 -63 L203 -252 Z " />
<glyph glyph-name="u" unicode="u" horiz-adv-x="657" d="M257 -20 Q208 -20 176.5 -9.5 Q145 1 120 25 Q91 52 76.5 92.5 Q62 133 62 198 L62 512 L243 512 L243 226 Q243 175 264.5 151.5 Q286 128 330 128 Q368 128 391.5 158 Q415 188 415 257 L415 512 L596 512 L596 0 L415 0 L415 76 Q383 27 346 3.5 Q309 -20 257 -20 Z " />
<glyph glyph-name="uacute" unicode="&#xfa;" horiz-adv-x="657" d="M257 -20 Q208 -20 176.5 -9.5 Q145 1 120 25 Q91 52 76.5 92.5 Q62 133 62 198 L62 512 L243 512 L243 226 Q243 175 264.5 151.5 Q286 128 330 128 Q368 128 391.5 158 Q415 188 415 257 L415 512 L596 512 L596 0 L415 0 L415 76 Q383 27 346 3.5 Q309 -20 257 -20 Z M251 650 L393 824 L509 741 L335 588 L251 650 Z " />
<glyph glyph-name="ubreve" unicode="&#x16d;" horiz-adv-x="657" d="M257 -20 Q208 -20 176.5 -9.5 Q145 1 120 25 Q91 52 76.5 92.5 Q62 133 62 198 L62 512 L243 512 L243 226 Q243 175 264.5 151.5 Q286 128 330 128 Q368 128 391.5 158 Q415 188 415 257 L415 512 L596 512 L596 0 L415 0 L415 76 Q383 27 346 3.5 Q309 -20 257 -20 Z M533 784 Q531 745 525 723 Q519 701 504 677 Q452 596 336 596 Q219 596 166 677 Q151 702 145 724 Q139 746 138 784 L253 784 Q259 742 279 722.5 Q299 703 336 703 Q373 703 392.5 722.5 Q412 742 417 784 L533 784 Z " />
<glyph glyph-name="ucircumflex" unicode="&#xfb;" horiz-adv-x="657" d="M257 -20 Q208 -20 176.5 -9.5 Q145 1 120 25 Q91 52 76.5 92.5 Q62 133 62 198 L62 512 L243 512 L243 226 Q243 175 264.5 151.5 Q286 128 330 128 Q368 128 391.5 158 Q415 188 415 257 L415 512 L596 512 L596 0 L415 0 L415 76 Q383 27 346 3.5 Q309 -20 257 -20 Z M556 675 L476 588 L331 698 L188 588 L111 675 L331 841 L556 675 Z " />
<glyph glyph-name="udieresis" unicode="&#xfc;" horiz-adv-x="657" d="M257 -20 Q208 -20 176.5 -9.5 Q145 1 120 25 Q91 52 76.5 92.5 Q62 133 62 198 L62 512 L243 512 L243 226 Q243 175 264.5 151.5 Q286 128 330 128 Q368 128 391.5 158 Q415 188 415 257 L415 512 L596 512 L596 0 L415 0 L415 76 Q383 27 346 3.5 Q309 -20 257 -20 Z M206 786 Q247 786 275.5 758 Q304 730 304 689 Q304 649 275.5 620 Q247 591 207 591 Q165 591 136.5 620 Q108 649 108 690 Q108 729 137 757.5 Q166 786 206 786 Z M462 786 Q503 786 531.5 758 Q560 730 560 689 Q560 649 531.5 620 Q503 591 463 591 Q422 591 393.5 620 Q365 649 365 690 Q365 729 393.5 757.5 Q422 786 462 786 Z " />
<glyph glyph-name="ugrave" unicode="&#xf9;" horiz-adv-x="657" d="M257 -20 Q208 -20 176.5 -9.5 Q145 1 120 25 Q91 52 76.5 92.5 Q62 133 62 198 L62 512 L243 512 L243 226 Q243 175 264.5 151.5 Q286 128 330 128 Q368 128 391.5 158 Q415 188 415 257 L415 512 L596 512 L596 0 L415 0 L415 76 Q383 27 346 3.5 Q309 -20 257 -20 Z M417 650 L334 588 L159 741 L275 824 L417 650 Z " />
<glyph glyph-name="uhorn" unicode="&#x1b0;" horiz-adv-x="657" d="M736 381 L626 381 L701 573 L838 573 L736 381 Z M257 -20 Q208 -20 176.5 -9.5 Q145 1 120 25 Q91 52 76.5 92.5 Q62 133 62 198 L62 512 L243 512 L243 226 Q243 175 264.5 151.5 Q286 128 330 128 Q368 128 391.5 158 Q415 188 415 257 L415 512 L596 512 L596 0 L415 0 L415 76 Q383 27 346 3.5 Q309 -20 257 -20 Z " />
<glyph glyph-name="uhungarumlaut" unicode="&#x171;" horiz-adv-x="657" d="M257 -20 Q208 -20 176.5 -9.5 Q145 1 120 25 Q91 52 76.5 92.5 Q62 133 62 198 L62 512 L243 512 L243 226 Q243 175 264.5 151.5 Q286 128 330 128 Q368 128 391.5 158 Q415 188 415 257 L415 512 L596 512 L596 0 L415 0 L415 76 Q383 27 346 3.5 Q309 -20 257 -20 Z M171 650 L299 824 L394 741 L239 588 L171 650 Z M374 650 L503 824 L598 741 L443 588 L374 650 Z " />
<glyph glyph-name="umacron" unicode="&#x16b;" horiz-adv-x="657" d="M257 -20 Q208 -20 176.5 -9.5 Q145 1 120 25 Q91 52 76.5 92.5 Q62 133 62 198 L62 512 L243 512 L243 226 Q243 175 264.5 151.5 Q286 128 330 128 Q368 128 391.5 158 Q415 188 415 257 L415 512 L596 512 L596 0 L415 0 L415 76 Q383 27 346 3.5 Q309 -20 257 -20 Z M532 610 L137 610 L137 721 L532 721 L532 610 Z " />
<glyph glyph-name="uni01C6" unicode="&#x1c6;" horiz-adv-x="1289" d="M1001 730 L1146 841 L1225 754 L1001 588 L781 754 L857 841 L1001 730 Z M640 0 L459 0 L459 56 Q429 18 391 0.5 Q353 -17 301 -17 Q229 -17 169.5 19.5 Q110 56 76 119 Q42 182 42 258 Q42 333 76 395 Q110 457 169 493 Q228 529 299 529 Q348 529 386.5 513 Q425 497 459 462 L459 828 L640 828 L640 0 Z M1243 0 L723 0 L965 362 L756 362 L756 512 L1267 512 L1027 150 L1243 150 L1243 0 Z M347 373 Q300 373 265.5 339 Q231 305 231 258 Q231 208 265 173.5 Q299 139 348 139 Q396 139 430 173.5 Q464 208 464 257 Q464 305 430 339 Q396 373 347 373 Z " />
<glyph glyph-name="uni01C9" unicode="&#x1c9;" horiz-adv-x="623" d="M62 0 L62 828 L243 828 L243 0 L62 0 Z M472 810 Q514 810 543.5 780.5 Q573 751 573 709 Q573 666 543.5 636.5 Q514 607 472 607 Q429 607 399.5 637 Q370 667 370 710 Q370 751 400 780.5 Q430 810 472 810 Z M298 -112 Q317 -128 343 -128 Q381 -128 381 -63 L381 512 L562 512 L562 -77 Q562 -137 550 -174 Q538 -211 512 -235 Q468 -276 398 -276 Q334 -276 298 -255 L298 -112 Z " />
<glyph glyph-name="uni01CC" unicode="&#x1cc;" horiz-adv-x="978" d="M243 447 Q280 490 315.5 506.5 Q351 523 407 523 Q502 523 555 467 Q582 440 592 409 Q602 378 602 325 L602 0 L421 0 L421 259 Q421 299 419 312.5 Q417 326 410 340 Q402 358 382 369 Q362 380 338 380 Q316 380 296 370.5 Q276 361 262 346 Q252 332 247.5 315.5 Q243 299 243 275 L243 0 L62 0 L62 512 L243 512 L243 447 Z M827 810 Q869 810 898.5 780.5 Q928 751 928 709 Q928 666 898.5 636.5 Q869 607 827 607 Q784 607 754.5 637 Q725 667 725 710 Q725 751 755 780.5 Q785 810 827 810 Z M653 -112 Q672 -128 698 -128 Q736 -128 736 -63 L736 512 L917 512 L917 -77 Q917 -137 905 -174 Q893 -211 867 -235 Q823 -276 753 -276 Q689 -276 653 -255 L653 -112 Z " />
<glyph glyph-name="uni01CE" unicode="&#x1ce;" horiz-adv-x="701" d="M357 730 L501 841 L581 754 L356 588 L136 754 L212 841 L357 730 Z M640 0 L459 0 L459 56 Q429 18 391 0.5 Q353 -17 301 -17 Q229 -17 169.5 19.5 Q110 56 76 119 Q42 182 42 258 Q42 333 76 395 Q110 457 169 493 Q228 529 299 529 Q348 529 386.5 513 Q425 497 459 462 L459 512 L640 512 L640 0 Z M347 373 Q300 373 265.5 339 Q231 305 231 258 Q231 208 265 173.5 Q299 139 348 139 Q396 139 430 173.5 Q464 208 464 257 Q464 305 430 339 Q396 373 347 373 Z " />
<glyph glyph-name="uni01D0" unicode="&#x1d0;" horiz-adv-x="304" d="M150 730 L295 841 L375 754 L150 588 L-70 754 L7 841 L150 730 Z M62 0 L62 512 L243 512 L243 0 L62 0 Z " />
<glyph glyph-name="uni01D2" unicode="&#x1d2;" horiz-adv-x="699" d="M348 730 L493 841 L573 754 L348 588 L128 754 L205 841 L348 730 Z M349 531 Q438 531 508.5 496 Q579 461 618.5 398.5 Q658 336 658 257 Q658 176 618.5 113.5 Q579 51 508 16 Q437 -19 347 -19 Q258 -19 188.5 16.5 Q119 52 80.5 115.5 Q42 179 42 261 Q42 317 66 369.5 Q90 422 134 460 Q172 493 229.5 512 Q287 531 349 531 Z M349 375 Q302 375 267.5 340.5 Q233 306 233 259 Q233 209 267 174.5 Q301 140 350 140 Q399 140 433 174.5 Q467 209 467 258 Q467 307 432.5 341 Q398 375 349 375 Z " />
<glyph glyph-name="uni01D4" unicode="&#x1d4;" horiz-adv-x="657" d="M257 -20 Q208 -20 176.5 -9.5 Q145 1 120 25 Q91 52 76.5 92.5 Q62 133 62 198 L62 512 L243 512 L243 226 Q243 175 264.5 151.5 Q286 128 330 128 Q368 128 391.5 158 Q415 188 415 257 L415 512 L596 512 L596 0 L415 0 L415 76 Q383 27 346 3.5 Q309 -20 257 -20 Z M333 730 L478 841 L558 754 L333 588 L113 754 L190 841 L333 730 Z " />
<glyph glyph-name="uni01DD" unicode="&#x1dd;" horiz-adv-x="644" d="M418 288 Q417 313 415 327 Q413 341 407 355 Q396 380 373 395 Q350 410 324 410 Q291 410 269 395 Q247 380 233 348 L49 354 Q78 434 150 479.5 Q222 525 319 525 Q404 525 469.5 491.5 Q535 458 571.5 398 Q608 338 608 260 Q608 180 571.5 117.5 Q535 55 470 20 Q405 -15 323 -15 Q229 -15 161 29.5 Q93 74 59 158 Q45 194 41 218 Q37 242 37 288 L418 288 Z M225 197 Q232 151 257.5 125 Q283 99 322 99 Q361 99 386 125 Q411 151 416 197 L225 197 Z " />
<glyph glyph-name="uni01F5" unicode="&#x1f5;" horiz-adv-x="697" d="M234 650 L376 824 L492 741 L318 588 L234 650 Z M635 35 Q635 -46 620.5 -91 Q606 -136 566 -176 Q484 -259 338 -259 Q187 -259 103 -168 Q78 -142 65.5 -118.5 Q53 -95 47 -62 L251 -62 Q269 -114 337 -114 Q392 -114 423 -81.5 Q454 -49 454 9 L454 56 Q413 19 377.5 4.5 Q342 -10 293 -10 Q220 -10 163 23 Q106 56 74 115 Q42 174 42 249 Q42 327 76 390.5 Q110 454 169.5 490.5 Q229 527 302 527 Q351 527 386.5 511 Q422 495 454 459 L454 512 L635 512 L635 35 Z M347 374 Q300 374 265.5 340 Q231 306 231 259 Q231 210 265 175.5 Q299 141 347 141 Q395 141 429 175 Q463 209 463 258 Q463 306 429 340 Q395 374 347 374 Z " />
<glyph glyph-name="uni0201" unicode="&#x201;" horiz-adv-x="701" d="M350 650 L281 588 L127 741 L221 824 L350 650 Z M554 650 L485 588 L330 741 L425 824 L554 650 Z M640 0 L459 0 L459 56 Q429 18 391 0.5 Q353 -17 301 -17 Q229 -17 169.5 19.5 Q110 56 76 119 Q42 182 42 258 Q42 333 76 395 Q110 457 169 493 Q228 529 299 529 Q348 529 386.5 513 Q425 497 459 462 L459 512 L640 512 L640 0 Z M347 373 Q300 373 265.5 339 Q231 305 231 258 Q231 208 265 173.5 Q299 139 348 139 Q396 139 430 173.5 Q464 208 464 257 Q464 305 430 339 Q396 373 347 373 Z " />
<glyph glyph-name="uni021B" unicode="&#x21b;" horiz-adv-x="419" d="M267 -17 Q173 -17 132 31 Q111 56 100 85.5 Q89 115 89 173 L89 366 L29 366 L29 512 L89 512 L89 666 L269 666 L269 512 L389 512 L389 366 L269 366 L269 166 Q269 123 315 123 Q332 123 350.5 128.5 Q369 134 382 142 L382 2 Q338 -17 267 -17 Z M203 -252 L93 -252 L168 -63 L306 -63 L203 -252 Z " />
<glyph glyph-name="uni0227" unicode="&#x227;" horiz-adv-x="701" d="M355 797 Q398 797 428 767 Q458 737 458 694 Q458 651 427.5 621 Q397 591 355 591 Q312 591 282 621 Q252 651 252 695 Q252 737 282.5 767 Q313 797 355 797 Z M640 0 L459 0 L459 56 Q429 18 391 0.5 Q353 -17 301 -17 Q229 -17 169.5 19.5 Q110 56 76 119 Q42 182 42 258 Q42 333 76 395 Q110 457 169 493 Q228 529 299 529 Q348 529 386.5 513 Q425 497 459 462 L459 512 L640 512 L640 0 Z M347 373 Q300 373 265.5 339 Q231 305 231 258 Q231 208 265 173.5 Q299 139 348 139 Q396 139 430 173.5 Q464 208 464 257 Q464 305 430 339 Q396 373 347 373 Z " />
<glyph glyph-name="uni1EA1" unicode="&#x1ea1;" horiz-adv-x="701" d="M640 0 L459 0 L459 56 Q429 18 391 0.5 Q353 -17 301 -17 Q229 -17 169.5 19.5 Q110 56 76 119 Q42 182 42 258 Q42 333 76 395 Q110 457 169 493 Q228 529 299 529 Q348 529 386.5 513 Q425 497 459 462 L459 512 L640 512 L640 0 Z M347 373 Q300 373 265.5 339 Q231 305 231 258 Q231 208 265 173.5 Q299 139 348 139 Q396 139 430 173.5 Q464 208 464 257 Q464 305 430 339 Q396 373 347 373 Z M350 -34 Q391 -34 420 -62.5 Q449 -91 449 -131 Q449 -172 420.5 -200.5 Q392 -229 351 -229 Q310 -229 281.5 -200 Q253 -171 253 -130 Q253 -91 281.5 -62.5 Q310 -34 350 -34 Z " />
<glyph glyph-name="uni1EA3" unicode="&#x1ea3;" horiz-adv-x="701" d="M311 671 L324 672 Q363 676 378.5 678 Q394 680 400 684 Q411 691 411 703 Q411 719 399.5 727.5 Q388 736 368 736 Q354 736 340.5 731.5 Q327 727 294 713 L268 777 Q311 794 335 800 Q359 806 388 806 Q441 806 475.5 777 Q510 748 510 703 Q510 663 482 639.5 Q454 616 406 616 L386 616 L386 573 L311 573 L311 671 Z M640 0 L459 0 L459 56 Q429 18 391 0.5 Q353 -17 301 -17 Q229 -17 169.5 19.5 Q110 56 76 119 Q42 182 42 258 Q42 333 76 395 Q110 457 169 493 Q228 529 299 529 Q348 529 386.5 513 Q425 497 459 462 L459 512 L640 512 L640 0 Z M347 373 Q300 373 265.5 339 Q231 305 231 258 Q231 208 265 173.5 Q299 139 348 139 Q396 139 430 173.5 Q464 208 464 257 Q464 305 430 339 Q396 373 347 373 Z " />
<glyph glyph-name="uni1EA5" unicode="&#x1ea5;" horiz-adv-x="701" d="M712 851 L545 702 L581 675 L501 588 L357 698 L212 588 L136 675 L356 841 L459 765 L597 933 L712 851 Z M640 0 L459 0 L459 56 Q429 18 391 0.5 Q353 -17 301 -17 Q229 -17 169.5 19.5 Q110 56 76 119 Q42 182 42 258 Q42 333 76 395 Q110 457 169 493 Q228 529 299 529 Q348 529 386.5 513 Q425 497 459 462 L459 512 L640 512 L640 0 Z M347 373 Q300 373 265.5 339 Q231 305 231 258 Q231 208 265 173.5 Q299 139 348 139 Q396 139 430 173.5 Q464 208 464 257 Q464 305 430 339 Q396 373 347 373 Z " />
<glyph glyph-name="uni1EA7" unicode="&#x1ea7;" horiz-adv-x="701" d="M615 763 L539 692 L347 823 L451 919 L615 763 Z M536 649 L481 563 L306 651 L130 563 L76 649 L306 784 L536 649 Z M640 0 L459 0 L459 56 Q429 18 391 0.5 Q353 -17 301 -17 Q229 -17 169.5 19.5 Q110 56 76 119 Q42 182 42 258 Q42 333 76 395 Q110 457 169 493 Q228 529 299 529 Q348 529 386.5 513 Q425 497 459 462 L459 512 L640 512 L640 0 Z M347 373 Q300 373 265.5 339 Q231 305 231 258 Q231 208 265 173.5 Q299 139 348 139 Q396 139 430 173.5 Q464 208 464 257 Q464 305 430 339 Q396 373 347 373 Z " />
<glyph glyph-name="uni1EA9" unicode="&#x1ea9;" horiz-adv-x="701" d="M518 807 Q557 811 572 813 Q587 815 593 818 Q600 823 602.5 827 Q605 831 605 838 Q605 854 593.5 862 Q582 870 562 870 Q547 870 533 865.5 Q519 861 487 847 L461 912 Q505 930 528 935 Q551 940 581 940 Q634 940 668.5 911 Q703 882 703 837 Q703 797 675 773.5 Q647 750 600 750 L580 750 L580 707 L536 707 L580 675 L499 588 L356 698 L211 588 L134 675 L356 842 L504 731 L504 806 L518 807 Z M640 0 L459 0 L459 56 Q429 18 391 0.5 Q353 -17 301 -17 Q229 -17 169.5 19.5 Q110 56 76 119 Q42 182 42 258 Q42 333 76 395 Q110 457 169 493 Q228 529 299 529 Q348 529 386.5 513 Q425 497 459 462 L459 512 L640 512 L640 0 Z M347 373 Q300 373 265.5 339 Q231 305 231 258 Q231 208 265 173.5 Q299 139 348 139 Q396 139 430 173.5 Q464 208 464 257 Q464 305 430 339 Q396 373 347 373 Z " />
<glyph glyph-name="uni1EAB" unicode="&#x1eab;" horiz-adv-x="701" d="M150 861 Q151 921 182.5 961.5 Q214 1002 260 1002 Q278 1002 294.5 997.5 Q311 993 359 975 Q404 958 426 958 Q441 958 448.5 966.5 Q456 975 463 1002 L551 1002 Q542 918 515.5 881.5 Q489 845 437 845 Q419 845 392.5 851 Q366 857 339 868 Q301 882 291.5 884.5 Q282 887 270 887 Q255 887 247.5 878.5 Q240 870 236 845 L150 845 L150 861 Z M581 675 L501 588 L357 698 L212 588 L136 675 L356 841 L581 675 Z M640 0 L459 0 L459 56 Q429 18 391 0.5 Q353 -17 301 -17 Q229 -17 169.5 19.5 Q110 56 76 119 Q42 182 42 258 Q42 333 76 395 Q110 457 169 493 Q228 529 299 529 Q348 529 386.5 513 Q425 497 459 462 L459 512 L640 512 L640 0 Z M347 373 Q300 373 265.5 339 Q231 305 231 258 Q231 208 265 173.5 Q299 139 348 139 Q396 139 430 173.5 Q464 208 464 257 Q464 305 430 339 Q396 373 347 373 Z " />
<glyph glyph-name="uni1EAD" unicode="&#x1ead;" horiz-adv-x="701" d="M581 675 L501 588 L357 698 L212 588 L136 675 L356 841 L581 675 Z M640 0 L459 0 L459 56 Q429 18 391 0.5 Q353 -17 301 -17 Q229 -17 169.5 19.5 Q110 56 76 119 Q42 182 42 258 Q42 333 76 395 Q110 457 169 493 Q228 529 299 529 Q348 529 386.5 513 Q425 497 459 462 L459 512 L640 512 L640 0 Z M347 373 Q300 373 265.5 339 Q231 305 231 258 Q231 208 265 173.5 Q299 139 348 139 Q396 139 430 173.5 Q464 208 464 257 Q464 305 430 339 Q396 373 347 373 Z M350 -34 Q391 -34 420 -62.5 Q449 -91 449 -131 Q449 -172 420.5 -200.5 Q392 -229 351 -229 Q310 -229 281.5 -200 Q253 -171 253 -130 Q253 -91 281.5 -62.5 Q310 -34 350 -34 Z " />
<glyph glyph-name="uni1EAF" unicode="&#x1eaf;" horiz-adv-x="701" d="M289 803 L432 977 L547 896 L373 741 L289 803 Z M276 784 Q284 737 300 719.5 Q316 702 350 702 Q394 702 412.5 718.5 Q431 735 441 784 L556 784 Q555 746 548.5 723.5 Q542 701 527 677 Q476 596 358 596 Q242 596 190 677 Q175 700 169 721.5 Q163 743 160 784 L276 784 Z M640 0 L459 0 L459 56 Q429 18 391 0.5 Q353 -17 301 -17 Q229 -17 169.5 19.5 Q110 56 76 119 Q42 182 42 258 Q42 333 76 395 Q110 457 169 493 Q228 529 299 529 Q348 529 386.5 513 Q425 497 459 462 L459 512 L640 512 L640 0 Z M347 373 Q300 373 265.5 339 Q231 305 231 258 Q231 208 265 173.5 Q299 139 348 139 Q396 139 430 173.5 Q464 208 464 257 Q464 305 430 339 Q396 373 347 373 Z " />
<glyph glyph-name="uni1EB1" unicode="&#x1eb1;" horiz-adv-x="701" d="M434 798 L350 736 L176 890 L292 973 L434 798 Z M276 784 Q284 737 300 719.5 Q316 702 350 702 Q394 702 412.5 718.5 Q431 735 441 784 L556 784 Q555 746 548.5 723.5 Q542 701 527 677 Q476 596 358 596 Q242 596 190 677 Q175 700 169 721.5 Q163 743 160 784 L276 784 Z M640 0 L459 0 L459 56 Q429 18 391 0.5 Q353 -17 301 -17 Q229 -17 169.5 19.5 Q110 56 76 119 Q42 182 42 258 Q42 333 76 395 Q110 457 169 493 Q228 529 299 529 Q348 529 386.5 513 Q425 497 459 462 L459 512 L640 512 L640 0 Z M347 373 Q300 373 265.5 339 Q231 305 231 258 Q231 208 265 173.5 Q299 139 348 139 Q396 139 430 173.5 Q464 208 464 257 Q464 305 430 339 Q396 373 347 373 Z " />
<glyph glyph-name="uni1EB3" unicode="&#x1eb3;" horiz-adv-x="701" d="M325 846 L339 849 Q378 852 393.5 854 Q409 856 415 860 Q426 866 426 879 Q426 894 414.5 902.5 Q403 911 383 911 Q369 911 353.5 906.5 Q338 902 308 889 L283 954 Q330 971 352 976 Q374 981 402 981 Q455 981 489.5 952 Q524 923 524 878 Q524 851 508.5 829 Q493 807 467 799 Q454 794 445 793 Q436 792 401 792 L401 749 L325 749 L325 846 Z M276 784 Q284 737 300 719.5 Q316 702 350 702 Q394 702 412.5 718.5 Q431 735 441 784 L556 784 Q555 746 548.5 723.5 Q542 701 527 677 Q476 596 358 596 Q242 596 190 677 Q175 700 169 721.5 Q163 743 160 784 L276 784 Z M640 0 L459 0 L459 56 Q429 18 391 0.5 Q353 -17 301 -17 Q229 -17 169.5 19.5 Q110 56 76 119 Q42 182 42 258 Q42 333 76 395 Q110 457 169 493 Q228 529 299 529 Q348 529 386.5 513 Q425 497 459 462 L459 512 L640 512 L640 0 Z M347 373 Q300 373 265.5 339 Q231 305 231 258 Q231 208 265 173.5 Q299 139 348 139 Q396 139 430 173.5 Q464 208 464 257 Q464 305 430 339 Q396 373 347 373 Z " />
<glyph glyph-name="uni1EB5" unicode="&#x1eb5;" horiz-adv-x="701" d="M150 837 Q151 898 182.5 938.5 Q214 979 260 979 Q277 979 293 974.5 Q309 970 359 951 Q402 935 426 935 Q441 935 448.5 943.5 Q456 952 463 979 L551 979 Q542 895 515.5 858.5 Q489 822 437 822 Q418 822 391.5 827.5 Q365 833 339 844 Q301 858 291.5 860.5 Q282 863 270 863 Q255 863 247.5 854.5 Q240 846 236 822 L150 822 L150 837 Z M276 784 Q284 737 300 719.5 Q316 702 350 702 Q394 702 412.5 718.5 Q431 735 441 784 L556 784 Q555 746 548.5 723.5 Q542 701 527 677 Q476 596 358 596 Q242 596 190 677 Q175 700 169 721.5 Q163 743 160 784 L276 784 Z M640 0 L459 0 L459 56 Q429 18 391 0.5 Q353 -17 301 -17 Q229 -17 169.5 19.5 Q110 56 76 119 Q42 182 42 258 Q42 333 76 395 Q110 457 169 493 Q228 529 299 529 Q348 529 386.5 513 Q425 497 459 462 L459 512 L640 512 L640 0 Z M347 373 Q300 373 265.5 339 Q231 305 231 258 Q231 208 265 173.5 Q299 139 348 139 Q396 139 430 173.5 Q464 208 464 257 Q464 305 430 339 Q396 373 347 373 Z " />
<glyph glyph-name="uni1EB7" unicode="&#x1eb7;" horiz-adv-x="701" d="M276 784 Q284 737 300 719.5 Q316 702 350 702 Q394 702 412.5 718.5 Q431 735 441 784 L556 784 Q555 746 548.5 723.5 Q542 701 527 677 Q476 596 358 596 Q242 596 190 677 Q175 700 169 721.5 Q163 743 160 784 L276 784 Z M640 0 L459 0 L459 56 Q429 18 391 0.5 Q353 -17 301 -17 Q229 -17 169.5 19.5 Q110 56 76 119 Q42 182 42 258 Q42 333 76 395 Q110 457 169 493 Q228 529 299 529 Q348 529 386.5 513 Q425 497 459 462 L459 512 L640 512 L640 0 Z M347 373 Q300 373 265.5 339 Q231 305 231 258 Q231 208 265 173.5 Q299 139 348 139 Q396 139 430 173.5 Q464 208 464 257 Q464 305 430 339 Q396 373 347 373 Z M350 -34 Q391 -34 420 -62.5 Q449 -91 449 -131 Q449 -172 420.5 -200.5 Q392 -229 351 -229 Q310 -229 281.5 -200 Q253 -171 253 -130 Q253 -91 281.5 -62.5 Q310 -34 350 -34 Z " />
<glyph glyph-name="uni1EB9" unicode="&#x1eb9;" horiz-adv-x="646" d="M225 223 Q226 107 334 107 Q366 107 386.5 118 Q407 129 424 156 L598 156 Q588 123 578.5 103.5 Q569 84 553 66 Q518 25 460.5 2.5 Q403 -20 334 -20 Q246 -20 180 13.5 Q114 47 78 108.5 Q42 170 42 252 Q42 335 76.5 397.5 Q111 460 175.5 493.5 Q240 527 327 527 Q457 527 531.5 451 Q606 375 606 241 L606 223 L225 223 Z M437 328 Q428 367 400 388.5 Q372 410 331 410 Q290 410 263 388.5 Q236 367 229 328 L437 328 Z M323 -34 Q364 -34 392.5 -62.5 Q421 -91 421 -131 Q421 -171 392.5 -200 Q364 -229 324 -229 Q283 -229 254.5 -200 Q226 -171 226 -130 Q226 -91 254.5 -62.5 Q283 -34 323 -34 Z " />
<glyph glyph-name="uni1EBB" unicode="&#x1ebb;" horiz-adv-x="646" d="M284 667 L297 668 Q336 672 351.5 674 Q367 676 373 679 Q384 686 384 698 Q384 714 372.5 722 Q361 730 341 730 Q327 730 312 725.5 Q297 721 267 709 L241 773 Q285 790 308 795 Q331 800 360 800 Q414 800 448.5 771 Q483 742 483 697 Q483 670 467 648 Q451 626 425 618 Q412 613 403 612 Q394 611 359 611 L359 568 L284 568 L284 667 Z M225 223 Q226 107 334 107 Q366 107 386.5 118 Q407 129 424 156 L598 156 Q588 123 578.5 103.5 Q569 84 553 66 Q518 25 460.5 2.5 Q403 -20 334 -20 Q246 -20 180 13.5 Q114 47 78 108.5 Q42 170 42 252 Q42 335 76.5 397.5 Q111 460 175.5 493.5 Q240 527 327 527 Q457 527 531.5 451 Q606 375 606 241 L606 223 L225 223 Z M437 328 Q428 367 400 388.5 Q372 410 331 410 Q290 410 263 388.5 Q236 367 229 328 L437 328 Z " />
<glyph glyph-name="uni1EBD" unicode="&#x1ebd;" horiz-adv-x="646" d="M123 609 Q124 669 155.5 709.5 Q187 750 233 750 Q250 750 267 745.5 Q284 741 332 723 Q377 706 399 706 Q414 706 421.5 714.5 Q429 723 436 750 L524 750 Q515 666 488.5 629.5 Q462 593 410 593 Q369 593 312 616 Q274 630 264.5 632.5 Q255 635 243 635 Q228 635 220.5 626.5 Q213 618 209 593 L123 593 L123 609 Z M225 223 Q226 107 334 107 Q366 107 386.5 118 Q407 129 424 156 L598 156 Q588 123 578.5 103.5 Q569 84 553 66 Q518 25 460.5 2.5 Q403 -20 334 -20 Q246 -20 180 13.5 Q114 47 78 108.5 Q42 170 42 252 Q42 335 76.5 397.5 Q111 460 175.5 493.5 Q240 527 327 527 Q457 527 531.5 451 Q606 375 606 241 L606 223 L225 223 Z M437 328 Q428 367 400 388.5 Q372 410 331 410 Q290 410 263 388.5 Q236 367 229 328 L437 328 Z " />
<glyph glyph-name="uni1EBF" unicode="&#x1ebf;" horiz-adv-x="646" d="M685 843 L520 697 L550 675 L470 588 L325 698 L182 588 L105 675 L325 841 L435 760 L570 925 L685 843 Z M225 223 Q226 107 334 107 Q366 107 386.5 118 Q407 129 424 156 L598 156 Q588 123 578.5 103.5 Q569 84 553 66 Q518 25 460.5 2.5 Q403 -20 334 -20 Q246 -20 180 13.5 Q114 47 78 108.5 Q42 170 42 252 Q42 335 76.5 397.5 Q111 460 175.5 493.5 Q240 527 327 527 Q457 527 531.5 451 Q606 375 606 241 L606 223 L225 223 Z M437 328 Q428 367 400 388.5 Q372 410 331 410 Q290 410 263 388.5 Q236 367 229 328 L437 328 Z " />
<glyph glyph-name="uni1EC1" unicode="&#x1ec1;" horiz-adv-x="646" d="M638 747 L563 676 L371 807 L476 903 L638 747 Z M559 633 L505 547 L330 635 L154 547 L99 633 L330 768 L559 633 Z M225 223 Q226 107 334 107 Q366 107 386.5 118 Q407 129 424 156 L598 156 Q588 123 578.5 103.5 Q569 84 553 66 Q518 25 460.5 2.5 Q403 -20 334 -20 Q246 -20 180 13.5 Q114 47 78 108.5 Q42 170 42 252 Q42 335 76.5 397.5 Q111 460 175.5 493.5 Q240 527 327 527 Q457 527 531.5 451 Q606 375 606 241 L606 223 L225 223 Z M437 328 Q428 367 400 388.5 Q372 410 331 410 Q290 410 263 388.5 Q236 367 229 328 L437 328 Z " />
<glyph glyph-name="uni1EC3" unicode="&#x1ec3;" horiz-adv-x="646" d="M481 808 Q520 812 535.5 814 Q551 816 557 819 Q563 824 565.5 828 Q568 832 568 840 Q568 871 525 871 Q510 871 496 867 Q482 863 451 849 L425 913 Q468 930 491.5 935.5 Q515 941 545 941 Q598 941 632.5 912 Q667 883 667 838 Q667 798 639 774.5 Q611 751 564 751 L544 751 L544 709 L505 709 L550 675 L470 588 L325 698 L182 588 L105 675 L325 842 L468 736 L468 807 L481 808 Z M225 223 Q226 107 334 107 Q366 107 386.5 118 Q407 129 424 156 L598 156 Q588 123 578.5 103.5 Q569 84 553 66 Q518 25 460.5 2.5 Q403 -20 334 -20 Q246 -20 180 13.5 Q114 47 78 108.5 Q42 170 42 252 Q42 335 76.5 397.5 Q111 460 175.5 493.5 Q240 527 327 527 Q457 527 531.5 451 Q606 375 606 241 L606 223 L225 223 Z M437 328 Q428 367 400 388.5 Q372 410 331 410 Q290 410 263 388.5 Q236 367 229 328 L437 328 Z " />
<glyph glyph-name="uni1EC5" unicode="&#x1ec5;" horiz-adv-x="646" d="M123 857 Q124 917 155.5 957.5 Q187 998 233 998 Q250 998 267 993.5 Q284 989 332 971 Q374 954 399 954 Q414 954 421.5 962.5 Q429 971 436 998 L524 998 Q515 914 488.5 877.5 Q462 841 410 841 Q370 841 312 863 Q274 878 264.5 880.5 Q255 883 243 883 Q228 883 221 874 Q214 865 209 841 L123 841 L123 857 Z M550 675 L470 588 L325 698 L182 588 L105 675 L325 841 L550 675 Z M225 223 Q226 107 334 107 Q366 107 386.5 118 Q407 129 424 156 L598 156 Q588 123 578.5 103.5 Q569 84 553 66 Q518 25 460.5 2.5 Q403 -20 334 -20 Q246 -20 180 13.5 Q114 47 78 108.5 Q42 170 42 252 Q42 335 76.5 397.5 Q111 460 175.5 493.5 Q240 527 327 527 Q457 527 531.5 451 Q606 375 606 241 L606 223 L225 223 Z M437 328 Q428 367 400 388.5 Q372 410 331 410 Q290 410 263 388.5 Q236 367 229 328 L437 328 Z " />
<glyph glyph-name="uni1EC7" unicode="&#x1ec7;" horiz-adv-x="646" d="M550 675 L470 588 L325 698 L182 588 L105 675 L325 841 L550 675 Z M225 223 Q226 107 334 107 Q366 107 386.5 118 Q407 129 424 156 L598 156 Q588 123 578.5 103.5 Q569 84 553 66 Q518 25 460.5 2.5 Q403 -20 334 -20 Q246 -20 180 13.5 Q114 47 78 108.5 Q42 170 42 252 Q42 335 76.5 397.5 Q111 460 175.5 493.5 Q240 527 327 527 Q457 527 531.5 451 Q606 375 606 241 L606 223 L225 223 Z M437 328 Q428 367 400 388.5 Q372 410 331 410 Q290 410 263 388.5 Q236 367 229 328 L437 328 Z M323 -34 Q364 -34 392.5 -62.5 Q421 -91 421 -131 Q421 -171 392.5 -200 Q364 -229 324 -229 Q283 -229 254.5 -200 Q226 -171 226 -130 Q226 -91 254.5 -62.5 Q283 -34 323 -34 Z " />
<glyph glyph-name="uni1EC9" unicode="&#x1ec9;" horiz-adv-x="304" d="M114 686 L128 688 Q167 692 182 694 Q197 696 203 699 Q215 707 215 719 Q215 734 203.5 742 Q192 750 172 750 Q157 750 142.5 746 Q128 742 97 729 L71 793 Q114 809 138 814.5 Q162 820 191 820 Q244 820 278.5 791 Q313 762 313 718 Q313 690 297 668.5 Q281 647 255 638 Q242 634 233.5 633 Q225 632 190 632 L190 589 L114 589 L114 686 Z M62 0 L62 512 L243 512 L243 0 L62 0 Z " />
<glyph glyph-name="uni1ECB" unicode="&#x1ecb;" horiz-adv-x="304" d="M153 810 Q195 810 224.5 780.5 Q254 751 254 709 Q254 666 224.5 636.5 Q195 607 153 607 Q110 607 80.5 637 Q51 667 51 710 Q51 751 81 780.5 Q111 810 153 810 Z M62 0 L62 512 L243 512 L243 0 L62 0 Z M151 -34 Q192 -34 221 -62.5 Q250 -91 250 -131 Q250 -171 221.5 -200 Q193 -229 153 -229 Q111 -229 82.5 -200 Q54 -171 54 -130 Q54 -91 82.5 -62.5 Q111 -34 151 -34 Z " />
<glyph glyph-name="uni1ECD" unicode="&#x1ecd;" horiz-adv-x="699" d="M349 531 Q438 531 508.5 496 Q579 461 618.5 398.5 Q658 336 658 257 Q658 176 618.5 113.5 Q579 51 508 16 Q437 -19 347 -19 Q258 -19 188.5 16.5 Q119 52 80.5 115.5 Q42 179 42 261 Q42 317 66 369.5 Q90 422 134 460 Q172 493 229.5 512 Q287 531 349 531 Z M349 375 Q302 375 267.5 340.5 Q233 306 233 259 Q233 209 267 174.5 Q301 140 350 140 Q399 140 433 174.5 Q467 209 467 258 Q467 307 432.5 341 Q398 375 349 375 Z M349 -62 Q390 -62 418.5 -90.5 Q447 -119 447 -159 Q447 -200 418.5 -229 Q390 -258 350 -258 Q309 -258 280.5 -229 Q252 -200 252 -158 Q252 -119 280.5 -90.5 Q309 -62 349 -62 Z " />
<glyph glyph-name="uni1ECF" unicode="&#x1ecf;" horiz-adv-x="699" d="M310 685 L323 686 Q362 690 377.5 692 Q393 694 399 697 Q405 702 407.5 705.5 Q410 709 410 716 Q410 732 399 740.5 Q388 749 367 749 Q352 749 336.5 744.5 Q321 740 293 727 L267 791 Q309 808 333 813.5 Q357 819 386 819 Q440 819 474 790 Q508 761 508 716 Q508 676 480.5 652.5 Q453 629 405 629 L385 629 L385 586 L310 586 L310 685 Z M349 531 Q438 531 508.5 496 Q579 461 618.5 398.5 Q658 336 658 257 Q658 176 618.5 113.5 Q579 51 508 16 Q437 -19 347 -19 Q258 -19 188.5 16.5 Q119 52 80.5 115.5 Q42 179 42 261 Q42 317 66 369.5 Q90 422 134 460 Q172 493 229.5 512 Q287 531 349 531 Z M349 375 Q302 375 267.5 340.5 Q233 306 233 259 Q233 209 267 174.5 Q301 140 350 140 Q399 140 433 174.5 Q467 209 467 258 Q467 307 432.5 341 Q398 375 349 375 Z " />
<glyph glyph-name="uni1ED1" unicode="&#x1ed1;" horiz-adv-x="699" d="M705 836 L546 695 L573 675 L493 588 L348 698 L205 588 L128 675 L348 841 L460 758 L591 919 L705 836 Z M347 531 Q437 531 508 496 Q579 461 618.5 399 Q658 337 658 257 Q658 177 618.5 114 Q579 51 508.5 16 Q438 -19 349 -19 Q277 -19 215 5 Q153 29 112 73 Q79 110 60.5 157 Q42 204 42 251 Q42 333 80.5 396.5 Q119 460 188.5 495.5 Q258 531 347 531 Z M349 375 Q302 375 267.5 340.5 Q233 306 233 259 Q233 209 267 174.5 Q301 140 350 140 Q399 140 433 174.5 Q467 209 467 258 Q467 307 432.5 341 Q398 375 349 375 Z " />
<glyph glyph-name="uni1ED3" unicode="&#x1ed3;" horiz-adv-x="699" d="M657 755 L581 684 L389 815 L494 911 L657 755 Z M577 641 L523 555 L348 643 L172 555 L118 641 L348 776 L577 641 Z M347 531 Q437 531 508 496 Q579 461 618.5 399 Q658 337 658 257 Q658 177 618.5 114 Q579 51 508.5 16 Q438 -19 349 -19 Q277 -19 215 5 Q153 29 112 73 Q79 110 60.5 157 Q42 204 42 251 Q42 333 80.5 396.5 Q119 460 188.5 495.5 Q258 531 347 531 Z M349 375 Q302 375 267.5 340.5 Q233 306 233 259 Q233 209 267 174.5 Q301 140 350 140 Q399 140 433 174.5 Q467 209 467 258 Q467 307 432.5 341 Q398 375 349 375 Z " />
<glyph glyph-name="uni1ED5" unicode="&#x1ed5;" horiz-adv-x="699" d="M505 800 Q544 804 559.5 806 Q575 808 581 811 Q587 816 589.5 820.5 Q592 825 592 832 Q592 847 580.5 855 Q569 863 549 863 Q535 863 520.5 858.5 Q506 854 475 841 L449 905 Q492 922 515 927.5 Q538 933 568 933 Q622 933 656 904 Q690 875 690 831 Q690 791 662.5 767.5 Q635 744 588 744 L567 744 L567 701 L538 701 L573 676 L493 588 L348 699 L203 588 L128 676 L348 842 L492 736 L492 799 L505 800 Z M347 531 Q437 531 508 496 Q579 461 618.5 399 Q658 337 658 257 Q658 177 618.5 114 Q579 51 508.5 16 Q438 -19 349 -19 Q277 -19 215 5 Q153 29 112 73 Q79 110 60.5 157 Q42 204 42 251 Q42 333 80.5 396.5 Q119 460 188.5 495.5 Q258 531 347 531 Z M349 375 Q302 375 267.5 340.5 Q233 306 233 259 Q233 209 267 174.5 Q301 140 350 140 Q399 140 433 174.5 Q467 209 467 258 Q467 307 432.5 341 Q398 375 349 375 Z " />
<glyph glyph-name="uni1ED7" unicode="&#x1ed7;" horiz-adv-x="699" d="M149 846 Q149 865 150 877 Q151 889 155 904 Q165 950 193 977.5 Q221 1005 259 1005 Q277 1005 292.5 1000.5 Q308 996 359 977 Q403 960 425 960 Q441 960 448 968.5 Q455 977 462 1005 L551 1005 Q546 950 532 915 Q518 881 494 863.5 Q470 846 437 846 Q399 846 338 869 Q308 881 295 885 Q282 889 270 889 Q254 889 247 880.5 Q240 872 235 846 L149 846 Z M573 675 L493 588 L348 698 L205 588 L128 675 L348 841 L573 675 Z M349 531 Q438 531 508.5 496 Q579 461 618.5 398.5 Q658 336 658 257 Q658 176 618.5 113.5 Q579 51 508 16 Q437 -19 347 -19 Q258 -19 188.5 16.5 Q119 52 80.5 115.5 Q42 179 42 261 Q42 317 66 369.5 Q90 422 134 460 Q172 493 229.5 512 Q287 531 349 531 Z M349 375 Q302 375 267.5 340.5 Q233 306 233 259 Q233 209 267 174.5 Q301 140 350 140 Q399 140 433 174.5 Q467 209 467 258 Q467 307 432.5 341 Q398 375 349 375 Z " />
<glyph glyph-name="uni1ED9" unicode="&#x1ed9;" horiz-adv-x="699" d="M573 675 L493 588 L348 698 L205 588 L128 675 L348 841 L573 675 Z M349 531 Q438 531 508.5 496 Q579 461 618.5 398.5 Q658 336 658 257 Q658 176 618.5 113.5 Q579 51 508 16 Q437 -19 347 -19 Q258 -19 188.5 16.5 Q119 52 80.5 115.5 Q42 179 42 261 Q42 317 66 369.5 Q90 422 134 460 Q172 493 229.5 512 Q287 531 349 531 Z M349 375 Q302 375 267.5 340.5 Q233 306 233 259 Q233 209 267 174.5 Q301 140 350 140 Q399 140 433 174.5 Q467 209 467 258 Q467 307 432.5 341 Q398 375 349 375 Z M349 -52 Q390 -52 418.5 -80.5 Q447 -109 447 -149 Q447 -189 418.5 -218 Q390 -247 350 -247 Q309 -247 280.5 -218 Q252 -189 252 -148 Q252 -109 280.5 -80.5 Q309 -52 349 -52 Z " />
<glyph glyph-name="uni1EDB" unicode="&#x1edb;" horiz-adv-x="699" d="M267 650 L409 824 L524 741 L350 588 L267 650 Z M626 385 Q658 326 658 257 Q658 177 618.5 114 Q579 51 509 16 Q439 -19 350 -19 Q261 -19 190.5 16 Q120 51 81 114 Q42 177 42 257 Q42 336 81 398.5 Q120 461 190 496 Q260 531 348 531 Q420 531 480.5 508 Q541 485 582 444 L634 577 L772 577 L669 385 L626 385 Z M349 376 Q302 376 267.5 341.5 Q233 307 233 260 Q233 210 267 175 Q301 140 350 140 Q399 140 433 174.5 Q467 209 467 259 Q467 307 432.5 341.5 Q398 376 349 376 Z " />
<glyph glyph-name="uni1EDD" unicode="&#x1edd;" horiz-adv-x="699" d="M434 650 L349 588 L176 741 L290 824 L434 650 Z M626 385 Q658 326 658 257 Q658 177 618.5 114 Q579 51 509 16 Q439 -19 350 -19 Q261 -19 190.5 16 Q120 51 81 114 Q42 177 42 257 Q42 336 81 398.5 Q120 461 190 496 Q260 531 348 531 Q420 531 480.5 508 Q541 485 582 444 L634 577 L772 577 L669 385 L626 385 Z M349 376 Q302 376 267.5 341.5 Q233 307 233 260 Q233 210 267 175 Q301 140 350 140 Q399 140 433 174.5 Q467 209 467 259 Q467 307 432.5 341.5 Q398 376 349 376 Z " />
<glyph glyph-name="uni1EDF" unicode="&#x1edf;" horiz-adv-x="699" d="M310 683 L323 684 Q362 687 377.5 689 Q393 691 399 695 Q405 700 407.5 703.5 Q410 707 410 714 Q410 730 399 738.5 Q388 747 367 747 Q352 747 337 742.5 Q322 738 293 724 L267 789 Q312 806 335 811.5 Q358 817 386 817 Q440 817 474 788 Q508 759 508 714 Q508 674 480.5 650.5 Q453 627 405 627 L385 627 L385 584 L310 584 L310 683 Z M626 385 Q658 326 658 257 Q658 177 618.5 114 Q579 51 509 16 Q439 -19 350 -19 Q261 -19 190.5 16 Q120 51 81 114 Q42 177 42 257 Q42 336 81 398.5 Q120 461 190 496 Q260 531 348 531 Q420 531 480.5 508 Q541 485 582 444 L634 577 L772 577 L669 385 L626 385 Z M349 376 Q302 376 267.5 341.5 Q233 307 233 260 Q233 210 267 175 Q301 140 350 140 Q399 140 433 174.5 Q467 209 467 259 Q467 307 432.5 341.5 Q398 376 349 376 Z " />
<glyph glyph-name="uni1EE1" unicode="&#x1ee1;" horiz-adv-x="699" d="M149 593 Q149 616 150 625.5 Q151 635 155 650 Q165 696 193 723 Q221 750 259 750 Q278 750 294.5 745.5 Q311 741 359 723 Q403 706 425 706 Q441 706 448 714.5 Q455 723 462 750 L551 750 Q542 666 515 629.5 Q488 593 437 593 Q395 593 338 616 Q300 630 291 632.5 Q282 635 270 635 Q254 635 247 626.5 Q240 618 235 593 L149 593 Z M626 385 Q658 326 658 257 Q658 177 618.5 114 Q579 51 509 16 Q439 -19 350 -19 Q261 -19 190.5 16 Q120 51 81 114 Q42 177 42 257 Q42 336 81 398.5 Q120 461 190 496 Q260 531 348 531 Q420 531 480.5 508 Q541 485 582 444 L634 577 L772 577 L669 385 L626 385 Z M349 376 Q302 376 267.5 341.5 Q233 307 233 260 Q233 210 267 175 Q301 140 350 140 Q399 140 433 174.5 Q467 209 467 259 Q467 307 432.5 341.5 Q398 376 349 376 Z " />
<glyph glyph-name="uni1EE3" unicode="&#x1ee3;" horiz-adv-x="699" d="M626 385 Q658 326 658 257 Q658 177 618.5 114 Q579 51 509 16 Q439 -19 350 -19 Q261 -19 190.5 16 Q120 51 81 114 Q42 177 42 257 Q42 336 81 398.5 Q120 461 190 496 Q260 531 348 531 Q420 531 480.5 508 Q541 485 582 444 L634 577 L772 577 L669 385 L626 385 Z M349 376 Q302 376 267.5 341.5 Q233 307 233 260 Q233 210 267 175 Q301 140 350 140 Q399 140 433 174.5 Q467 209 467 259 Q467 307 432.5 341.5 Q398 376 349 376 Z M349 -52 Q390 -52 418.5 -80.5 Q447 -109 447 -149 Q447 -189 418.5 -218 Q390 -247 350 -247 Q309 -247 280.5 -218 Q252 -189 252 -148 Q252 -109 280.5 -80.5 Q309 -52 349 -52 Z " />
<glyph glyph-name="uni1EE5" unicode="&#x1ee5;" horiz-adv-x="657" d="M257 -20 Q208 -20 176.5 -9.5 Q145 1 120 25 Q91 52 76.5 92.5 Q62 133 62 198 L62 512 L243 512 L243 226 Q243 175 264.5 151.5 Q286 128 330 128 Q368 128 391.5 158 Q415 188 415 257 L415 512 L596 512 L596 0 L415 0 L415 76 Q383 27 346 3.5 Q309 -20 257 -20 Z M334 -34 Q375 -34 404 -62.5 Q433 -91 433 -131 Q433 -171 404.5 -200 Q376 -229 336 -229 Q294 -229 265.5 -200 Q237 -171 237 -130 Q237 -91 265.5 -62.5 Q294 -34 334 -34 Z " />
<glyph glyph-name="uni1EE7" unicode="&#x1ee7;" horiz-adv-x="657" d="M257 -20 Q208 -20 176.5 -9.5 Q145 1 120 25 Q91 52 76.5 92.5 Q62 133 62 198 L62 512 L243 512 L243 226 Q243 175 264.5 151.5 Q286 128 330 128 Q368 128 391.5 158 Q415 188 415 257 L415 512 L596 512 L596 0 L415 0 L415 76 Q383 27 346 3.5 Q309 -20 257 -20 Z M296 671 L310 672 Q358 676 368.5 678 Q379 680 386 684 Q397 692 397 703 Q397 719 385.5 727.5 Q374 736 354 736 Q340 736 326 731.5 Q312 727 279 713 L253 777 Q297 794 321 800 Q345 806 373 806 Q426 806 460.5 777 Q495 748 495 703 Q495 663 467 639.5 Q439 616 391 616 L372 616 L372 573 L296 573 L296 671 Z " />
<glyph glyph-name="uni1EE9" unicode="&#x1ee9;" horiz-adv-x="657" d="M736 381 L626 381 L701 573 L838 573 L736 381 Z M257 -20 Q208 -20 176.5 -9.5 Q145 1 120 25 Q91 52 76.5 92.5 Q62 133 62 198 L62 512 L243 512 L243 226 Q243 175 264.5 151.5 Q286 128 330 128 Q368 128 391.5 158 Q415 188 415 257 L415 512 L596 512 L596 0 L415 0 L415 76 Q383 27 346 3.5 Q309 -20 257 -20 Z M246 650 L388 824 L504 741 L330 588 L246 650 Z " />
<glyph glyph-name="uni1EEB" unicode="&#x1eeb;" horiz-adv-x="657" d="M736 381 L626 381 L701 573 L838 573 L736 381 Z M257 -20 Q208 -20 176.5 -9.5 Q145 1 120 25 Q91 52 76.5 92.5 Q62 133 62 198 L62 512 L243 512 L243 226 Q243 175 264.5 151.5 Q286 128 330 128 Q368 128 391.5 158 Q415 188 415 257 L415 512 L596 512 L596 0 L415 0 L415 76 Q383 27 346 3.5 Q309 -20 257 -20 Z M418 650 L335 588 L160 741 L276 824 L418 650 Z " />
<glyph glyph-name="uni1EED" unicode="&#x1eed;" horiz-adv-x="657" d="M736 381 L626 381 L701 573 L838 573 L736 381 Z M257 -20 Q208 -20 176.5 -9.5 Q145 1 120 25 Q91 52 76.5 92.5 Q62 133 62 198 L62 512 L243 512 L243 226 Q243 175 264.5 151.5 Q286 128 330 128 Q368 128 391.5 158 Q415 188 415 257 L415 512 L596 512 L596 0 L415 0 L415 76 Q383 27 346 3.5 Q309 -20 257 -20 Z M292 671 L306 672 Q354 676 364.5 678 Q375 680 382 684 Q393 692 393 703 Q393 719 381.5 727.5 Q370 736 350 736 Q336 736 322 731.5 Q308 727 275 713 L249 777 Q293 794 317 800 Q341 806 369 806 Q422 806 456.5 777 Q491 748 491 703 Q491 663 463 639.5 Q435 616 387 616 L368 616 L368 573 L292 573 L292 671 Z " />
<glyph glyph-name="uni1EEF" unicode="&#x1eef;" horiz-adv-x="657" d="M736 381 L626 381 L701 573 L838 573 L736 381 Z M257 -20 Q208 -20 176.5 -9.5 Q145 1 120 25 Q91 52 76.5 92.5 Q62 133 62 198 L62 512 L243 512 L243 226 Q243 175 264.5 151.5 Q286 128 330 128 Q368 128 391.5 158 Q415 188 415 257 L415 512 L596 512 L596 0 L415 0 L415 76 Q383 27 346 3.5 Q309 -20 257 -20 Z M133 593 Q133 665 163 707.5 Q193 750 243 750 Q261 750 277.5 745.5 Q294 741 344 723 Q386 706 409 706 Q425 706 432 714.5 Q439 723 446 750 L536 750 Q526 666 499.5 629.5 Q473 593 422 593 Q403 593 376 599 Q349 605 322 616 Q284 630 275 632.5 Q266 635 254 635 Q238 635 231 626.5 Q224 618 219 593 L133 593 Z " />
<glyph glyph-name="uni1EF1" unicode="&#x1ef1;" horiz-adv-x="657" d="M736 381 L626 381 L701 573 L838 573 L736 381 Z M257 -20 Q208 -20 176.5 -9.5 Q145 1 120 25 Q91 52 76.5 92.5 Q62 133 62 198 L62 512 L243 512 L243 226 Q243 175 264.5 151.5 Q286 128 330 128 Q368 128 391.5 158 Q415 188 415 257 L415 512 L596 512 L596 0 L415 0 L415 76 Q383 27 346 3.5 Q309 -20 257 -20 Z M334 -34 Q375 -34 404 -62.5 Q433 -91 433 -131 Q433 -171 404.5 -200 Q376 -229 336 -229 Q294 -229 265.5 -200 Q237 -171 237 -130 Q237 -91 265.5 -62.5 Q294 -34 334 -34 Z " />
<glyph glyph-name="uni1EF5" unicode="&#x1ef5;" horiz-adv-x="687" d="M210 512 L347 250 L480 512 L687 512 L276 -257 L73 -257 L247 69 L0 512 L210 512 Z M501 -34 Q542 -34 570.5 -62.5 Q599 -91 599 -131 Q599 -171 570.5 -200 Q542 -229 502 -229 Q460 -229 431.5 -200 Q403 -171 403 -130 Q403 -91 432 -62.5 Q461 -34 501 -34 Z " />
<glyph glyph-name="uni1EF7" unicode="&#x1ef7;" horiz-adv-x="687" d="M304 657 L318 658 Q357 661 372 663 Q387 665 393 669 Q405 675 405 688 Q405 704 393.5 712 Q382 720 362 720 Q347 720 332.5 715.5 Q318 711 287 698 L261 763 Q306 780 329 785 Q352 790 381 790 Q434 790 468.5 761 Q503 732 503 687 Q503 660 487 638 Q471 616 445 608 Q432 603 423 602 Q414 601 380 601 L380 558 L304 558 L304 657 Z M210 512 L347 250 L480 512 L687 512 L276 -257 L73 -257 L247 69 L0 512 L210 512 Z " />
<glyph glyph-name="uni1EF9" unicode="&#x1ef9;" horiz-adv-x="687" d="M142 603 Q142 667 173.5 708.5 Q205 750 252 750 Q270 750 286.5 745.5 Q303 741 353 723 Q397 706 419 706 Q435 706 441.5 714.5 Q448 723 455 750 L545 750 Q535 666 508.5 629.5 Q482 593 431 593 Q390 593 332 616 Q294 630 284.5 632.5 Q275 635 263 635 Q247 635 240.5 626.5 Q234 618 229 593 L142 593 L142 603 Z M210 512 L347 250 L480 512 L687 512 L276 -257 L73 -257 L247 69 L0 512 L210 512 Z " />
<glyph glyph-name="uogonek" unicode="&#x173;" horiz-adv-x="657" d="M528 -218 Q486 -218 456.5 -191.5 Q427 -165 427 -128 Q427 -53 513 0 L415 0 L415 76 Q383 27 346 3.5 Q309 -20 257 -20 Q208 -20 176.5 -9.5 Q145 1 120 25 Q91 52 76.5 92.5 Q62 133 62 198 L62 512 L243 512 L243 226 Q243 175 264.5 151.5 Q286 128 330 128 Q368 128 391.5 158 Q415 188 415 257 L415 512 L596 512 L596 0 Q561 -23 546 -41 Q531 -59 531 -78 Q531 -96 543.5 -108.5 Q556 -121 575 -121 Q587 -121 600 -116.5 Q613 -112 632 -101 L608 -198 Q573 -218 528 -218 Z " />
<glyph glyph-name="uring" unicode="&#x16f;" horiz-adv-x="657" d="M257 -20 Q208 -20 176.5 -9.5 Q145 1 120 25 Q91 52 76.5 92.5 Q62 133 62 198 L62 512 L243 512 L243 226 Q243 175 264.5 151.5 Q286 128 330 128 Q368 128 391.5 158 Q415 188 415 257 L415 512 L596 512 L596 0 L415 0 L415 76 Q383 27 346 3.5 Q309 -20 257 -20 Z M337 826 Q407 826 447.5 794.5 Q488 763 488 709 Q488 655 447.5 623.5 Q407 592 337 592 L329 592 Q259 592 218.5 623.5 Q178 655 178 710 Q178 762 219.5 794 Q261 826 329 826 L337 826 Z M331 754 Q305 754 289 742 Q273 730 273 710 Q273 688 288.5 675.5 Q304 663 333 663 Q362 663 378 675 Q394 687 394 709 Q394 730 377.5 742 Q361 754 331 754 Z " />
<glyph glyph-name="utilde" unicode="&#x169;" horiz-adv-x="657" d="M257 -20 Q208 -20 176.5 -9.5 Q145 1 120 25 Q91 52 76.5 92.5 Q62 133 62 198 L62 512 L243 512 L243 226 Q243 175 264.5 151.5 Q286 128 330 128 Q368 128 391.5 158 Q415 188 415 257 L415 512 L596 512 L596 0 L415 0 L415 76 Q383 27 346 3.5 Q309 -20 257 -20 Z M137 593 Q137 665 167 707.5 Q197 750 247 750 Q265 750 281.5 745.5 Q298 741 348 723 Q390 706 413 706 Q429 706 436 714.5 Q443 723 450 750 L540 750 Q530 666 503.5 629.5 Q477 593 426 593 Q407 593 380 599 Q353 605 326 616 Q288 630 279 632.5 Q270 635 258 635 Q242 635 235 626.5 Q228 618 223 593 L137 593 Z " />
<glyph glyph-name="v" unicode="v" horiz-adv-x="652" d="M450 512 L652 512 L385 0 L264 0 L0 512 L203 512 L325 250 L450 512 Z " />
<glyph glyph-name="w" unicode="w" horiz-adv-x="1025" d="M453 512 L566 512 L695 234 L824 512 L1025 512 L757 0 L635 0 L507 280 L385 0 L263 0 L0 512 L202 512 L324 242 L453 512 Z " />
<glyph glyph-name="wacute" unicode="&#x1e83;" horiz-adv-x="1025" d="M383 650 L527 824 L641 741 L468 588 L383 650 Z M453 512 L566 512 L695 234 L824 512 L1025 512 L757 0 L635 0 L507 280 L385 0 L263 0 L0 512 L202 512 L324 242 L453 512 Z " />
<glyph glyph-name="wcircumflex" unicode="&#x175;" horiz-adv-x="1025" d="M734 675 L654 588 L511 698 L366 588 L290 675 L511 841 L734 675 Z M453 512 L566 512 L695 234 L824 512 L1025 512 L757 0 L635 0 L507 280 L385 0 L263 0 L0 512 L202 512 L324 242 L453 512 Z " />
<glyph glyph-name="wdieresis" unicode="&#x1e85;" horiz-adv-x="1025" d="M383 786 Q424 786 452.5 758 Q481 730 481 689 Q481 649 452.5 620 Q424 591 384 591 Q343 591 314.5 620 Q286 649 286 690 Q286 729 314.5 757.5 Q343 786 383 786 Z M640 786 Q681 786 709.5 758 Q738 730 738 689 Q738 649 709.5 620 Q681 591 641 591 Q599 591 570.5 620 Q542 649 542 690 Q542 729 571 757.5 Q600 786 640 786 Z M453 512 L566 512 L695 234 L824 512 L1025 512 L757 0 L635 0 L507 280 L385 0 L263 0 L0 512 L202 512 L324 242 L453 512 Z " />
<glyph glyph-name="wgrave" unicode="&#x1e81;" horiz-adv-x="1025" d="M641 650 L557 588 L383 741 L498 824 L641 650 Z M453 512 L566 512 L695 234 L824 512 L1025 512 L757 0 L635 0 L507 280 L385 0 L263 0 L0 512 L202 512 L324 242 L453 512 Z " />
<glyph glyph-name="x" unicode="x" horiz-adv-x="741" d="M284 512 L372 407 L462 512 L697 512 L485 278 L741 0 L502 0 L371 153 L240 0 L0 0 L255 278 L47 512 L284 512 Z " />
<glyph glyph-name="y" unicode="y" horiz-adv-x="687" d="M210 512 L347 250 L480 512 L687 512 L276 -257 L73 -257 L247 69 L0 512 L210 512 Z " />
<glyph glyph-name="yacute" unicode="&#xfd;" horiz-adv-x="687" d="M268 650 L410 824 L525 741 L351 588 L268 650 Z M210 512 L347 250 L480 512 L687 512 L276 -257 L73 -257 L247 69 L0 512 L210 512 Z " />
<glyph glyph-name="ycircumflex" unicode="&#x177;" horiz-adv-x="687" d="M566 675 L486 588 L342 698 L198 588 L121 675 L342 841 L566 675 Z M210 512 L347 250 L480 512 L687 512 L276 -257 L73 -257 L247 69 L0 512 L210 512 Z " />
<glyph glyph-name="ydieresis" unicode="&#xff;" horiz-adv-x="687" d="M215 786 Q256 786 284.5 758 Q313 730 313 689 Q313 649 284.5 620 Q256 591 216 591 Q174 591 146 619.5 Q118 648 118 690 Q118 729 146.5 757.5 Q175 786 215 786 Z M471 786 Q512 786 541 758 Q570 730 570 689 Q570 649 541 620 Q512 591 472 591 Q431 591 402.5 620 Q374 649 374 690 Q374 729 402.5 757.5 Q431 786 471 786 Z M210 512 L347 250 L480 512 L687 512 L276 -257 L73 -257 L247 69 L0 512 L210 512 Z " />
<glyph glyph-name="ygrave" unicode="&#x1ef3;" horiz-adv-x="687" d="M472 650 L389 588 L215 741 L330 824 L472 650 Z M210 512 L347 250 L480 512 L687 512 L276 -257 L73 -257 L247 69 L0 512 L210 512 Z " />
<glyph glyph-name="z" unicode="z" horiz-adv-x="589" d="M541 0 L23 0 L263 362 L55 362 L55 512 L565 512 L325 150 L541 150 L541 0 Z " />
<glyph glyph-name="zacute" unicode="&#x17a;" horiz-adv-x="589" d="M210 650 L354 824 L468 741 L295 588 L210 650 Z M541 0 L23 0 L263 362 L55 362 L55 512 L565 512 L325 150 L541 150 L541 0 Z " />
<glyph glyph-name="zcaron" unicode="&#x17e;" horiz-adv-x="589" d="M299 730 L444 841 L524 754 L299 588 L79 754 L156 841 L299 730 Z M541 0 L23 0 L263 362 L55 362 L55 512 L565 512 L325 150 L541 150 L541 0 Z " />
<glyph glyph-name="zdotaccent" unicode="&#x17c;" horiz-adv-x="589" d="M302 797 Q344 797 374.5 767 Q405 737 405 694 Q405 651 374.5 621 Q344 591 302 591 Q259 591 229 621 Q199 651 199 695 Q199 737 229.5 767 Q260 797 302 797 Z M541 0 L23 0 L263 362 L55 362 L55 512 L565 512 L325 150 L541 150 L541 0 Z " />
<glyph glyph-name="ff" unicode="&#xfb00;" horiz-adv-x="744" d="M77 0 L77 362 L12 362 L12 512 L77 512 L77 590 Q77 652 89.5 690.5 Q102 729 134 764 Q169 800 213.5 820 Q258 840 305 840 Q328 840 344.5 835.5 Q361 831 385 820 L385 663 Q362 674 349 677.5 Q336 681 322 681 Q304 681 287 671.5 Q270 662 264 647 Q260 638 259 623.5 Q258 609 258 576 L258 512 L332 512 L332 362 L258 362 L258 0 L77 0 Z M429 0 L429 362 L365 362 L365 512 L429 512 L429 590 Q429 652 442 690.5 Q455 729 487 764 Q521 800 565.5 820 Q610 840 658 840 Q680 840 697 835.5 Q714 831 738 820 L738 663 Q717 673 703 677 Q689 681 675 681 Q657 681 640 671.5 Q623 662 617 647 Q613 638 611.5 623.5 Q610 609 610 576 L610 512 L738 512 L738 362 L610 362 L610 0 L429 0 Z " />
<glyph glyph-name="ffi" unicode="&#xfb03;" horiz-adv-x="1025" d="M77 0 L77 362 L12 362 L12 512 L77 512 L77 590 Q77 652 89.5 690.5 Q102 729 134 764 Q169 800 213.5 820 Q258 840 305 840 Q328 840 344.5 835.5 Q361 831 385 820 L385 663 Q362 674 349 677.5 Q336 681 322 681 Q304 681 287 671.5 Q270 662 264 647 Q260 638 259 623.5 Q258 609 258 576 L258 512 L332 512 L332 362 L258 362 L258 0 L77 0 Z M429 0 L429 362 L365 362 L365 512 L429 512 L429 590 Q429 652 442 690.5 Q455 729 487 764 Q521 800 565.5 820 Q610 840 658 840 Q680 840 697 835.5 Q714 831 738 820 L738 663 Q717 673 703 677 Q689 681 675 681 Q657 681 640 671.5 Q623 662 617 647 Q613 638 611.5 623.5 Q610 609 610 576 L610 512 L738 512 L738 362 L610 362 L610 0 L429 0 Z M872 810 Q915 810 944.5 780.5 Q974 751 974 709 Q974 666 944.5 636.5 Q915 607 872 607 Q830 607 800.5 637 Q771 667 771 710 Q771 751 801 780.5 Q831 810 872 810 Z M782 0 L782 512 L963 512 L963 0 L782 0 Z " />
<glyph glyph-name="ffl" unicode="&#xfb04;" horiz-adv-x="1025" d="M77 0 L77 362 L12 362 L12 512 L77 512 L77 590 Q77 652 89.5 690.5 Q102 729 134 764 Q169 800 213.5 820 Q258 840 305 840 Q328 840 344.5 835.5 Q361 831 385 820 L385 663 Q362 674 349 677.5 Q336 681 322 681 Q304 681 287 671.5 Q270 662 264 647 Q260 638 259 623.5 Q258 609 258 576 L258 512 L332 512 L332 362 L258 362 L258 0 L77 0 Z M429 0 L429 362 L365 362 L365 512 L429 512 L429 590 Q429 652 442 690.5 Q455 729 487 764 Q521 800 565.5 820 Q610 840 658 840 Q680 840 697 835.5 Q714 831 738 820 L738 663 Q717 673 703 677 Q689 681 675 681 Q657 681 640 671.5 Q623 662 617 647 Q613 638 611.5 623.5 Q610 609 610 576 L610 512 L738 512 L738 362 L610 362 L610 0 L429 0 Z M782 0 L782 828 L963 828 L963 0 L782 0 Z " />
<glyph glyph-name="fi" unicode="&#xfb01;" horiz-adv-x="672" d="M77 0 L77 362 L12 362 L12 512 L77 512 L77 590 Q77 652 89.5 690.5 Q102 729 134 764 Q169 800 213.5 820 Q258 840 305 840 Q328 840 344.5 835.5 Q361 831 385 820 L385 663 Q364 673 350 677 Q336 681 322 681 Q304 681 287 671.5 Q270 662 264 647 Q260 638 259 623.5 Q258 609 258 576 L258 512 L385 512 L385 362 L258 362 L258 0 L77 0 Z M520 810 Q562 810 591.5 780.5 Q621 751 621 709 Q621 666 591.5 636.5 Q562 607 520 607 Q477 607 447.5 637 Q418 667 418 710 Q418 751 448 780.5 Q478 810 520 810 Z M429 0 L429 512 L610 512 L610 0 L429 0 Z " />
<glyph glyph-name="fl" unicode="&#xfb02;" horiz-adv-x="672" d="M77 0 L77 362 L12 362 L12 512 L77 512 L77 590 Q77 652 89.5 690.5 Q102 729 134 764 Q169 800 213.5 820 Q258 840 305 840 Q328 840 344.5 835.5 Q361 831 385 820 L385 663 Q364 673 350 677 Q336 681 322 681 Q304 681 287 671.5 Q270 662 264 647 Q260 638 259 623.5 Q258 609 258 576 L258 512 L385 512 L385 362 L258 362 L258 0 L77 0 Z M429 0 L429 828 L610 828 L610 0 L429 0 Z " />
<glyph glyph-name="ordfeminine" unicode="&#xaa;" horiz-adv-x="410" d="M373 444 L268 444 L268 477 Q250 455 227.5 444.5 Q205 434 175 434 Q133 434 98.5 455 Q64 476 44 513 Q24 550 24 594 Q24 638 43.5 675 Q63 712 97.5 733 Q132 754 174 754 Q229 754 268 714 L268 744 L373 744 L373 444 Z M201 662 Q173 662 153 642 Q133 622 133 594 Q133 566 153.5 545.5 Q174 525 202 525 Q230 525 250 545 Q270 565 270 594 Q270 623 250 642.5 Q230 662 201 662 Z M377 320 L35 320 L35 388 L377 388 L377 320 Z " />
<glyph glyph-name="ordmasculine" unicode="&#xba;" horiz-adv-x="408" d="M203 755 Q256 755 297 734.5 Q338 714 361 677 Q384 640 384 593 Q384 522 333.5 477.5 Q283 433 202 433 Q150 433 109.5 454 Q69 475 46.5 512.5 Q24 550 24 597 Q24 641 47.5 677.5 Q71 714 112 734.5 Q153 755 203 755 Z M203 662 Q175 662 155.5 642 Q136 622 136 594 Q136 565 156 545 Q176 525 205 525 Q233 525 252.5 545 Q272 565 272 594 Q272 623 252 642.5 Q232 662 203 662 Z M375 320 L33 320 L33 388 L375 388 L375 320 Z " />
<glyph glyph-name="uni0410" unicode="&#x410;" horiz-adv-x="802" d="M215 0 L8 0 L297 754 L511 754 L794 0 L585 0 L537 131 L267 131 L215 0 Z M321 280 L484 280 L403 521 L321 280 Z " />
<glyph glyph-name="uni0411" unicode="&#x411;" horiz-adv-x="676" d="M597 754 L597 588 L268 588 L268 461 L402 461 Q521 461 584 404 Q647 347 647 238 Q647 177 623 126.5 Q599 76 556 46 Q491 0 374 0 L79 0 L79 754 L597 754 Z M344 153 Q402 153 429.5 172 Q457 191 457 233 Q457 275 429.5 294.5 Q402 314 344 314 L268 314 L268 153 L344 153 Z " />
<glyph glyph-name="uni0412" unicode="&#x412;" horiz-adv-x="698" d="M370 754 Q473 754 527.5 703 Q582 652 582 557 Q582 500 562.5 463.5 Q543 427 499 402 Q541 394 563.5 384 Q586 374 605 355 Q628 331 640.5 294 Q653 257 653 214 Q653 114 583.5 57 Q514 0 393 0 L79 0 L79 754 L370 754 Z M311 457 Q356 457 379 476 Q402 495 402 530 Q402 603 311 603 L275 603 L275 457 L311 457 Z M318 153 Q391 153 423 171.5 Q455 190 455 232 Q455 253 445 271 Q435 289 418 297 Q400 306 380.5 308.5 Q361 311 314 311 L275 311 L275 153 L318 153 Z " />
<glyph glyph-name="uni0413" unicode="&#x413;" horiz-adv-x="554" d="M539 754 L539 588 L275 588 L275 0 L79 0 L79 754 L539 754 Z " />
<glyph glyph-name="uni0403" unicode="&#x403;" horiz-adv-x="554" d="M215 885 L377 1040 L483 945 L290 814 L215 885 Z M539 754 L539 588 L275 588 L275 0 L79 0 L79 754 L539 754 Z " />
<glyph glyph-name="uni0490" unicode="&#x490;" horiz-adv-x="554" d="M366 754 L366 834 L539 834 L539 588 L275 588 L275 0 L79 0 L79 754 L366 754 Z " />
<glyph glyph-name="uni0414" unicode="&#x414;" horiz-adv-x="808" d="M28 166 Q65 167 87.5 182 Q110 197 123.5 230.5 Q137 264 145 325 Q172 519 179 754 L720 754 L720 166 L791 166 L791 -145 L617 -145 L617 0 L160 0 L160 -145 L-14 -145 L-14 166 L28 166 Z M524 588 L357 588 Q351 442 342.5 364 Q334 286 319.5 242 Q305 198 278 166 L524 166 L524 588 Z " />
<glyph glyph-name="uni0415" unicode="&#x415;" horiz-adv-x="553" d="M507 754 L507 588 L275 588 L275 462 L495 462 L495 296 L275 296 L275 166 L507 166 L507 0 L79 0 L79 754 L507 754 Z " />
<glyph glyph-name="uni0400" unicode="&#x400;" horiz-adv-x="553" d="M403 885 L327 814 L134 945 L240 1040 L403 885 Z M275 462 L495 462 L495 296 L275 296 L275 166 L507 166 L507 0 L79 0 L79 754 L507 754 L507 588 L275 588 L275 462 Z " />
<glyph glyph-name="uni0401" unicode="&#x401;" horiz-adv-x="553" d="M157 1020 Q198 1020 226.5 991.5 Q255 963 255 923 Q255 883 226.5 854 Q198 825 158 825 Q117 825 88.5 854 Q60 883 60 924 Q60 963 88.5 991.5 Q117 1020 157 1020 Z M428 1020 Q469 1020 498 991.5 Q527 963 527 923 Q527 883 498.5 854 Q470 825 429 825 Q388 825 359.5 854 Q331 883 331 924 Q331 963 359.5 991.5 Q388 1020 428 1020 Z M508 754 L508 588 L275 588 L275 462 L495 462 L495 296 L275 296 L275 166 L508 166 L508 0 L79 0 L79 754 L508 754 Z " />
<glyph glyph-name="uni0416" unicode="&#x416;" horiz-adv-x="1104" d="M424 307 L223 0 L-11 0 L262 386 L14 754 L233 754 L418 460 L457 460 L457 754 L649 754 L649 460 L687 460 L872 754 L1092 754 L842 386 L1115 0 L881 0 L680 307 L649 307 L649 0 L457 0 L457 307 L424 307 Z " />
<glyph glyph-name="uni0417" unicode="&#x417;" horiz-adv-x="645" d="M231 459 Q286 459 315.5 462 Q345 465 366 473 Q386 481 397 494.5 Q408 508 408 524 Q408 556 369.5 574 Q331 592 264 592 Q209 592 170 582.5 Q131 573 50 541 L50 732 Q103 750 164.5 760 Q226 770 288 770 Q387 770 459.5 745 Q532 720 570.5 674 Q609 628 609 564 Q609 530 597 499 Q585 468 562 445 Q546 430 528.5 419.5 Q511 409 478 395 Q551 370 585.5 326.5 Q620 283 620 216 Q620 167 600 124.5 Q580 82 542 51 Q498 15 440 -0.5 Q382 -16 295 -16 Q222 -16 149 -5 Q76 6 28 24 L28 223 Q86 191 141 177 Q196 163 262 163 Q416 163 416 240 Q416 279 373.5 295.5 Q331 312 231 312 L182 312 L182 459 L231 459 Z " />
<glyph glyph-name="uni0418" unicode="&#x418;" horiz-adv-x="805" d="M267 754 L267 308 L559 754 L725 754 L725 0 L538 0 L538 443 L245 0 L79 0 L79 754 L267 754 Z " />
<glyph glyph-name="uni0419" unicode="&#x419;" horiz-adv-x="805" d="M314 999 Q329 932 402 932 Q476 932 492 999 L618 999 Q613 917 556 871 Q499 825 402 825 Q305 825 248 871 Q191 917 186 999 L314 999 Z M267 754 L267 308 L559 754 L725 754 L725 0 L538 0 L538 443 L245 0 L79 0 L79 754 L267 754 Z " />
<glyph glyph-name="uni040D" unicode="&#x40d;" horiz-adv-x="805" d="M537 885 L461 814 L268 945 L373 1040 L537 885 Z M267 754 L267 308 L559 754 L725 754 L725 0 L538 0 L538 443 L245 0 L79 0 L79 754 L267 754 Z " />
<glyph glyph-name="uni041A" unicode="&#x41a;" horiz-adv-x="749" d="M275 754 L275 402 L510 754 L736 754 L466 386 L759 0 L520 0 L275 351 L275 0 L79 0 L79 754 L275 754 Z " />
<glyph glyph-name="uni040C" unicode="&#x40c;" horiz-adv-x="749" d="M307 885 L471 1040 L576 945 L384 814 L307 885 Z M275 754 L275 402 L510 754 L736 754 L466 386 L759 0 L520 0 L275 351 L275 0 L79 0 L79 754 L275 754 Z " />
<glyph glyph-name="uni041B" unicode="&#x41b;" horiz-adv-x="765" d="M686 0 L490 0 L490 588 L322 588 L321 567 Q310 397 299.5 314 Q289 231 269 174 Q239 86 182.5 42.5 Q126 -1 41 -1 L-11 0 L-11 167 L12 166 Q55 166 78 203 Q101 240 114 332 Q134 469 144 754 L686 754 L686 0 Z " />
<glyph glyph-name="uni041C" unicode="&#x41c;" horiz-adv-x="1034" d="M366 754 L519 351 L680 754 L876 754 L989 0 L793 0 L738 434 L556 0 L478 0 L304 434 L240 0 L45 0 L173 754 L366 754 Z " />
<glyph glyph-name="uni041D" unicode="&#x41d;" horiz-adv-x="833" d="M275 754 L275 462 L558 462 L558 754 L754 754 L754 0 L558 0 L558 310 L275 310 L275 0 L79 0 L79 754 L275 754 Z " />
<glyph glyph-name="uni041E" unicode="&#x41e;" horiz-adv-x="924" d="M462 776 Q650 776 771 650 Q823 595 851 524 Q879 453 879 375 Q879 285 842.5 205 Q806 125 738 68 Q623 -27 459 -27 Q342 -27 247.5 26 Q153 79 99 172.5 Q45 266 45 382 Q45 467 82 546 Q119 625 186 681 Q240 727 311.5 751.5 Q383 776 462 776 Z M461 586 Q405 586 356.5 557.5 Q308 529 279 480.5 Q250 432 250 377 Q250 319 278.5 270 Q307 221 355 192 Q403 163 460 163 Q519 163 568.5 191.5 Q618 220 646.5 268.5 Q675 317 675 375 Q675 433 646.5 481 Q618 529 569 557.5 Q520 586 461 586 Z " />
<glyph glyph-name="uni041F" unicode="&#x41f;" horiz-adv-x="819" d="M740 754 L740 0 L545 0 L545 588 L275 588 L275 0 L79 0 L79 754 L740 754 Z " />
<glyph glyph-name="uni0420" unicode="&#x420;" horiz-adv-x="677" d="M79 0 L79 754 L390 754 Q456 754 499 739.5 Q542 725 579 690 Q652 620 652 504 Q652 448 636.5 401 Q621 354 591 321 Q560 285 512.5 268 Q465 251 397 251 L275 251 L275 0 L79 0 Z M339 408 Q395 408 421 430.5 Q447 453 447 502 Q447 597 340 597 L275 597 L275 408 L339 408 Z " />
<glyph glyph-name="uni0421" unicode="&#x421;" horiz-adv-x="667" d="M621 497 Q586 540 543.5 560 Q501 580 445 580 Q357 580 303.5 523 Q250 466 250 371 Q250 278 302.5 223.5 Q355 169 445 169 Q498 169 539.5 188 Q581 207 621 249 L621 17 Q552 -7 518 -13.5 Q484 -20 437 -20 Q318 -20 229.5 26.5 Q141 73 93 159.5 Q45 246 45 362 Q45 458 81.5 543.5 Q118 629 182 684 Q232 726 296.5 748 Q361 770 436 770 Q484 770 525.5 761 Q567 752 621 731 L621 497 Z " />
<glyph glyph-name="uni0422" unicode="&#x422;" horiz-adv-x="532" d="M8 588 L8 754 L525 754 L525 588 L363 588 L363 0 L167 0 L167 588 L8 588 Z " />
<glyph glyph-name="uni0423" unicode="&#x423;" horiz-adv-x="694" d="M-5 754 L225 754 L351 446 L480 754 L709 754 L305 0 L97 0 L247 267 L-5 754 Z " />
<glyph glyph-name="uni040E" unicode="&#x40e;" horiz-adv-x="694" d="M263 999 Q278 932 353 932 Q426 932 441 999 L568 999 Q564 917 506.5 871 Q449 825 353 825 Q256 825 198.5 871 Q141 917 137 999 L263 999 Z M-5 754 L225 754 L351 446 L480 754 L709 754 L305 0 L97 0 L247 267 L-5 754 Z " />
<glyph glyph-name="uni0424" unicode="&#x424;" horiz-adv-x="1090" d="M458 45 Q384 50 336 58 Q288 66 247 82 Q150 123 96.5 199 Q43 275 43 375 Q43 484 104 563.5 Q165 643 276 678 Q312 690 354.5 696.5 Q397 703 458 706 L458 814 L632 814 L632 706 Q702 702 751.5 693 Q801 684 843 668 Q941 629 994.5 552.5 Q1048 476 1048 375 Q1048 267 987 187.5 Q926 108 815 73 Q750 52 632 45 L632 -62 L458 -62 L458 45 Z M458 527 Q378 520 337 503 Q292 483 268.5 450.5 Q245 418 245 375 Q245 329 271.5 295 Q298 261 349 243 Q388 230 458 224 L458 527 Z M632 224 Q675 227 703 232.5 Q731 238 754 249 Q799 267 822 299.5 Q845 332 845 375 Q845 422 818 456 Q791 490 741 507 Q703 520 632 527 L632 224 Z " />
<glyph glyph-name="uni0425" unicode="&#x425;" horiz-adv-x="803" d="M295 754 L407 558 L523 754 L764 754 L519 402 L803 0 L566 0 L406 245 L236 0 L0 0 L295 402 L53 754 L295 754 Z " />
<glyph glyph-name="uni0427" unicode="&#x427;" horiz-adv-x="747" d="M472 214 Q422 206 400.5 204 Q379 202 350 202 Q252 202 182 232 Q112 262 79 318 Q59 351 50 398.5 Q41 446 41 518 L41 754 L236 754 L236 528 Q236 477 241 453.5 Q246 430 260 411 Q276 390 304.5 379 Q333 368 371 368 Q424 368 472 383 L472 754 L668 754 L668 0 L472 0 L472 214 Z " />
<glyph glyph-name="uni0426" unicode="&#x426;" horiz-adv-x="818" d="M275 754 L275 166 L536 166 L536 754 L731 754 L731 166 L802 166 L802 -145 L629 -145 L629 0 L79 0 L79 754 L275 754 Z " />
<glyph glyph-name="uni0428" unicode="&#x428;" horiz-adv-x="1155" d="M275 754 L275 166 L479 166 L479 754 L675 754 L675 166 L880 166 L880 754 L1076 754 L1076 0 L79 0 L79 754 L275 754 Z " />
<glyph glyph-name="uni0429" unicode="&#x429;" horiz-adv-x="1163" d="M275 754 L275 166 L479 166 L479 754 L675 754 L675 166 L880 166 L880 754 L1076 754 L1076 166 L1147 166 L1147 -145 L974 -145 L974 0 L79 0 L79 754 L275 754 Z " />
<glyph glyph-name="uni040F" unicode="&#x40f;" horiz-adv-x="810" d="M275 754 L275 166 L536 166 L536 754 L731 754 L731 0 L492 0 L492 -145 L319 -145 L319 0 L79 0 L79 754 L275 754 Z " />
<glyph glyph-name="uni042C" unicode="&#x42c;" horiz-adv-x="666" d="M268 754 L268 477 L401 477 Q519 477 581 417.5 Q643 358 643 246 Q643 183 619.5 131 Q596 79 554 47 Q487 0 374 0 L79 0 L79 754 L268 754 Z M344 153 Q400 153 426 174 Q452 195 452 241 Q452 287 426 308.5 Q400 330 344 330 L268 330 L268 153 L344 153 Z " />
<glyph glyph-name="uni042A" unicode="&#x42a;" horiz-adv-x="775" d="M6 588 L6 754 L379 754 L379 477 L512 477 Q630 477 692 417.5 Q754 358 754 246 Q754 183 730.5 130.5 Q707 78 664 47 Q597 0 485 0 L190 0 L190 588 L6 588 Z M454 153 Q511 153 537 174 Q563 195 563 241 Q563 287 536.5 308.5 Q510 330 454 330 L379 330 L379 153 L454 153 Z " />
<glyph glyph-name="uni042B" unicode="&#x42b;" horiz-adv-x="1015" d="M268 754 L268 477 L401 477 Q519 477 581 417.5 Q643 358 643 246 Q643 183 619.5 131 Q596 79 554 47 Q487 0 374 0 L79 0 L79 754 L268 754 Z M936 754 L936 0 L732 0 L732 754 L936 754 Z M344 153 Q400 153 426 174 Q452 195 452 241 Q452 287 426 308.5 Q400 330 344 330 L268 330 L268 153 L344 153 Z " />
<glyph glyph-name="uni0409" unicode="&#x409;" horiz-adv-x="1077" d="M322 588 L321 567 Q310 397 299.5 314.5 Q289 232 269 174 Q239 86 182.5 42.5 Q126 -1 41 -1 L-11 0 L-11 167 L12 166 Q55 166 78 203 Q101 240 114 332 Q134 469 144 754 L679 754 L679 477 L812 477 Q930 477 992 417.5 Q1054 358 1054 246 Q1054 183 1031 130.5 Q1008 78 965 47 Q898 0 785 0 L490 0 L490 588 L322 588 Z M755 153 Q812 153 837.5 174 Q863 195 863 241 Q863 287 837 308.5 Q811 330 755 330 L679 330 L679 153 L755 153 Z " />
<glyph glyph-name="uni040A" unicode="&#x40a;" horiz-adv-x="1118" d="M275 754 L275 477 L534 477 L534 754 L723 754 L723 477 L857 477 Q974 477 1036 417.5 Q1098 358 1098 246 Q1098 183 1075 130.5 Q1052 78 1009 47 Q942 0 829 0 L534 0 L534 324 L275 324 L275 0 L79 0 L79 754 L275 754 Z M799 153 Q856 153 881.5 174 Q907 195 907 241 Q907 287 881 308.5 Q855 330 799 330 L723 330 L723 153 L799 153 Z " />
<glyph glyph-name="uni0405" unicode="&#x405;" horiz-adv-x="645" d="M493 558 Q460 584 429 596.5 Q398 609 364 609 Q328 609 304 590.5 Q280 572 280 544 Q280 533 285 523 Q290 513 298 506 Q314 493 332 486 Q350 479 416 459 Q514 430 557.5 380.5 Q601 331 601 247 Q601 118 524 52 Q484 18 427.5 -0.5 Q371 -19 306 -19 Q239 -19 172 2.5 Q105 24 45 66 L129 224 Q175 184 216.5 165.5 Q258 147 302 147 Q345 147 371 167 Q397 187 397 220 Q397 251 372.5 269 Q348 287 279 307 Q217 326 186.5 338.5 Q156 351 136 368 Q76 418 76 518 Q76 593 108.5 650.5 Q141 708 199 740 Q257 772 332 772 Q391 772 452.5 756 Q514 740 571 711 L493 558 Z " />
<glyph glyph-name="uni0404" unicode="&#x404;" horiz-adv-x="750" d="M253 302 Q301 163 466 163 Q528 163 586 182 Q644 201 704 242 L704 40 Q654 15 578 -0.5 Q502 -16 432 -16 Q317 -16 229 33 Q141 82 92 170.5 Q43 259 43 373 Q43 490 92.5 580.5 Q142 671 232.5 720.5 Q323 770 441 770 Q559 770 680 720 L680 525 Q609 559 560.5 572.5 Q512 586 460 586 Q380 586 329 554.5 Q278 523 253 458 L563 458 L563 302 L253 302 Z " />
<glyph glyph-name="uni042D" unicode="&#x42d;" horiz-adv-x="750" d="M496 458 Q471 523 420.5 554.5 Q370 586 289 586 Q237 586 189 572.5 Q141 559 70 525 L70 720 Q189 770 308 770 Q426 770 516.5 720.5 Q607 671 656.5 580.5 Q706 490 706 373 Q706 259 657 170.5 Q608 82 520 33 Q432 -16 318 -16 Q248 -16 172.5 -0.5 Q97 15 46 40 L46 242 Q106 200 163 181.5 Q220 163 284 163 Q365 163 418.5 198 Q472 233 496 302 L186 302 L186 458 L496 458 Z " />
<glyph glyph-name="uni0406" unicode="&#x406;" horiz-adv-x="354" d="M275 754 L275 0 L79 0 L79 754 L275 754 Z " />
<glyph glyph-name="uni0407" unicode="&#x407;" horiz-adv-x="354" d="M41 1020 Q82 1020 110.5 991.5 Q139 963 139 923 Q139 883 110.5 854 Q82 825 42 825 Q0 825 -28 853.5 Q-56 882 -56 924 Q-56 963 -27.5 991.5 Q1 1020 41 1020 Z M312 1020 Q353 1020 381.5 991.5 Q410 963 410 923 Q410 883 381.5 854 Q353 825 313 825 Q272 825 243.5 854 Q215 883 215 924 Q215 963 243.5 991.5 Q272 1020 312 1020 Z M79 0 L79 754 L275 754 L275 0 L79 0 Z " />
<glyph glyph-name="uni0408" unicode="&#x408;" horiz-adv-x="529" d="M451 233 Q451 169 438.5 132 Q426 95 393 59 Q358 21 309.5 0.5 Q261 -20 206 -20 Q143 -20 95 7.5 Q47 35 9 92 L137 221 Q141 188 158 168 Q175 148 200 148 Q221 148 234 160 Q247 172 252 195 Q254 211 254.5 226.5 Q255 242 255 278 L255 754 L451 754 L451 233 Z " />
<glyph glyph-name="uni040B" unicode="&#x40b;" horiz-adv-x="803" d="M6 588 L6 754 L534 754 L534 588 L338 588 L338 376 Q401 426 448 445 Q495 464 553 464 Q607 464 650.5 443.5 Q694 423 719 386 Q748 340 748 246 L748 0 L560 0 L560 202 Q560 252 541 273 Q522 294 476 294 Q439 294 406.5 275.5 Q374 257 338 216 L338 0 L138 0 L138 588 L6 588 Z " />
<glyph glyph-name="uni042E" unicode="&#x42e;" horiz-adv-x="1223" d="M275 754 L275 466 L397 466 Q432 606 534.5 685.5 Q637 765 785 765 Q897 765 987 714.5 Q1077 664 1128.5 575.5 Q1180 487 1180 377 Q1180 268 1128 179 Q1076 90 984.5 39.5 Q893 -11 780 -11 Q632 -11 529.5 70 Q427 151 395 294 L275 294 L275 0 L79 0 L79 754 L275 754 Z M783 575 Q729 575 684 549 Q639 523 612.5 478.5 Q586 434 586 381 Q586 324 611.5 278 Q637 232 682 205.5 Q727 179 782 179 Q837 179 882 204.5 Q927 230 953 275 Q979 320 979 375 Q979 430 953 476 Q927 522 882 548.5 Q837 575 783 575 Z " />
<glyph glyph-name="uni042F" unicode="&#x42f;" horiz-adv-x="714" d="M237 0 L26 0 L231 295 Q192 301 167 311 Q142 321 122 339 Q56 397 56 506 Q56 577 83.5 631.5 Q111 686 162 716 Q195 736 237 745 Q279 754 337 754 L635 754 L635 0 L437 0 L437 273 L416 273 L237 0 Z M368 596 Q313 596 283.5 572 Q254 548 254 502 Q254 414 367 414 L437 414 L437 596 L368 596 Z " />
<glyph glyph-name="uni0402" unicode="&#x402;" horiz-adv-x="803" d="M6 588 L6 754 L534 754 L534 588 L338 588 L338 376 Q401 426 448 445 Q495 464 553 464 Q607 464 650.5 443.5 Q694 423 719 386 Q748 340 748 246 L748 -257 L560 -257 L560 202 Q560 252 541 273 Q522 294 476 294 Q439 294 406.5 275.5 Q374 257 338 216 L338 0 L138 0 L138 588 L6 588 Z " />
</font>
</svg>
